BitTorrentTracker PerecTracker.org
BitTorrentTracker PerecTracker.org
    
Регистрация  ·  Вход
 
 · 
Забыли пароль?

  • Сестричка, действуй / Sister Act (Эмиль Ардолино / Emile Ardolino) [1992, комедия, музыка, BDRip, HD (1080p, 720p)] MVO, Original + sub (rus, eng)

    Ответить на тему
     
    Автор Сообщение

    Flirldrerve

    Создавать темы 27-Окт-2015 05:20

           

    [Цитировать]

    Сестричка, действуй / Sister Act
    "В чужой монастырь со своим уставом"
    7.150 / 10
    -Год выпуска: 1992
    Страна: США
    Жанр: комедия, музыка
    Продолжительность: 100 мин.
    Перевод:
    Профессиональный (многоголосый, закадровый)
    Режиссёр: Эмиль Ардолино
    Сценарий: Джозеф Ховард
    Продюсер: Тери Шварц, Синди Гилмор, Марио Искович
    В ролях: Вупи Голдберг, Мэгги Смит, Кэти Нэджими, Уэнди Маккена, Билл Нанн, Мэри Уикс, Харви Кейтель, Роберт Миранда, Ричард Портноу, Эллен Альбертини Дау
    Сборы в США: $139 605 150
    Сборы в мире: + $92 000 000 = $231 605 150
    Мировая премьера: 29 мая 1992
    Релиз на Blu-Ray: 29 января 2013, Уолт Дисней Компани СНГ
    Релиз на DVD: 19 апреля 2011, Уолт Дисней Компани СНГ
    Описание: Не слишком удачливая певица Долорес - любовница владельца казино Винца - не подозревает, что ее избранник не только бизнесмен, но и гангстер, хорошо известный в криминальных кругах. Она понимает это слишком поздно - когда становится свидетелем его преступления.
    Полиция прячет Долорес от преследователей в таком месте, где ее никогда не станут искать... в монастыре, к несчастью для нее, не мужском.
    Чтобы скоротать время, новоиспеченная "сестра" решает приобщить монахинь к прекрасному... и церковные песнопения превращаются в дискотеку. Когда душа поет, даже сутана не мешает танцевать!-Качество исходника: Blu-Ray 1080p
    Качество: BDRip
    Тип: 720p 1080p
    Контейнер: m4v
    Видео: 1280x694 at 23.976 fps, MPEG-4 AVC, ~7000 kbps avg
    Видео: 1920x1040 at 23.976 fps, MPEG-4 AVC, ~16100 kbps avg
    Аудио#1: Russian: 48 kHz, ААС, 2/0 (L,R), ~160.00 kbps avg |Профессиональный (многоголосый, закадровый)
    Аудио#2: English: 48 kHz, ААС, 2/0 (L,R), ~160.00 kbps avg
    Аудио#3: Russian: 48 kHz, AC3, 3/2 (L,C,R,l,r) + LFE ch, ~448 kbps avg |Профессиональный (многоголосый, закадровый)
    Аудио#4: English: 48 kHz, AC3, 3/2 (L,C,R,l,r) + LFE ch, ~448 kbps avg-Субтитры №1: Russian: |Полные
    Субтитры №2: English: |Полные-

    из книги «3500 кинорецензий»


    Криминально-авантюрная музыкальная комедия (Сергей Кудрявцев 7/10)
    Как только ни переводили у нас название этой популярной ленты: и «Действуй, сестра», и «Сёстры по несчастью», и «Как это принято у сестёр». Хотя Делорис Ван Картир, афроамериканская певица из Лас-Вегаса, которая скрывается от мафиози и вынуждена на время затаиться в женском монастыре, превратившись в сестру-монахиню Мэри Кларенс, организующую хор среди послушниц, сама характеризует своё новое обличье следующим образом: I Have a Sister Act (что буквально означает — «Я играю роль сестры-монахини»).
    Режиссёр Эмиль Ардолино, который ранее не без успеха модифицировал жанр музыкальной романтической ретро-комедии в ленте «Грязные танцы», на сей раз решил подвергнуть своеобразной перелицовке типичную криминальную комедию, а также стиль музыкального дивертисмента. Он сплавил это в одно занимательное действо, где самым ударным моментом оказался практически эстрадный (если угодно — видеоклиповый) номер в исполнении поющих и пляшущих монахинь в соответствующем облачении. Между прочим, Вупи Голдберг, сыгравшая главную роль, номинировалась не только на «Золотой глобус», но ещё и на премию MTV, а вот смогла получить приз «Имидж» (как и фильм в целом), который вручается в США за удачное представление на экране героев не с белым цветом кожи.
    1993

    -

    iTunes Meta Tags for country ru

    Name: Сестричка, действуй
    Artist: Emile Ardolino
    Genre: Comedy
    Release Date: 1992-05-29T08:00:00Z
    Description: Не слишком удачливая певица Долорес - любовница владельца казино Винца - не подозревает, что ее избранник не только бизнесмен, но и гангстер, хорошо известный в криминальных кругах. Она понимает это слишком поздно - когда становится свидетелем его преступления...
    Long Description: Не слишком удачливая певица Долорес - любовница владельца казино Винца - не подозревает, что ее избранник не только бизнесмен, но и гангстер, хорошо известный в криминальных кругах. Она понимает это слишком поздно - когда становится свидетелем его преступления.
    Полиция прячет Долорес от преследователей в таком месте, где ее никогда не станут искать... в монастыре, к несчастью для нее, не мужском.
    Чтобы скоротать время, новоиспеченная "сестра" решает приобщить монахинь к прекрасному... и церковные песнопения превращаются в дискотеку. Когда душа поет, даже сутана не мешает танцевать!
    Rating: 12+
    Rating Annotation: Rated 12+ Для зрителей, достигших возраста 12 лет
    Studio: Touchstone Pictures
    Cast: Вупи Голдберг, Мэгги Смит, Кэти Нэджими, Уэнди Маккена, Билл Нанн, Мэри Уикс, Харви Кейтель, Роберт Миранда, Ричард Портноу, Эллен Альбертини Дау
    Director: Эмиль Ардолино
    Producers: Тери Шварц, Синди Гилмор, Марио Искович
    Screenwriters: Джозеф Ховард
    Copyright: © 1992 Touchstone Pictures
    contentID: 599494761
    XID: Apple:vendor_id:1992-6558
    Sort Name: Сестричка, действуй

    iTunes Meta Tags for country us

    Name: Sister Act
    Artist: Emile Ardolino
    Genre: Comedy
    Release Date: 1992-05-29T08:00:00Z
    Description: Не слишком удачливая певица Долорес - любовница владельца казино Винца - не подозревает, что ее избранник не только бизнесмен, но и гангстер, хорошо известный в криминальных кругах. Она понимает это слишком поздно - когда становится свидетелем его преступления...
    Long Description: Не слишком удачливая певица Долорес - любовница владельца казино Винца - не подозревает, что ее избранник не только бизнесмен, но и гангстер, хорошо известный в криминальных кругах. Она понимает это слишком поздно - когда становится свидетелем его преступления.
    Полиция прячет Долорес от преследователей в таком месте, где ее никогда не станут искать... в монастыре, к несчастью для нее, не мужском.
    Чтобы скоротать время, новоиспеченная "сестра" решает приобщить монахинь к прекрасному... и церковные песнопения превращаются в дискотеку. Когда душа поет, даже сутана не мешает танцевать!
    Rating: PG
    Rating Annotation: Rated PG for Mild Violence And Language
    Studio: Touchstone Pictures
    Cast: Вупи Голдберг, Мэгги Смит, Кэти Нэджими, Уэнди Маккена, Билл Нанн, Мэри Уикс, Харви Кейтель, Роберт Миранда, Ричард Портноу, Эллен Альбертини Дау
    Director: Эмиль Ардолино
    Producers: Тери Шварц, Синди Гилмор, Марио Искович
    Screenwriters: Джозеф Ховард
    Copyright: © 1992 Touchstone Pictures
    contentID: 599494761
    XID: Apple:vendor_id:1992-6558
    Sort Name: Sister Act

    MediaInfo 720p Release

    Общее
    Полное имя                               : Y:\ATV\Sister Act\Sister Act (HD).m4v
    Формат                                   : MPEG-4
    Идентификатор кодека                     : M4V
    Размер файла                             : 5,76 Гбайт
    Продолжительность                        : 1 ч. 40 м.
    Режим общего битрейта                    : Переменный
    Общий поток                              : 8223 Кбит/сек
    Название фильма                          : Sister Act
    Исполнитель                              : Emile Ardolino
    Жанр                                     : Comedy
    Дата записи                              : UTC 1992-05-29 08:00:00
    Дата кодирования                         : UTC 2014-12-02 15:01:47
    Дата пометки                             : UTC 2014-12-04 07:30:57
    Правообладатель                          : © 1992 Touchstone Pictures
    Обложка                                  : Yes
    sonm                                     : Sister Act
    desc                                     : Не слишком удачливая певица Долорес - любовница владельца казино Винца - не подозревает, что ее избранник не только бизнесмен, но и гангстер, хорошо известный в криминальных кругах. Она понимает это слишком поздно - когда становится свидетелем его преступления...
    ldes                                     : Не слишком удачливая певица Долорес - любовница владельца казино Винца - не подозревает, что ее избранник не только бизнесмен, но и гангстер, хорошо известный в криминальных кругах. Она понимает это слишком поздно - когда становится свидетелем его преступления. / Полиция прячет Долорес от преследователей в таком месте, где ее никогда не станут искать... в монастыре, к несчастью для нее, не мужском. / Чтобы скоротать время, новоиспеченная "сестра" решает приобщить монахинь к прекрасному... и церковные песнопения превращаются в дискотеку. Когда душа поет, даже сутана не мешает танцевать!
    hdvd                                     : 1
    stik                                     : 9
    rtng                                     : 0
    cnID                                     : 599494761
    xid                                      : Apple:vendor_id:1992-6558
    iTunEXTC                                 : mpaa|PG|200|Rated PG for Mild Violence And Language
    iTunMOVI                                 : <?xml version="1.0" encoding="UTF-8"?> / <!DOCTYPE plist PUBLIC "-//Apple//DTD PLIST 1.0//EN" "http://anonym.to/?http://www.apple.com/DTDs/PropertyList-1.0.dtd"> / <plist version="1.0"> / <dict> /  <key>cast</key> /  <array> /   <dict> /    <key>name</key> /    <string>Вупи Голдберг</string> /   </dict> /   <dict> /    <key>name</key> /    <string>Мэгги Смит</string> /   </dict> /   <dict> /    <key>name</key> /    <string>Кэти Нэджими</string> /   </dict> /   <dict> /    <key>name</key> /    <string>Уэнди Маккена</string> /   </dict> /   <dict> /    <key>name</key> /    <string>Билл Нанн</string> /   </dict> /   <dict> /    <key>name</key> /    <string>Мэри Уикс</string> /   </dict> /   <dict> /    <key>name</key> /    <string>Харви Кейтель</string> /   </dict> /   <dict> /    <key>name</key> /    <string>Роберт Миранда</string> /   </dict> /   <dict> /    <key>name</key> /    <string>Ричард Портноу</string> /   </dict> /   <dict> /    <key>name</key> /    <string>Эллен Альбертини Дау</string> /   </dict> /  </array> /  <key>directors</key> /  <array> /   <dict> /    <key>name</key> /    <string>Эмиль Ардолино</string> /   </dict> /  </array> /  <key>producers</key> /  <array> /   <dict> /    <key>name</key> /    <string>Тери Шварц</string> /   </dict> /   <dict> /    <key>name</key> /    <string>Синди Гилмор</string> /   </dict> /   <dict> /    <key>name</key> /    <string>Марио Искович</string> /   </dict> /  </array> /  <key>screenwriters</key> /  <array> /   <dict> /    <key>name</key> /    <string>Джозеф Ховард</string> /   </dict> /  </array> /  <key>studio</key> /  <string>Touchstone Pictures</string> / </dict> / </plist>
    Видео #1
    Идентификатор                            : 1
    Формат                                   : AVC
    Формат/Информация                        : Advanced Video Codec
    Профиль формата                          : High@L3.1
    Параметр CABAC формата                   : Нет
    Параметр ReFrames формата                : 3 кадра
    Идентификатор кодека                     : avc1
    Идентификатор кодека/Информация          : Advanced Video Coding
    Продолжительность                        : 1 ч. 40 м.
    Вид битрейта                             : Переменный
    Битрейт                                  : 7000 Кбит/сек
    Ширина                                   : 1280 пикселей
    Высота                                   : 694 пикселя
    Соотношение сторон                       : 1,85:1
    Режим частоты кадров                     : Переменный
    Частота кадров                           : 23,976 кадра/сек
    Минимальная частота кадров               : 23,810 кадра/сек
    Максимальная частота кадров              : 24,390 кадра/сек
    Цветовое пространство                    : YUV
    Субдискретизация насыщенности            : 4:2:0
    Битовая глубина                          : 8 бит
    Тип развёртки                            : Прогрессивная
    Бит/(Пиксели*Кадры)                      : 0.329
    Размер потока                            : 4,90 Гбайт (85%)
    Библиотека кодирования                   : x264 core 142 r2479 dd79a61
    Настройки программы                      : cabac=0 / ref=3 / deblock=1:-3:-3 / analyse=0x3:0x113 / me=umh / subme=9 / psy=1 / psy_rd=1.20:0.00 / mixed_ref=1 / me_range=32 / chroma_me=1 / trellis=0 / 8x8dct=1 / cqm=0 / deadzone=21,11 / fast_pskip=1 / chroma_qp_offset=-2 / threads=18 / lookahead_threads=1 / sliced_threads=0 / nr=0 / decimate=1 / interlaced=0 / bluray_compat=0 / constrained_intra=0 / bframes=8 / b_pyramid=0 / b_adapt=1 / b_bias=0 / direct=1 / weightb=0 / open_gop=0 / weightp=0 / keyint=240 / keyint_min=24 / scenecut=40 / intra_refresh=0 / rc_lookahead=40 / rc=2pass / mbtree=1 / bitrate=7000 / ratetol=1.0 / qcomp=0.60 / qpmin=4 / qpmax=69 / qpstep=4 / cplxblur=20.0 / qblur=0.5 / vbv_maxrate=9500 / vbv_bufsize=9500 / nal_hrd=none / filler=0 / ip_ratio=1.40 / aq=1:0.70
    Язык                                     : English
    Дата кодирования                         : UTC 2014-12-02 15:01:47
    Дата пометки                             : UTC 2014-12-02 15:05:05
    Основные цвета                           : BT.709-5, BT.1361, IEC 61966-2-4, SMPTE RP177
    Характеристики трансфера                 : BT.709-5, BT.1361
    Коэффициенты матрицы                     : BT.709-5, BT.1361, IEC 61966-2-4 709, SMPTE RP177
    Видео #2
    Идентификатор                            : 9
    Формат                                   : JPEG
    Идентификатор кодека                     : jpeg
    Продолжительность                        : 1 ч. 40 м.
    Вид битрейта                             : Переменный
    Битрейт                                  : 1725 бит/сек
    Ширина                                   : 640 пикселей
    Высота                                   : 347 пикселей
    Соотношение сторон                       : 1,85:1
    Режим частоты кадров                     : Переменный
    Частота кадров                           : 0,004 кадр/сек
    Минимальная частота кадров               : 0,001 кадр/сек
    Максимальная частота кадров              : 0,035 кадр/сек
    Цветовое пространство                    : YUV
    Субдискретизация насыщенности            : 4:2:0
    Битовая глубина                          : 8 бит
    Метод сжатия                             : С потерями
    Бит/(Пиксели*Кадры)                      : 1.942
    Размер потока                            : 1,39 Мбайт (0%)
    Язык                                     : English
    Дата кодирования                         : UTC 2014-12-02 15:30:18
    Дата пометки                             : UTC 2014-12-02 15:30:19
    Аудио #1
    Идентификатор                            : 2
    Формат                                   : AAC
    Формат/Информация                        : Advanced Audio Codec
    Профиль формата                          : LC
    Идентификатор кодека                     : 40
    Продолжительность                        : 1 ч. 40 м.
    Вид битрейта                             : Переменный
    Битрейт                                  : 160 Кбит/сек
    Максимальный битрейт                     : 265 Кбит/сек
    Каналы                                   : 2 канала
    Расположение каналов                     : Front: L R
    Частота                                  : 48,0 КГц
    Метод сжатия                             : С потерями
    Задержка видео                           : -7 с. 0 мс.
    Размер потока                            : 115 Мбайт (2%)
    Язык                                     : Russian
    Дата кодирования                         : UTC 2014-12-02 15:29:22
    Дата пометки                             : UTC 2014-12-02 15:30:00
    Аудио #2
    Идентификатор                            : 3
    Формат                                   : AAC
    Формат/Информация                        : Advanced Audio Codec
    Профиль формата                          : LC
    Идентификатор кодека                     : 40
    Продолжительность                        : 1 ч. 40 м.
    Вид битрейта                             : Переменный
    Битрейт                                  : 165 Кбит/сек
    Максимальный битрейт                     : 264 Кбит/сек
    Каналы                                   : 2 канала
    Расположение каналов                     : Front: L R
    Частота                                  : 48,0 КГц
    Метод сжатия                             : С потерями
    Задержка видео                           : -7 с. 0 мс.
    Размер потока                            : 118 Мбайт (2%)
    Язык                                     : English
    Дата кодирования                         : UTC 2014-12-02 15:29:22
    Дата пометки                             : UTC 2014-12-02 15:30:01
    Аудио #3
    Идентификатор                            : 4
    Формат                                   : AC-3
    Формат/Информация                        : Audio Coding 3
    Расширение режима                        : CM (complete main)
    Параметр Endianness формата              : Big
    Идентификатор кодека                     : ac-3
    Продолжительность                        : 1 ч. 40 м.
    Вид битрейта                             : Постоянный
    Битрейт                                  : 448 Кбит/сек
    Каналы                                   : 6 каналов
    Расположение каналов                     : Front: L C R, Side: L R, LFE
    Частота                                  : 48,0 КГц
    Битовая глубина                          : 16 бит
    Метод сжатия                             : С потерями
    Задержка видео                           : -7 с. 0 мс.
    Размер потока                            : 321 Мбайт (5%)
    Язык                                     : Russian
    Дата кодирования                         : UTC 2014-12-02 15:29:22
    Дата пометки                             : UTC 2014-12-02 15:29:59
    Аудио #4
    Идентификатор                            : 5
    Формат                                   : AC-3
    Формат/Информация                        : Audio Coding 3
    Расширение режима                        : CM (complete main)
    Параметр Endianness формата              : Big
    Идентификатор кодека                     : ac-3
    Продолжительность                        : 1 ч. 40 м.
    Вид битрейта                             : Постоянный
    Битрейт                                  : 448 Кбит/сек
    Каналы                                   : 6 каналов
    Расположение каналов                     : Front: L C R, Side: L R, LFE
    Частота                                  : 48,0 КГц
    Битовая глубина                          : 16 бит
    Метод сжатия                             : С потерями
    Задержка видео                           : -7 с. 0 мс.
    Размер потока                            : 321 Мбайт (5%)
    Язык                                     : English
    Дата кодирования                         : UTC 2014-12-02 15:29:22
    Дата пометки                             : UTC 2014-12-02 15:29:49
    Текст #1
    Идентификатор                            : 6
    Формат                                   : Timed text
    Режим смешивания                         : sbtl
    Идентификатор кодека                     : tx3g
    Продолжительность                        : 1 ч. 37 м.
    Вид битрейта                             : Переменный
    Битрейт                                  : 97 бит/сек
    Задержка видео                           : -7 с. 0 мс.
    Размер потока                            : 69,2 Кбайт (0%)
    Язык                                     : Russian
    Дата кодирования                         : UTC 2014-12-02 15:29:22
    Дата пометки                             : UTC 2014-12-02 15:29:23
    Текст #2
    Идентификатор                            : 7
    Формат                                   : Timed text
    Режим смешивания                         : sbtl
    Идентификатор кодека                     : tx3g
    Продолжительность                        : 1 ч. 32 м.
    Вид битрейта                             : Переменный
    Битрейт                                  : 73 бит/сек
    Задержка видео                           : -7 с. 0 мс.
    Размер потока                            : 49,4 Кбайт (0%)
    Язык                                     : English
    Дата кодирования                         : UTC 2014-12-02 15:29:22
    Дата пометки                             : UTC 2014-12-02 15:29:23
    Текст #3
    Идентификатор                            : 8
    Формат                                   : Apple text
    Идентификатор кодека                     : text
    Продолжительность                        : 1 ч. 40 м.
    Вид битрейта                             : Переменный
    Битрейт                                  : 1 бит/сек
    Задержка видео                           : -7 с. 0 мс.
    Размер потока                            : 851 байт (0%)
    Язык                                     : English
    Дата кодирования                         : UTC 2014-12-02 15:30:01
    Дата пометки                             : UTC 2014-12-02 15:30:01
    Меню
    00:00:00.000                             : Opening Titles
    00:04:33.523                             : An Honest, Decent Couple
    00:06:40.942                             : His Wife's Coat
    00:09:18.140                             : Reluctant Witness
    00:14:01.090                             : We Can Help You
    00:16:10.177                             : St. Katherine's Convent
    00:21:21.947                             : Welcome, Sister Mary Clarence
    00:26:51.067                             : He's Got Deloris
    00:27:59.844                             : God Has Brought You Here, Take the Hint
    00:30:39.295                             : A Small Congregation
    00:32:40.583                             : Database Hoods
    00:33:09.237                             : Chores
    00:37:01.385                             : Call to Lt. Souther
    00:37:52.478                             : A Gift From Mary Robert
    00:40:34.098                             : A Nun's Bar
    00:45:13.752                             : New Choir Director
    00:53:53.229                             : "Hail, Holy Queen"
    00:57:53.052                             : Reaching Out
    01:04:07.927                             : "My God"
    01:08:30.022                             : Glorious News
    01:11:24.780                             : That Makes Two of Us
    01:14:08.527                             : Wicked Indulgence
    01:15:30.567                             : A Leak in the Department
    01:16:49.771                             : Kidnapped
    01:20:29.199                             : Nuns to the Rescue
    01:32:57.697                             : Concert for the Pope
    01:36:36.790                             : End Credits

    MediaInfo 1080p Release

    Общее
    Полное имя                               : Y:\ATV\Sister Act\Sister Act (1080p HD).m4v
    Формат                                   : MPEG-4
    Идентификатор кодека                     : M4V
    Размер файла                             : 12,1 Гбайт
    Продолжительность                        : 1 ч. 40 м.
    Режим общего битрейта                    : Переменный
    Общий поток                              : 17,3 Мбит/сек
    Название фильма                          : Sister Act
    Исполнитель                              : Emile Ardolino
    Жанр                                     : Comedy
    Дата записи                              : UTC 1992-05-29 08:00:00
    Дата кодирования                         : UTC 2014-12-02 14:46:40
    Дата пометки                             : UTC 2014-12-04 07:52:14
    Правообладатель                          : © 1992 Touchstone Pictures
    Обложка                                  : Yes
    sonm                                     : Sister Act
    desc                                     : Не слишком удачливая певица Долорес - любовница владельца казино Винца - не подозревает, что ее избранник не только бизнесмен, но и гангстер, хорошо известный в криминальных кругах. Она понимает это слишком поздно - когда становится свидетелем его преступления...
    ldes                                     : Не слишком удачливая певица Долорес - любовница владельца казино Винца - не подозревает, что ее избранник не только бизнесмен, но и гангстер, хорошо известный в криминальных кругах. Она понимает это слишком поздно - когда становится свидетелем его преступления. / Полиция прячет Долорес от преследователей в таком месте, где ее никогда не станут искать... в монастыре, к несчастью для нее, не мужском. / Чтобы скоротать время, новоиспеченная "сестра" решает приобщить монахинь к прекрасному... и церковные песнопения превращаются в дискотеку. Когда душа поет, даже сутана не мешает танцевать!
    hdvd                                     : 2
    stik                                     : 9
    rtng                                     : 0
    cnID                                     : 599494761
    xid                                      : Apple:vendor_id:1992-6558
    iTunEXTC                                 : mpaa|PG|200|Rated PG for Mild Violence And Language
    iTunMOVI                                 : <?xml version="1.0" encoding="UTF-8"?> / <!DOCTYPE plist PUBLIC "-//Apple//DTD PLIST 1.0//EN" "http://anonym.to/?http://www.apple.com/DTDs/PropertyList-1.0.dtd"> / <plist version="1.0"> / <dict> /  <key>cast</key> /  <array> /   <dict> /    <key>name</key> /    <string>Вупи Голдберг</string> /   </dict> /   <dict> /    <key>name</key> /    <string>Мэгги Смит</string> /   </dict> /   <dict> /    <key>name</key> /    <string>Кэти Нэджими</string> /   </dict> /   <dict> /    <key>name</key> /    <string>Уэнди Маккена</string> /   </dict> /   <dict> /    <key>name</key> /    <string>Билл Нанн</string> /   </dict> /   <dict> /    <key>name</key> /    <string>Мэри Уикс</string> /   </dict> /   <dict> /    <key>name</key> /    <string>Харви Кейтель</string> /   </dict> /   <dict> /    <key>name</key> /    <string>Роберт Миранда</string> /   </dict> /   <dict> /    <key>name</key> /    <string>Ричард Портноу</string> /   </dict> /   <dict> /    <key>name</key> /    <string>Эллен Альбертини Дау</string> /   </dict> /  </array> /  <key>directors</key> /  <array> /   <dict> /    <key>name</key> /    <string>Эмиль Ардолино</string> /   </dict> /  </array> /  <key>producers</key> /  <array> /   <dict> /    <key>name</key> /    <string>Тери Шварц</string> /   </dict> /   <dict> /    <key>name</key> /    <string>Синди Гилмор</string> /   </dict> /   <dict> /    <key>name</key> /    <string>Марио Искович</string> /   </dict> /  </array> /  <key>screenwriters</key> /  <array> /   <dict> /    <key>name</key> /    <string>Джозеф Ховард</string> /   </dict> /  </array> /  <key>studio</key> /  <string>Touchstone Pictures</string> / </dict> / </plist>
    Видео #1
    Идентификатор                            : 1
    Формат                                   : AVC
    Формат/Информация                        : Advanced Video Codec
    Профиль формата                          : High@L4.0
    Параметр CABAC формата                   : Да
    Параметр ReFrames формата                : 4 кадра
    Идентификатор кодека                     : avc1
    Идентификатор кодека/Информация          : Advanced Video Coding
    Продолжительность                        : 1 ч. 40 м.
    Вид битрейта                             : Переменный
    Битрейт                                  : 16,1 Мбит/сек
    Ширина                                   : 1920 пикселей
    Высота                                   : 1040 пикселей
    Соотношение сторон                       : 1,85:1
    Режим частоты кадров                     : Переменный
    Частота кадров                           : 23,976 кадра/сек
    Минимальная частота кадров               : 23,810 кадра/сек
    Максимальная частота кадров              : 24,390 кадра/сек
    Цветовое пространство                    : YUV
    Субдискретизация насыщенности            : 4:2:0
    Битовая глубина                          : 8 бит
    Тип развёртки                            : Прогрессивная
    Бит/(Пиксели*Кадры)                      : 0.336
    Размер потока                            : 11,3 Гбайт (93%)
    Библиотека кодирования                   : x264 core 142 r2479 dd79a61
    Настройки программы                      : cabac=1 / ref=4 / deblock=1:-3:-3 / analyse=0x3:0x113 / me=umh / subme=9 / psy=1 / psy_rd=1.20:0.00 / mixed_ref=1 / me_range=32 / chroma_me=1 / trellis=2 / 8x8dct=1 / cqm=0 / deadzone=21,11 / fast_pskip=1 / chroma_qp_offset=-2 / threads=18 / lookahead_threads=1 / sliced_threads=0 / nr=0 / decimate=1 / interlaced=0 / bluray_compat=0 / constrained_intra=0 / bframes=8 / b_pyramid=2 / b_adapt=1 / b_bias=0 / direct=1 / weightb=1 / open_gop=0 / weightp=2 / keyint=240 / keyint_min=24 / scenecut=40 / intra_refresh=0 / rc_lookahead=40 / rc=2pass / mbtree=1 / bitrate=16100 / ratetol=1.0 / qcomp=0.60 / qpmin=0 / qpmax=69 / qpstep=4 / cplxblur=20.0 / qblur=0.5 / vbv_maxrate=25000 / vbv_bufsize=25000 / nal_hrd=none / filler=0 / ip_ratio=1.40 / aq=1:0.70
    Язык                                     : English
    Дата кодирования                         : UTC 2014-12-02 14:46:40
    Дата пометки                             : UTC 2014-12-02 14:56:07
    Основные цвета                           : BT.709-5, BT.1361, IEC 61966-2-4, SMPTE RP177
    Характеристики трансфера                 : BT.709-5, BT.1361
    Коэффициенты матрицы                     : BT.709-5, BT.1361, IEC 61966-2-4 709, SMPTE RP177
    Видео #2
    Идентификатор                            : 9
    Формат                                   : JPEG
    Идентификатор кодека                     : jpeg
    Продолжительность                        : 1 ч. 40 м.
    Вид битрейта                             : Переменный
    Битрейт                                  : 1706 бит/сек
    Ширина                                   : 640 пикселей
    Высота                                   : 346 пикселей
    Соотношение сторон                       : 1,85:1
    Режим частоты кадров                     : Переменный
    Частота кадров                           : 0,004 кадр/сек
    Минимальная частота кадров               : 0,001 кадр/сек
    Максимальная частота кадров              : 0,035 кадр/сек
    Цветовое пространство                    : YUV
    Субдискретизация насыщенности            : 4:2:0
    Битовая глубина                          : 8 бит
    Метод сжатия                             : С потерями
    Бит/(Пиксели*Кадры)                      : 1.926
    Размер потока                            : 1,37 Мбайт (0%)
    Язык                                     : English
    Дата кодирования                         : UTC 2014-12-02 16:15:51
    Дата пометки                             : UTC 2014-12-02 16:15:54
    Аудио #1
    Идентификатор                            : 2
    Формат                                   : AAC
    Формат/Информация                        : Advanced Audio Codec
    Профиль формата                          : LC
    Идентификатор кодека                     : 40
    Продолжительность                        : 1 ч. 40 м.
    Вид битрейта                             : Переменный
    Битрейт                                  : 160 Кбит/сек
    Максимальный битрейт                     : 265 Кбит/сек
    Каналы                                   : 2 канала
    Расположение каналов                     : Front: L R
    Частота                                  : 48,0 КГц
    Метод сжатия                             : С потерями
    Задержка видео                           : -14 с.
    Размер потока                            : 115 Мбайт (1%)
    Язык                                     : Russian
    Дата кодирования                         : UTC 2014-12-02 16:14:51
    Дата пометки                             : UTC 2014-12-02 16:15:25
    Аудио #2
    Идентификатор                            : 3
    Формат                                   : AAC
    Формат/Информация                        : Advanced Audio Codec
    Профиль формата                          : LC
    Идентификатор кодека                     : 40
    Продолжительность                        : 1 ч. 40 м.
    Вид битрейта                             : Переменный
    Битрейт                                  : 165 Кбит/сек
    Максимальный битрейт                     : 264 Кбит/сек
    Каналы                                   : 2 канала
    Расположение каналов                     : Front: L R
    Частота                                  : 48,0 КГц
    Метод сжатия                             : С потерями
    Задержка видео                           : -14 с.
    Размер потока                            : 118 Мбайт (1%)
    Язык                                     : English
    Дата кодирования                         : UTC 2014-12-02 16:14:52
    Дата пометки                             : UTC 2014-12-02 16:15:25
    Аудио #3
    Идентификатор                            : 4
    Формат                                   : AC-3
    Формат/Информация                        : Audio Coding 3
    Расширение режима                        : CM (complete main)
    Параметр Endianness формата              : Big
    Идентификатор кодека                     : ac-3
    Продолжительность                        : 1 ч. 40 м.
    Вид битрейта                             : Постоянный
    Битрейт                                  : 448 Кбит/сек
    Каналы                                   : 6 каналов
    Расположение каналов                     : Front: L C R, Side: L R, LFE
    Частота                                  : 48,0 КГц
    Битовая глубина                          : 16 бит
    Метод сжатия                             : С потерями
    Задержка видео                           : -14 с.
    Размер потока                            : 321 Мбайт (3%)
    Язык                                     : Russian
    Дата кодирования                         : UTC 2014-12-02 16:14:52
    Дата пометки                             : UTC 2014-12-02 16:15:24
    Аудио #4
    Идентификатор                            : 5
    Формат                                   : AC-3
    Формат/Информация                        : Audio Coding 3
    Расширение режима                        : CM (complete main)
    Параметр Endianness формата              : Big
    Идентификатор кодека                     : ac-3
    Продолжительность                        : 1 ч. 40 м.
    Вид битрейта                             : Постоянный
    Битрейт                                  : 448 Кбит/сек
    Каналы                                   : 6 каналов
    Расположение каналов                     : Front: L C R, Side: L R, LFE
    Частота                                  : 48,0 КГц
    Битовая глубина                          : 16 бит
    Метод сжатия                             : С потерями
    Задержка видео                           : -14 с.
    Размер потока                            : 321 Мбайт (3%)
    Язык                                     : English
    Дата кодирования                         : UTC 2014-12-02 16:14:52
    Дата пометки                             : UTC 2014-12-02 16:15:21
    Текст #1
    Идентификатор                            : 6
    Формат                                   : Timed text
    Режим смешивания                         : sbtl
    Идентификатор кодека                     : tx3g
    Продолжительность                        : 1 ч. 37 м.
    Вид битрейта                             : Переменный
    Битрейт                                  : 97 бит/сек
    Задержка видео                           : -14 с.
    Размер потока                            : 69,2 Кбайт (0%)
    Язык                                     : Russian
    Дата кодирования                         : UTC 2014-12-02 16:14:52
    Дата пометки                             : UTC 2014-12-02 16:14:52
    Текст #2
    Идентификатор                            : 7
    Формат                                   : Timed text
    Режим смешивания                         : sbtl
    Идентификатор кодека                     : tx3g
    Продолжительность                        : 1 ч. 32 м.
    Вид битрейта                             : Переменный
    Битрейт                                  : 73 бит/сек
    Задержка видео                           : -14 с.
    Размер потока                            : 49,4 Кбайт (0%)
    Язык                                     : English
    Дата кодирования                         : UTC 2014-12-02 16:14:52
    Дата пометки                             : UTC 2014-12-02 16:14:52
    Текст #3
    Идентификатор                            : 8
    Формат                                   : Apple text
    Идентификатор кодека                     : text
    Продолжительность                        : 1 ч. 40 м.
    Вид битрейта                             : Переменный
    Битрейт                                  : 1 бит/сек
    Задержка видео                           : -14 с.
    Размер потока                            : 851 байт (0%)
    Язык                                     : English
    Дата кодирования                         : UTC 2014-12-02 16:15:25
    Дата пометки                             : UTC 2014-12-02 16:15:25
    Меню
    00:00:00.000                             : Opening Titles
    00:04:33.523                             : An Honest, Decent Couple
    00:06:40.942                             : His Wife's Coat
    00:09:18.140                             : Reluctant Witness
    00:14:01.090                             : We Can Help You
    00:16:10.177                             : St. Katherine's Convent
    00:21:21.947                             : Welcome, Sister Mary Clarence
    00:26:51.067                             : He's Got Deloris
    00:27:59.844                             : God Has Brought You Here, Take the Hint
    00:30:39.295                             : A Small Congregation
    00:32:40.583                             : Database Hoods
    00:33:09.237                             : Chores
    00:37:01.385                             : Call to Lt. Souther
    00:37:52.478                             : A Gift From Mary Robert
    00:40:34.098                             : A Nun's Bar
    00:45:13.752                             : New Choir Director
    00:53:53.229                             : "Hail, Holy Queen"
    00:57:53.052                             : Reaching Out
    01:04:07.927                             : "My God"
    01:08:30.022                             : Glorious News
    01:11:24.780                             : That Makes Two of Us
    01:14:08.527                             : Wicked Indulgence
    01:15:30.567                             : A Leak in the Department
    01:16:49.771                             : Kidnapped
    01:20:29.199                             : Nuns to the Rescue
    01:32:57.697                             : Concert for the Pope
    01:36:36.790                             : End Credits

    x264 лог 720p Release

    x264 [info]: frame I:1441  Avg QP:18.85  size:124943
    x264 [info]: frame P:85277 Avg QP:21.47  size: 46476
    x264 [info]: frame B:57380 Avg QP:23.12  size: 19402
    x264 [info]: consecutive B-frames: 24.9% 62.7% 10.0%  2.0%  0.2%  0.0%  0.1%  0.0%  0.1%
    x264 [info]: mb I  I16..4:  4.9% 63.1% 32.0%
    x264 [info]: mb P  I16..4:  0.6%  4.3%  1.6%  P16..4: 42.5% 30.1% 13.7%  0.0%  0.0%    skip: 7.3%
    x264 [info]: mb B  I16..4:  0.0%  0.5%  0.2%  B16..8: 52.9% 11.7%  2.8%  direct: 8.4%  skip:23.5%  L0:40.6% L1:49.2% BI:10.1%
    x264 [info]: 8x8 transform intra:65.6% inter:45.5%
    x264 [info]: coded y,uvDC,uvAC intra: 89.3% 67.7% 43.0% inter: 45.2% 22.1% 3.3%
    x264 [info]: i16 v,h,dc,p: 53% 16%  9% 21%
    x264 [info]: i8 v,h,dc,ddl,ddr,vr,hd,vl,hu: 13%  6%  4% 12% 16% 16% 14% 11%  9%
    x264 [info]: i4 v,h,dc,ddl,ddr,vr,hd,vl,hu: 11%  6%  3% 12% 17% 16% 14% 12%  9%
    x264 [info]: i8c dc,h,v,p: 54% 16% 20% 10%
    x264 [info]: ref P L0: 67.4% 18.6% 14.0%
    x264 [info]: ref B L0: 78.8% 21.2%
    x264 [info]: kb/s:6997.15

    x264 лог 1080p Release

    x264 [info]: frame I:1767  Avg QP:18.99  size:199955
    x264 [info]: frame P:100237 Avg QP:21.76  size: 94759
    x264 [info]: frame B:42094 Avg QP:23.14  size: 53086
    x264 [info]: consecutive B-frames: 43.3% 52.2%  3.4%  0.7%  0.2%  0.0%  0.1%  0.0%  0.1%
    x264 [info]: mb I  I16..4:  7.1% 75.4% 17.5%
    x264 [info]: mb P  I16..4:  0.9%  5.9%  0.6%  P16..4: 45.4% 29.7% 12.3%  0.0%  0.0%    skip: 5.2%
    x264 [info]: mb B  I16..4:  0.0%  0.5%  0.0%  B16..8: 53.7% 11.6%  3.3%  direct:12.8%  skip:18.0%  L0:44.3% L1:43.4% BI:12.3%
    x264 [info]: 8x8 transform intra:79.6% inter:58.8%
    x264 [info]: coded y,uvDC,uvAC intra: 86.3% 66.2% 35.9% inter: 63.7% 38.8% 4.7%
    x264 [info]: i16 v,h,dc,p: 38% 15% 23% 25%
    x264 [info]: i8 v,h,dc,ddl,ddr,vr,hd,vl,hu:  8%  6%  8% 11% 15% 14% 14% 12% 12%
    x264 [info]: i4 v,h,dc,ddl,ddr,vr,hd,vl,hu: 10%  8%  6%  9% 14% 14% 13% 12% 14%
    x264 [info]: i8c dc,h,v,p: 50% 18% 19% 14%
    x264 [info]: Weighted P-Frames: Y:1.8% UV:0.6%
    x264 [info]: ref P L0: 51.7% 13.2% 20.0% 10.3%  4.8%  0.1%
    x264 [info]: ref B L0: 76.5% 23.2%  0.3%
    x264 [info]: ref B L1: 98.6%  1.4%
    x264 [info]: kb/s:16088.04

    Скриншоты 720p Release


    Скриншоты 1080p Release


    -

    Релиз подготовлен для просмотра на Apple TV, iPad, iPhone, iPod Touch.
    Для просмотра данного релиза на компьютере с ОС Windows рекомендуется использовать VLC media player
    --
    Скачать .torrent

    Скачать торрент-файл бесплатно и на максимальной скорости!

    Как скачивать? · Что такое торрент? · Рейтинг и ограничения

    !ВНИМАНИЕ!
    Сайт не распространяет и не хранит электронные версии произведений, а занимается лишь лишь предоставлением доступа к создаваемому пользователями каталогу ссылок на торрент-файлы, которые содержат только списки хеш-сумм, убедительная просьба с жалобами обращаться напрямую к пользователю. Файлы для обмена на трекере предоставлены пользователями сайта, и администрация не несёт ответственности за их содержание. Просьба не заливать файлы, защищенные авторскими правами, а также файлы нелегального содержания!


    _________________
    [Профиль] [ЛС]
    Показать сообщения:    
    Ответить на тему

    Текущее время: Сегодня, в 06:23

    Часовой пояс: GMT + 2



    Вы не можете начинать темы
    Вы не можете отвечать на сообщения
    Вы не можете редактировать свои сообщения
    Вы не можете удалять свои сообщения
    Вы не можете голосовать в опросах
    Вы не можете прикреплять файлы к сообщениям
    Вы не можете скачивать файлы