BitTorrentTracker PerecTracker.org
BitTorrentTracker PerecTracker.org
    
Регистрация  ·  Вход
 
 · 
Забыли пароль?

  • Нянька по вызову / The Rebound (Барт Фрейндлих / Bart Freundlich) [2009, мелодрама, комедия, BDRip, HD (1080p, 720p)] DUB, Original + sub (eng, ger)

    Ответить на тему
     
    Автор Сообщение

    Flirldrerve

    Создавать темы 27-Окт-2015 05:20

           

    [Цитировать]

    Нянька по вызову / The Rebound
    "Всё, что у неё уже было, у него впереди"
    6.881 / 10
    -Год выпуска: 2009
    Страна: США
    Жанр: мелодрама, комедия
    Продолжительность: 95 мин.
    Перевод: Профессиональный (дублированный)
    Режиссёр: Барт Фрейндлих
    Сценарий: Барт Фрейндлих
    Продюсер: Барт Фрейндлих, Марк Гилл, Роберт Кац
    Оператор: Джонатан Фриман
    Композитор: Клинт Мэнселл
    Художник: Форд Вилер, Даг Хусти, Мелисса Тот
    Монтаж: Кристофер Теллефсен
    В ролях: Кэтрин Зета-Джонс, Джастин Барта, Арт Гарфанкел, Джоанна Глисон, Линн Уитфилд, Келли Гулд, Эндрю Черри, Кейт Дженнингс Грант, Роб Керкович, Джон Шнайдер
    Сборы в России: $1 909 368
    Мировая премьера: 16 сентября 2009
    Премьера (РФ): 1 октября 2009, Top Film Distribution
    Релиз на DVD: 29 октября 2009, New Dream media
    Описание: У 25-летнего юноши начинается роман с матерью-одиночкой, живущей по соседству. Основной преградой в их отношениях становится то, что главная героиня существенно старше своего избранника.-Качество исходника: Blu-Ray 1080p
    Качество: BDRip
    Тип: 720p 1080p
    Контейнер: m4v
    Видео: 1280x544 at 23.976 fps, MPEG-4 AVC, ~3000 kbps avg
    Видео: 1920x818 at 23.976 fps, MPEG-4 AVC, ~8000 kbps avg
    Аудио#1: Russian: 48 kHz, ААС, 2/0 (L,R), ~160.00 kbps avg |Профессиональный (дублированный)
    Аудио#2: English: 48 kHz, ААС, 2/0 (L,R), ~160.00 kbps avg
    Аудио#3: Russian: 48 kHz, AC3, 3/2 (L,C,R,l,r) + LFE ch, ~448 kbps avg |Профессиональный (дублированный)
    Аудио#4: English: 48 kHz, AC3, 3/2 (L,C,R,l,r) + LFE ch, ~448 kbps avg
    Субтитры №1: English: |Полные
    Субтитры №2: German: |Полные-

    Знаете ли Вы, что...
  • Мама Арама (Джастин Барта) по сюжету фильма работает у модельера Ральфа Лорена, это является отсылкой к сериалу «Друзья» (1994-2004), там героиня Джоанны Глисон также работала на этого модельера.
    -

    iTunes Meta Tags for country us

    Name: The Rebound
    Artist: Bart Freundlich
    Genre: Comedy
    Release Date: 2009-09-16T08:00:00Z
    Description: У 25-летнего юноши начинается роман с матерью-одиночкой, живущей по соседству. Основной преградой в их отношениях становится то, что главная героиня существенно старше своего избранника.
    Long Description: У 25-летнего юноши начинается роман с матерью-одиночкой, живущей по соседству. Основной преградой в их отношениях становится то, что главная героиня существенно старше своего избранника.
    Rating: R
    Studio: A&F Productions
    Cast: Кэтрин Зета-Джонс, Джастин Барта, Арт Гарфанкел, Джоанна Глисон, Линн Уитфилд, Келли Гулд, Эндрю Черри, Кейт Дженнингс Грант, Роб Керкович, Джон Шнайдер
    Director: Барт Фрейндлих
    Producers: Барт Фрейндлих, Марк Гилл, Роберт Кац
    Screenwriters: Барт Фрейндлих
    Copyright: © 2009 Rebound Distribution, LLC
    contentID: 489795413
    XID: Apple:vendor_id:2009-409250
    Sort Name: Rebound

    MediaInfo 720p Release

    Общее
    Полное имя                               : Y:\ATV\The Rebound\The Rebound (HD).m4v
    Формат                                   : MPEG-4
    Идентификатор кодека                     : M4V
    Размер файла                             : 2,72 Гбайт
    Продолжительность                        : 1 ч. 34 м.
    Режим общего битрейта                    : Переменный
    Общий поток                              : 4102 Кбит/сек
    Название фильма                          : The Rebound
    Исполнитель                              : Bart Freundlich
    Жанр                                     : Comedy
    Дата записи                              : UTC 2009-09-16 08:00:00
    Дата кодирования                         : UTC 2014-12-06 05:56:42
    Дата пометки                             : UTC 2014-12-06 06:49:28
    Правообладатель                          : © 2009 Rebound Distribution, LLC
    Обложка                                  : Yes
    sonm                                     : Rebound
    desc                                     : У 25-летнего юноши начинается роман с матерью-одиночкой, живущей по соседству. Основной преградой в их отношениях становится то, что главная героиня существенно старше своего избранника.
    ldes                                     : У 25-летнего юноши начинается роман с матерью-одиночкой, живущей по соседству. Основной преградой в их отношениях становится то, что главная героиня существенно старше своего избранника.
    hdvd                                     : 1
    stik                                     : 9
    rtng                                     : 0
    cnID                                     : 489795413
    xid                                      : Apple:vendor_id:2009-409250
    iTunEXTC                                 : mpaa|R|400|
    iTunMOVI                                 : <?xml version="1.0" encoding="UTF-8"?> / <!DOCTYPE plist PUBLIC "-//Apple//DTD PLIST 1.0//EN" "http://anonym.to/?http://www.apple.com/DTDs/PropertyList-1.0.dtd"> / <plist version="1.0"> / <dict> /  <key>cast</key> /  <array> /   <dict> /    <key>name</key> /    <string>Кэтрин Зета-Джонс</string> /   </dict> /   <dict> /    <key>name</key> /    <string>Джастин Барта</string> /   </dict> /   <dict> /    <key>name</key> /    <string>Арт Гарфанкел</string> /   </dict> /   <dict> /    <key>name</key> /    <string>Джоанна Глисон</string> /   </dict> /   <dict> /    <key>name</key> /    <string>Линн Уитфилд</string> /   </dict> /   <dict> /    <key>name</key> /    <string>Келли Гулд</string> /   </dict> /   <dict> /    <key>name</key> /    <string>Эндрю Черри</string> /   </dict> /   <dict> /    <key>name</key> /    <string>Кейт Дженнингс Грант</string> /   </dict> /   <dict> /    <key>name</key> /    <string>Роб Керкович</string> /   </dict> /   <dict> /    <key>name</key> /    <string>Джон Шнайдер</string> /   </dict> /  </array> /  <key>directors</key> /  <array> /   <dict> /    <key>name</key> /    <string>Барт Фрейндлих</string> /   </dict> /  </array> /  <key>producers</key> /  <array> /   <dict> /    <key>name</key> /    <string>Барт Фрейндлих</string> /   </dict> /   <dict> /    <key>name</key> /    <string>Марк Гилл</string> /   </dict> /   <dict> /    <key>name</key> /    <string>Роберт Кац</string> /   </dict> /  </array> /  <key>screenwriters</key> /  <array> /   <dict> /    <key>name</key> /    <string>Барт Фрейндлих</string> /   </dict> /  </array> /  <key>studio</key> /  <string>A&F Productions</string> / </dict> / </plist>
    Видео #1
    Идентификатор                            : 1
    Формат                                   : AVC
    Формат/Информация                        : Advanced Video Codec
    Профиль формата                          : High@L3.1
    Параметр CABAC формата                   : Нет
    Параметр ReFrames формата                : 3 кадра
    Идентификатор кодека                     : avc1
    Идентификатор кодека/Информация          : Advanced Video Coding
    Продолжительность                        : 1 ч. 34 м.
    Вид битрейта                             : Переменный
    Битрейт                                  : 3000 Кбит/сек
    Ширина                                   : 1280 пикселей
    Высота                                   : 544 пикселя
    Соотношение сторон                       : 2,35:1
    Режим частоты кадров                     : Переменный
    Частота кадров                           : 23,976 кадра/сек
    Минимальная частота кадров               : 23,810 кадра/сек
    Максимальная частота кадров              : 24,390 кадра/сек
    Цветовое пространство                    : YUV
    Субдискретизация насыщенности            : 4:2:0
    Битовая глубина                          : 8 бит
    Тип развёртки                            : Прогрессивная
    Бит/(Пиксели*Кадры)                      : 0.180
    Размер потока                            : 1,98 Гбайт (73%)
    Библиотека кодирования                   : x264 core 142 r2479 dd79a61
    Настройки программы                      : cabac=0 / ref=3 / deblock=1:-2:-2 / analyse=0x3:0x113 / me=umh / subme=9 / psy=1 / psy_rd=0.90:0.00 / mixed_ref=1 / me_range=32 / chroma_me=1 / trellis=0 / 8x8dct=1 / cqm=0 / deadzone=21,11 / fast_pskip=1 / chroma_qp_offset=-2 / threads=18 / lookahead_threads=1 / sliced_threads=0 / nr=0 / decimate=1 / interlaced=0 / bluray_compat=0 / constrained_intra=0 / bframes=8 / b_pyramid=0 / b_adapt=1 / b_bias=0 / direct=1 / weightb=0 / open_gop=0 / weightp=0 / keyint=240 / keyint_min=24 / scenecut=40 / intra_refresh=0 / rc_lookahead=40 / rc=2pass / mbtree=1 / bitrate=3000 / ratetol=1.0 / qcomp=0.60 / qpmin=4 / qpmax=69 / qpstep=4 / cplxblur=20.0 / qblur=0.5 / vbv_maxrate=9500 / vbv_bufsize=9500 / nal_hrd=none / filler=0 / ip_ratio=1.40 / aq=1:0.80
    Язык                                     : English
    Дата кодирования                         : UTC 2014-12-06 05:56:42
    Дата пометки                             : UTC 2014-12-06 05:58:00
    Основные цвета                           : BT.709-5, BT.1361, IEC 61966-2-4, SMPTE RP177
    Характеристики трансфера                 : BT.709-5, BT.1361
    Коэффициенты матрицы                     : BT.709-5, BT.1361, IEC 61966-2-4 709, SMPTE RP177
    Видео #2
    Идентификатор                            : 9
    Формат                                   : JPEG
    Идентификатор кодека                     : jpeg
    Продолжительность                        : 1 ч. 34 м.
    Вид битрейта                             : Переменный
    Битрейт                                  : 545 бит/сек
    Ширина                                   : 640 пикселей
    Высота                                   : 272 пикселя
    Соотношение сторон                       : 2,35:1
    Режим частоты кадров                     : Переменный
    Частота кадров                           : 0,002 кадр/сек
    Минимальная частота кадров               : 0,001 кадр/сек
    Максимальная частота кадров              : 0,004 кадр/сек
    Цветовое пространство                    : YUV
    Субдискретизация насыщенности            : 4:2:0
    Битовая глубина                          : 8 бит
    Метод сжатия                             : С потерями
    Бит/(Пиксели*Кадры)                      : 1.565
    Размер потока                            : 399 Кбайт (0%)
    Язык                                     : English
    Дата кодирования                         : UTC 2014-12-06 06:12:29
    Дата пометки                             : UTC 2014-12-06 06:12:30
    Аудио #1
    Идентификатор                            : 2
    Формат                                   : AAC
    Формат/Информация                        : Advanced Audio Codec
    Профиль формата                          : LC
    Идентификатор кодека                     : 40
    Продолжительность                        : 1 ч. 34 м.
    Вид битрейта                             : Переменный
    Битрейт                                  : 164 Кбит/сек
    Максимальный битрейт                     : 252 Кбит/сек
    Каналы                                   : 2 канала
    Расположение каналов                     : Front: L R
    Частота                                  : 48,0 КГц
    Метод сжатия                             : С потерями
    Задержка видео                           : -7 с. 0 мс.
    Размер потока                            : 111 Мбайт (4%)
    Язык                                     : Russian
    Дата кодирования                         : UTC 2014-12-06 06:11:53
    Дата пометки                             : UTC 2014-12-06 06:12:15
    Аудио #2
    Идентификатор                            : 3
    Формат                                   : AAC
    Формат/Информация                        : Advanced Audio Codec
    Профиль формата                          : LC
    Идентификатор кодека                     : 40
    Продолжительность                        : 1 ч. 34 м.
    Вид битрейта                             : Переменный
    Битрейт                                  : 165 Кбит/сек
    Максимальный битрейт                     : 254 Кбит/сек
    Каналы                                   : 2 канала
    Расположение каналов                     : Front: L R
    Частота                                  : 48,0 КГц
    Метод сжатия                             : С потерями
    Задержка видео                           : -7 с. 0 мс.
    Размер потока                            : 111 Мбайт (4%)
    Язык                                     : English
    Дата кодирования                         : UTC 2014-12-06 06:11:54
    Дата пометки                             : UTC 2014-12-06 06:12:15
    Аудио #3
    Идентификатор                            : 4
    Формат                                   : AC-3
    Формат/Информация                        : Audio Coding 3
    Расширение режима                        : CM (complete main)
    Параметр Endianness формата              : Big
    Идентификатор кодека                     : ac-3
    Продолжительность                        : 1 ч. 34 м.
    Вид битрейта                             : Постоянный
    Битрейт                                  : 384 Кбит/сек
    Каналы                                   : 6 каналов
    Расположение каналов                     : Front: L C R, Side: L R, LFE
    Частота                                  : 48,0 КГц
    Битовая глубина                          : 16 бит
    Метод сжатия                             : С потерями
    Задержка видео                           : -7 с. 0 мс.
    Размер потока                            : 260 Мбайт (9%)
    Язык                                     : Russian
    Дата кодирования                         : UTC 2014-12-06 06:11:54
    Дата пометки                             : UTC 2014-12-06 06:12:10
    Аудио #4
    Идентификатор                            : 5
    Формат                                   : AC-3
    Формат/Информация                        : Audio Coding 3
    Расширение режима                        : CM (complete main)
    Параметр Endianness формата              : Big
    Идентификатор кодека                     : ac-3
    Продолжительность                        : 1 ч. 34 м.
    Вид битрейта                             : Постоянный
    Битрейт                                  : 384 Кбит/сек
    Каналы                                   : 6 каналов
    Расположение каналов                     : Front: L C R, Side: L R, LFE
    Частота                                  : 48,0 КГц
    Битовая глубина                          : 16 бит
    Метод сжатия                             : С потерями
    Задержка видео                           : -7 с. 0 мс.
    Размер потока                            : 260 Мбайт (9%)
    Язык                                     : English
    Дата кодирования                         : UTC 2014-12-06 06:11:54
    Дата пометки                             : UTC 2014-12-06 06:12:10
    Текст #1
    Идентификатор                            : 6
    Формат                                   : Timed text
    Режим смешивания                         : sbtl
    Идентификатор кодека                     : tx3g
    Продолжительность                        : 1 ч. 30 м.
    Вид битрейта                             : Переменный
    Битрейт                                  : 66 бит/сек
    Задержка видео                           : -7 с. 0 мс.
    Размер потока                            : 43,9 Кбайт (0%)
    Язык                                     : English
    Дата кодирования                         : UTC 2014-12-06 06:11:54
    Дата пометки                             : UTC 2014-12-06 06:11:54
    Текст #2
    Идентификатор                            : 7
    Формат                                   : Timed text
    Режим смешивания                         : sbtl
    Идентификатор кодека                     : tx3g
    Продолжительность                        : 1 ч. 34 м.
    Вид битрейта                             : Переменный
    Битрейт                                  : 66 бит/сек
    Задержка видео                           : -7 с. 0 мс.
    Размер потока                            : 45,4 Кбайт (0%)
    Язык                                     : German
    Дата кодирования                         : UTC 2014-12-06 06:11:54
    Дата пометки                             : UTC 2014-12-06 06:11:54
    Текст #3
    Идентификатор                            : 8
    Формат                                   : Apple text
    Идентификатор кодека                     : text
    Продолжительность                        : 1 ч. 34 м.
    Вид битрейта                             : Переменный
    Битрейт                                  : 0 бит/сек
    Задержка видео                           : -7 с. 0 мс.
    Размер потока                            : 279 байт (0%)
    Язык                                     : English
    Дата кодирования                         : UTC 2014-12-06 06:12:15
    Дата пометки                             : UTC 2014-12-06 06:12:15
    Меню
    00:00:00.000                             : Chapter 1
    00:11:08.417                             : Chapter 2
    00:18:31.902                             : Chapter 3
    00:28:21.032                             : Chapter 4
    00:35:31.129                             : Chapter 5
    00:42:38.556                             : Chapter 6
    00:51:55.070                             : Chapter 7
    01:02:13.646                             : Chapter 8
    01:13:18.811                             : Chapter 9
    01:17:09.458                             : Chapter 10
    01:24:34.986                             : Chapter 11
    01:30:51.863                             : Chapter 12

    MediaInfo 1080p Release

    Общее
    Полное имя                               : Y:\ATV\The Rebound\The Rebound (1080p HD).m4v
    Формат                                   : MPEG-4
    Идентификатор кодека                     : M4V
    Размер файла                             : 6,02 Гбайт
    Продолжительность                        : 1 ч. 34 м.
    Режим общего битрейта                    : Переменный
    Общий поток                              : 9097 Кбит/сек
    Название фильма                          : The Rebound
    Исполнитель                              : Bart Freundlich
    Жанр                                     : Comedy
    Дата записи                              : UTC 2009-09-16 08:00:00
    Дата кодирования                         : UTC 2014-12-06 05:52:51
    Дата пометки                             : UTC 2014-12-06 06:54:36
    Правообладатель                          : © 2009 Rebound Distribution, LLC
    Обложка                                  : Yes
    sonm                                     : Rebound
    desc                                     : У 25-летнего юноши начинается роман с матерью-одиночкой, живущей по соседству. Основной преградой в их отношениях становится то, что главная героиня существенно старше своего избранника.
    ldes                                     : У 25-летнего юноши начинается роман с матерью-одиночкой, живущей по соседству. Основной преградой в их отношениях становится то, что главная героиня существенно старше своего избранника.
    hdvd                                     : 2
    stik                                     : 9
    rtng                                     : 0
    cnID                                     : 489795413
    xid                                      : Apple:vendor_id:2009-409250
    iTunEXTC                                 : mpaa|R|400|
    iTunMOVI                                 : <?xml version="1.0" encoding="UTF-8"?> / <!DOCTYPE plist PUBLIC "-//Apple//DTD PLIST 1.0//EN" "http://anonym.to/?http://www.apple.com/DTDs/PropertyList-1.0.dtd"> / <plist version="1.0"> / <dict> /  <key>cast</key> /  <array> /   <dict> /    <key>name</key> /    <string>Кэтрин Зета-Джонс</string> /   </dict> /   <dict> /    <key>name</key> /    <string>Джастин Барта</string> /   </dict> /   <dict> /    <key>name</key> /    <string>Арт Гарфанкел</string> /   </dict> /   <dict> /    <key>name</key> /    <string>Джоанна Глисон</string> /   </dict> /   <dict> /    <key>name</key> /    <string>Линн Уитфилд</string> /   </dict> /   <dict> /    <key>name</key> /    <string>Келли Гулд</string> /   </dict> /   <dict> /    <key>name</key> /    <string>Эндрю Черри</string> /   </dict> /   <dict> /    <key>name</key> /    <string>Кейт Дженнингс Грант</string> /   </dict> /   <dict> /    <key>name</key> /    <string>Роб Керкович</string> /   </dict> /   <dict> /    <key>name</key> /    <string>Джон Шнайдер</string> /   </dict> /  </array> /  <key>directors</key> /  <array> /   <dict> /    <key>name</key> /    <string>Барт Фрейндлих</string> /   </dict> /  </array> /  <key>producers</key> /  <array> /   <dict> /    <key>name</key> /    <string>Барт Фрейндлих</string> /   </dict> /   <dict> /    <key>name</key> /    <string>Марк Гилл</string> /   </dict> /   <dict> /    <key>name</key> /    <string>Роберт Кац</string> /   </dict> /  </array> /  <key>screenwriters</key> /  <array> /   <dict> /    <key>name</key> /    <string>Барт Фрейндлих</string> /   </dict> /  </array> /  <key>studio</key> /  <string>A&F Productions</string> / </dict> / </plist>
    Видео #1
    Идентификатор                            : 1
    Формат                                   : AVC
    Формат/Информация                        : Advanced Video Codec
    Профиль формата                          : High@L4.0
    Параметр CABAC формата                   : Да
    Параметр ReFrames формата                : 4 кадра
    Идентификатор кодека                     : avc1
    Идентификатор кодека/Информация          : Advanced Video Coding
    Продолжительность                        : 1 ч. 34 м.
    Вид битрейта                             : Переменный
    Битрейт                                  : 8000 Кбит/сек
    Ширина                                   : 1920 пикселей
    Высота                                   : 818 пикселей
    Соотношение сторон                       : 2,35:1
    Режим частоты кадров                     : Переменный
    Частота кадров                           : 23,976 кадра/сек
    Минимальная частота кадров               : 23,810 кадра/сек
    Максимальная частота кадров              : 24,390 кадра/сек
    Цветовое пространство                    : YUV
    Субдискретизация насыщенности            : 4:2:0
    Битовая глубина                          : 8 бит
    Тип развёртки                            : Прогрессивная
    Бит/(Пиксели*Кадры)                      : 0.212
    Размер потока                            : 5,29 Гбайт (88%)
    Библиотека кодирования                   : x264 core 142 r2479 dd79a61
    Настройки программы                      : cabac=1 / ref=4 / deblock=1:-2:-2 / analyse=0x3:0x113 / me=umh / subme=9 / psy=1 / psy_rd=0.90:0.00 / mixed_ref=1 / me_range=32 / chroma_me=1 / trellis=2 / 8x8dct=1 / cqm=0 / deadzone=21,11 / fast_pskip=1 / chroma_qp_offset=-2 / threads=18 / lookahead_threads=1 / sliced_threads=0 / nr=0 / decimate=1 / interlaced=0 / bluray_compat=0 / constrained_intra=0 / bframes=8 / b_pyramid=2 / b_adapt=1 / b_bias=0 / direct=1 / weightb=1 / open_gop=0 / weightp=2 / keyint=240 / keyint_min=24 / scenecut=40 / intra_refresh=0 / rc_lookahead=40 / rc=2pass / mbtree=1 / bitrate=8000 / ratetol=1.0 / qcomp=0.60 / qpmin=0 / qpmax=69 / qpstep=4 / cplxblur=20.0 / qblur=0.5 / vbv_maxrate=25000 / vbv_bufsize=25000 / nal_hrd=none / filler=0 / ip_ratio=1.40 / aq=1:0.80
    Язык                                     : English
    Дата кодирования                         : UTC 2014-12-06 05:52:51
    Дата пометки                             : UTC 2014-12-06 05:55:59
    Основные цвета                           : BT.709-5, BT.1361, IEC 61966-2-4, SMPTE RP177
    Характеристики трансфера                 : BT.709-5, BT.1361
    Коэффициенты матрицы                     : BT.709-5, BT.1361, IEC 61966-2-4 709, SMPTE RP177
    Видео #2
    Идентификатор                            : 9
    Формат                                   : JPEG
    Идентификатор кодека                     : jpeg
    Продолжительность                        : 1 ч. 34 м.
    Вид битрейта                             : Переменный
    Битрейт                                  : 540 бит/сек
    Ширина                                   : 640 пикселей
    Высота                                   : 272 пикселя
    Соотношение сторон                       : 2,35:1
    Режим частоты кадров                     : Переменный
    Частота кадров                           : 0,002 кадр/сек
    Минимальная частота кадров               : 0,001 кадр/сек
    Максимальная частота кадров              : 0,004 кадр/сек
    Цветовое пространство                    : YUV
    Субдискретизация насыщенности            : 4:2:0
    Битовая глубина                          : 8 бит
    Метод сжатия                             : С потерями
    Бит/(Пиксели*Кадры)                      : 1.551
    Размер потока                            : 396 Кбайт (0%)
    Язык                                     : English
    Дата кодирования                         : UTC 2014-12-06 06:49:06
    Дата пометки                             : UTC 2014-12-06 06:49:07
    Аудио #1
    Идентификатор                            : 2
    Формат                                   : AAC
    Формат/Информация                        : Advanced Audio Codec
    Профиль формата                          : LC
    Идентификатор кодека                     : 40
    Продолжительность                        : 1 ч. 34 м.
    Вид битрейта                             : Переменный
    Битрейт                                  : 164 Кбит/сек
    Максимальный битрейт                     : 252 Кбит/сек
    Каналы                                   : 2 канала
    Расположение каналов                     : Front: L R
    Частота                                  : 48,0 КГц
    Метод сжатия                             : С потерями
    Задержка видео                           : -14 с.
    Размер потока                            : 111 Мбайт (2%)
    Язык                                     : Russian
    Дата кодирования                         : UTC 2014-12-06 06:48:05
    Дата пометки                             : UTC 2014-12-06 06:48:34
    Аудио #2
    Идентификатор                            : 3
    Формат                                   : AAC
    Формат/Информация                        : Advanced Audio Codec
    Профиль формата                          : LC
    Идентификатор кодека                     : 40
    Продолжительность                        : 1 ч. 34 м.
    Вид битрейта                             : Переменный
    Битрейт                                  : 165 Кбит/сек
    Максимальный битрейт                     : 254 Кбит/сек
    Каналы                                   : 2 канала
    Расположение каналов                     : Front: L R
    Частота                                  : 48,0 КГц
    Метод сжатия                             : С потерями
    Задержка видео                           : -14 с.
    Размер потока                            : 111 Мбайт (2%)
    Язык                                     : English
    Дата кодирования                         : UTC 2014-12-06 06:48:05
    Дата пометки                             : UTC 2014-12-06 06:48:34
    Аудио #3
    Идентификатор                            : 4
    Формат                                   : AC-3
    Формат/Информация                        : Audio Coding 3
    Расширение режима                        : CM (complete main)
    Параметр Endianness формата              : Big
    Идентификатор кодека                     : ac-3
    Продолжительность                        : 1 ч. 34 м.
    Вид битрейта                             : Постоянный
    Битрейт                                  : 384 Кбит/сек
    Каналы                                   : 6 каналов
    Расположение каналов                     : Front: L C R, Side: L R, LFE
    Частота                                  : 48,0 КГц
    Битовая глубина                          : 16 бит
    Метод сжатия                             : С потерями
    Задержка видео                           : -14 с.
    Размер потока                            : 260 Мбайт (4%)
    Язык                                     : Russian
    Дата кодирования                         : UTC 2014-12-06 06:48:05
    Дата пометки                             : UTC 2014-12-06 06:48:51
    Аудио #4
    Идентификатор                            : 5
    Формат                                   : AC-3
    Формат/Информация                        : Audio Coding 3
    Расширение режима                        : CM (complete main)
    Параметр Endianness формата              : Big
    Идентификатор кодека                     : ac-3
    Продолжительность                        : 1 ч. 34 м.
    Вид битрейта                             : Постоянный
    Битрейт                                  : 384 Кбит/сек
    Каналы                                   : 6 каналов
    Расположение каналов                     : Front: L C R, Side: L R, LFE
    Частота                                  : 48,0 КГц
    Битовая глубина                          : 16 бит
    Метод сжатия                             : С потерями
    Задержка видео                           : -14 с.
    Размер потока                            : 260 Мбайт (4%)
    Язык                                     : English
    Дата кодирования                         : UTC 2014-12-06 06:48:05
    Дата пометки                             : UTC 2014-12-06 06:48:51
    Текст #1
    Идентификатор                            : 6
    Формат                                   : Timed text
    Режим смешивания                         : sbtl
    Идентификатор кодека                     : tx3g
    Продолжительность                        : 1 ч. 30 м.
    Вид битрейта                             : Переменный
    Битрейт                                  : 66 бит/сек
    Задержка видео                           : -14 с.
    Размер потока                            : 43,9 Кбайт (0%)
    Язык                                     : English
    Дата кодирования                         : UTC 2014-12-06 06:48:05
    Дата пометки                             : UTC 2014-12-06 06:48:05
    Текст #2
    Идентификатор                            : 7
    Формат                                   : Timed text
    Режим смешивания                         : sbtl
    Идентификатор кодека                     : tx3g
    Продолжительность                        : 1 ч. 34 м.
    Вид битрейта                             : Переменный
    Битрейт                                  : 66 бит/сек
    Задержка видео                           : -14 с.
    Размер потока                            : 45,4 Кбайт (0%)
    Язык                                     : German
    Дата кодирования                         : UTC 2014-12-06 06:48:05
    Дата пометки                             : UTC 2014-12-06 06:48:05
    Текст #3
    Идентификатор                            : 8
    Формат                                   : Apple text
    Идентификатор кодека                     : text
    Продолжительность                        : 1 ч. 34 м.
    Вид битрейта                             : Переменный
    Битрейт                                  : 0 бит/сек
    Задержка видео                           : -14 с.
    Размер потока                            : 279 байт (0%)
    Язык                                     : English
    Дата кодирования                         : UTC 2014-12-06 06:48:52
    Дата пометки                             : UTC 2014-12-06 06:48:52
    Меню
    00:00:00.000                             : Chapter 1
    00:11:08.417                             : Chapter 2
    00:18:31.902                             : Chapter 3
    00:28:21.032                             : Chapter 4
    00:35:31.129                             : Chapter 5
    00:42:38.556                             : Chapter 6
    00:51:55.070                             : Chapter 7
    01:02:13.646                             : Chapter 8
    01:13:18.811                             : Chapter 9
    01:17:09.458                             : Chapter 10
    01:24:34.986                             : Chapter 11
    01:30:51.863                             : Chapter 12

    x264 лог 720p Release

    x264 [info]: frame I:1614  Avg QP:15.08  size: 98567
    x264 [info]: frame P:62104 Avg QP:17.58  size: 24617
    x264 [info]: frame B:72572 Avg QP:20.43  size:  6086
    x264 [info]: consecutive B-frames: 15.4% 39.2% 14.5% 15.9% 14.2%  0.7%  0.1%  0.0%  0.2%
    x264 [info]: mb I  I16..4:  9.0% 54.9% 36.1%
    x264 [info]: mb P  I16..4:  1.6%  3.8%  2.2%  P16..4: 44.4% 24.0% 10.0%  0.0%  0.0%    skip:14.0%
    x264 [info]: mb B  I16..4:  0.1%  0.2%  0.2%  B16..8: 46.0%  9.4%  1.3%  direct: 3.1%  skip:39.6%  L0:38.0% L1:52.1% BI:10.0%
    x264 [info]: 8x8 transform intra:50.8% inter:45.7%
    x264 [info]: coded y,uvDC,uvAC intra: 77.2% 84.1% 67.6% inter: 16.4% 17.9% 4.5%
    x264 [info]: i16 v,h,dc,p: 44% 19%  6% 31%
    x264 [info]: i8 v,h,dc,ddl,ddr,vr,hd,vl,hu: 12%  8%  5% 10% 14% 15% 12% 13% 10%
    x264 [info]: i4 v,h,dc,ddl,ddr,vr,hd,vl,hu: 12% 10%  4% 10% 15% 16% 12% 11%  8%
    x264 [info]: i8c dc,h,v,p: 48% 17% 22% 13%
    x264 [info]: ref P L0: 72.3% 16.5% 11.2%
    x264 [info]: ref B L0: 83.2% 16.8%
    x264 [info]: kb/s:2997.12

    x264 лог 1080p Release

    x264 [info]: frame I:1696  Avg QP:15.00  size:191056
    x264 [info]: frame P:77511 Avg QP:17.39  size: 55001
    x264 [info]: frame B:57083 Avg QP:19.40  size: 19174
    x264 [info]: consecutive B-frames: 28.0% 45.5% 12.9%  7.7%  5.4%  0.3%  0.1%  0.0%  0.1%
    x264 [info]: mb I  I16..4:  6.3% 85.6%  8.0%
    x264 [info]: mb P  I16..4:  1.7%  6.2%  0.5%  P16..4: 50.2% 23.1%  9.7%  0.0%  0.0%    skip: 8.6%
    x264 [info]: mb B  I16..4:  0.2%  0.4%  0.0%  B16..8: 46.4%  7.4%  1.4%  direct: 6.3%  skip:37.8%  L0:41.2% L1:46.5% BI:12.3%
    x264 [info]: 8x8 transform intra:76.1% inter:63.2%
    x264 [info]: coded y,uvDC,uvAC intra: 68.9% 83.1% 63.1% inter: 31.5% 40.8% 10.1%
    x264 [info]: i16 v,h,dc,p: 42% 17% 10% 32%
    x264 [info]: i8 v,h,dc,ddl,ddr,vr,hd,vl,hu: 17%  8% 13%  8% 11% 12% 10% 11% 10%
    x264 [info]: i4 v,h,dc,ddl,ddr,vr,hd,vl,hu: 23%  9%  9%  8% 12% 12% 10%  9%  9%
    x264 [info]: i8c dc,h,v,p: 48% 19% 19% 14%
    x264 [info]: Weighted P-Frames: Y:1.3% UV:0.6%
    x264 [info]: ref P L0: 58.8%  9.7% 19.9%  8.5%  3.2%  0.0%
    x264 [info]: ref B L0: 79.6% 18.9%  1.5%
    x264 [info]: ref B L1: 95.7%  4.3%
    x264 [info]: kb/s:7996.25

    Скриншоты 720p Release


    Скриншоты 1080p Release


    -

    Релиз подготовлен для просмотра на Apple TV, iPad, iPhone, iPod Touch.
    Для просмотра данного релиза на компьютере с ОС Windows рекомендуется использовать VLC media player
    --
    Скачать .torrent

    Скачать торрент-файл бесплатно и на максимальной скорости!

    Как скачивать? · Что такое торрент? · Рейтинг и ограничения

    !ВНИМАНИЕ!
    Сайт не распространяет и не хранит электронные версии произведений, а занимается лишь лишь предоставлением доступа к создаваемому пользователями каталогу ссылок на торрент-файлы, которые содержат только списки хеш-сумм, убедительная просьба с жалобами обращаться напрямую к пользователю. Файлы для обмена на трекере предоставлены пользователями сайта, и администрация не несёт ответственности за их содержание. Просьба не заливать файлы, защищенные авторскими правами, а также файлы нелегального содержания!


  • _________________
    [Профиль] [ЛС]
    Показать сообщения:    
    Ответить на тему

    Текущее время: Сегодня, в 06:14

    Часовой пояс: GMT + 2



    Вы не можете начинать темы
    Вы не можете отвечать на сообщения
    Вы не можете редактировать свои сообщения
    Вы не можете удалять свои сообщения
    Вы не можете голосовать в опросах
    Вы не можете прикреплять файлы к сообщениям
    Вы не можете скачивать файлы