BitTorrentTracker PerecTracker.org
BitTorrentTracker PerecTracker.org
    
Регистрация  ·  Вход
 
 · 
Забыли пароль?

  • Мой лучший любовник / Prime (Бен Янгер / Ben Younger) [2005, драма, мелодрама, комедия, BDRip, HD (1080p, 720p)] DUB, Original + sub (rus, eng)

    Ответить на тему
     
    Автор Сообщение

    Flirldrerve

    Создавать темы 27-Окт-2015 05:20

           

    [Цитировать]

    Мой лучший любовник / Prime
    "A therapeutic new comedy"
    6.985 / 10
    -Год выпуска: 2005
    Страна: США
    Жанр: драма, мелодрама, комедия
    Продолжительность: 105 мин.
    Перевод: Профессиональный (дублированный)
    Режиссёр: Бен Янгер
    Сценарий: Бен Янгер
    Продюсер: Марк Гордон, Бредли Дженкель, Энтони Катагас
    Оператор: Уильям Рексер
    Композитор: Райан Шор
    Художник: Марк Рикер, Пол Д. Келли, Мелисса То
    Монтаж: Кристина Боден
    В ролях: Ума Турман, Мэрил Стрип, Брайан Гринберг, Джон Абрахамс, Адриана Биази, Дэвид Янгер, Палмер Браун, Зак Орт, Энни Пэррис, Обри Доллар
    Роли дублировали: Ольга Плетнёва, Любовь Германова, Юрий Деркач, Андрей Бархударов, Дмитрий Филимонов
    Бюджет: $22 000 000
    Сборы в США: $22 827 153
    Сборы в мире: + $43 927 804 = $66 754 957
    Сборы в России: $1 625 000
    Мировая премьера: 21 сентября 2005
    Премьера (РФ): 17 ноября 2005, Парадиз
    Релиз на DVD: 16 сентября 2008, Парадиз Медиа
    Описание: 23-летний художник Дэйв влюбляется в 37-летнюю Рафи, обитательницу Нью-Йорка и деловую женщину, которая несколько обеспокоена таким подарком судьбы и пытается разобраться в ситуации с помощью своего психотерапевта Лизы. В принципе, она не против какой-то романтической истории, но уж слишком велика разница в возрасте. Психотерапевт убеждает Рафи, что в ее возрасте могут возникнуть всяческие кризисы, и потому надо без задней мысли просто развлечься и постараться получить удовольствие. Однако все меняется, когда Лиза узнает, что любовь с Рафи крутит ее собственный сын.-Качество исходника: BD-Remux 1080p
    Качество: BDRip
    Тип: 720p 1080p
    Контейнер: m4v
    Видео: 1280x720 at 23.976 fps, MPEG-4 AVC, ~5100 kbps avg
    Видео: 1920x1080 at 23.976 fps, MPEG-4 AVC, ~13800 kbps avg
    Аудио#1: Russian: 48 kHz, ААС, 2/0 (L,R), ~160.00 kbps avg |Профессиональный (дублированный)
    Аудио#2: English: 48 kHz, ААС, 2/0 (L,R), ~160.00 kbps avg
    Аудио#3: Russian: 48 kHz, AC3, 3/2 (L,C,R,l,r) + LFE ch, ~448 kbps avg |Профессиональный (дублированный)
    Аудио#4: English: 48 kHz, AC3, 3/2 (L,C,R,l,r) + LFE ch, ~448 kbps avg
    Субтитры №1: Russian: |Полные
    Субтитры №2: English: |Полные-

    Знаете ли Вы, что...

    • По сюжету героине Умы Турман 37 лет, а персонажу Брайана Гринберга 23 года. В действительности разница в возрасте между актёрами составляет не 14, а 8 лет.

    -

    iTunes Meta Tags for country us

    Name: Prime
    Artist: Ben Younger
    Genre: Comedy
    Release Date: 2005-09-21T08:00:00Z
    Description: 23-летний художник Дэйв влюбляется в 37-летнюю Рафи, обитательницу Нью-Йорка и деловую женщину, которая несколько обеспокоена таким подарком судьбы и пытается разобраться в ситуации с помощью своего психотерапевта Лизы. В принципе, она не против какой-то романтической истории, но уж слишком велика разница в возрасте...
    Long Description: 23-летний художник Дэйв влюбляется в 37-летнюю Рафи, обитательницу Нью-Йорка и деловую женщину, которая несколько обеспокоена таким подарком судьбы и пытается разобраться в ситуации с помощью своего психотерапевта Лизы. В принципе, она не против какой-то романтической истории, но уж слишком велика разница в возрасте. Психотерапевт убеждает Рафи, что в ее возрасте могут возникнуть всяческие кризисы, и потому надо без задней мысли просто развлечься и постараться получить удовольствие. Однако все меняется, когда Лиза узнает, что любовь с Рафи крутит ее собственный сын.
    Rating: PG-13
    Rating Annotation: Rated PG-13 for sexual content including dialogue and for language.
    Studio: Universal Pictures
    Cast: Ума Турман, Мэрил Стрип, Брайан Гринберг, Джон Абрахамс, Адриана Биази, Дэвид Янгер, Палмер Браун, Зак Орт, Энни Пэррис, Обри Доллар
    Director: Бен Янгер
    Producers: Марк Гордон, Бредли Дженкель, Энтони Катагас
    Screenwriters: Бен Янгер
    Copyright: © 2005 Universal Studios. All Rights Reserved.
    contentID: 362017063
    XID: Apple:vendor_id:2005-77180
    Sort Name: Prime

    MediaInfo 720p Release

    Общее
    Полное имя                               : Y:\ATV\Prime\Prime (HD).m4v
    Формат                                   : MPEG-4
    Идентификатор кодека                     : M4V
    Размер файла                             : 4,66 Гбайт
    Продолжительность                        : 1 ч. 45 м.
    Режим общего битрейта                    : Переменный
    Общий поток                              : 6333 Кбит/сек
    Название фильма                          : Prime
    Исполнитель                              : Ben Younger
    Жанр                                     : Comedy
    Дата записи                              : UTC 2005-09-21 08:00:00
    Дата кодирования                         : UTC 2014-12-06 08:30:18
    Дата пометки                             : UTC 2014-12-06 09:02:00
    Правообладатель                          : © 2005 Universal Studios. All Rights Reserved.
    Обложка                                  : Yes
    sonm                                     : Prime
    desc                                     : 23-летний художник Дэйв влюбляется в 37-летнюю Рафи, обитательницу Нью-Йорка и деловую женщину, которая несколько обеспокоена таким подарком судьбы и пытается разобраться в ситуации с помощью своего психотерапевта Лизы. В принципе, она не против какой-то романтической истории, но уж слишком велика разница в возрасте...
    ldes                                     : 23-летний художник Дэйв влюбляется в 37-летнюю Рафи, обитательницу Нью-Йорка и деловую женщину, которая несколько обеспокоена таким подарком судьбы и пытается разобраться в ситуации с помощью своего психотерапевта Лизы. В принципе, она не против какой-то романтической истории, но уж слишком велика разница в возрасте. Психотерапевт убеждает Рафи, что в ее возрасте могут возникнуть всяческие кризисы, и потому надо без задней мысли просто развлечься и постараться получить удовольствие. Однако все меняется, когда Лиза узнает, что любовь с Рафи крутит ее собственный сын.
    hdvd                                     : 1
    stik                                     : 9
    rtng                                     : 0
    cnID                                     : 362017063
    xid                                      : Apple:vendor_id:2005-77180
    iTunEXTC                                 : mpaa|PG-13|300|Rated PG-13 for sexual content including dialogue and for language.
    iTunMOVI                                 : <?xml version="1.0" encoding="UTF-8"?> / <!DOCTYPE plist PUBLIC "-//Apple//DTD PLIST 1.0//EN" "http://anonym.to/?http://www.apple.com/DTDs/PropertyList-1.0.dtd"> / <plist version="1.0"> / <dict> /  <key>cast</key> /  <array> /   <dict> /    <key>name</key> /    <string>Ума Турман</string> /   </dict> /   <dict> /    <key>name</key> /    <string>Мэрил Стрип</string> /   </dict> /   <dict> /    <key>name</key> /    <string>Брайан Гринберг</string> /   </dict> /   <dict> /    <key>name</key> /    <string>Джон Абрахамс</string> /   </dict> /   <dict> /    <key>name</key> /    <string>Адриана Биази</string> /   </dict> /   <dict> /    <key>name</key> /    <string>Дэвид Янгер</string> /   </dict> /   <dict> /    <key>name</key> /    <string>Палмер Браун</string> /   </dict> /   <dict> /    <key>name</key> /    <string>Зак Орт</string> /   </dict> /   <dict> /    <key>name</key> /    <string>Энни Пэррис</string> /   </dict> /   <dict> /    <key>name</key> /    <string>Обри Доллар</string> /   </dict> /  </array> /  <key>directors</key> /  <array> /   <dict> /    <key>name</key> /    <string>Бен Янгер</string> /   </dict> /  </array> /  <key>producers</key> /  <array> /   <dict> /    <key>name</key> /    <string>Марк Гордон</string> /   </dict> /   <dict> /    <key>name</key> /    <string>Бредли Дженкель</string> /   </dict> /   <dict> /    <key>name</key> /    <string>Энтони Катагас</string> /   </dict> /  </array> /  <key>screenwriters</key> /  <array> /   <dict> /    <key>name</key> /    <string>Бен Янгер</string> /   </dict> /  </array> /  <key>studio</key> /  <string>Universal Pictures</string> / </dict> / </plist>
    Видео #1
    Идентификатор                            : 1
    Формат                                   : AVC
    Формат/Информация                        : Advanced Video Codec
    Профиль формата                          : High@L3.1
    Параметр CABAC формата                   : Нет
    Параметр ReFrames формата                : 3 кадра
    Идентификатор кодека                     : avc1
    Идентификатор кодека/Информация          : Advanced Video Coding
    Продолжительность                        : 1 ч. 45 м.
    Вид битрейта                             : Переменный
    Битрейт                                  : 5100 Кбит/сек
    Ширина                                   : 1280 пикселей
    Высота                                   : 720 пикселей
    Соотношение сторон                       : 16:9
    Режим частоты кадров                     : Переменный
    Частота кадров                           : 23,976 кадра/сек
    Минимальная частота кадров               : 23,810 кадра/сек
    Максимальная частота кадров              : 24,390 кадра/сек
    Цветовое пространство                    : YUV
    Субдискретизация насыщенности            : 4:2:0
    Битовая глубина                          : 8 бит
    Тип развёртки                            : Прогрессивная
    Бит/(Пиксели*Кадры)                      : 0.231
    Размер потока                            : 3,75 Гбайт (80%)
    Библиотека кодирования                   : x264 core 142 r2479 dd79a61
    Настройки программы                      : cabac=0 / ref=3 / deblock=1:-3:-3 / analyse=0x3:0x113 / me=umh / subme=9 / psy=1 / psy_rd=1.10:0.15 / mixed_ref=1 / me_range=32 / chroma_me=1 / trellis=0 / 8x8dct=1 / cqm=0 / deadzone=21,11 / fast_pskip=1 / chroma_qp_offset=-2 / threads=18 / lookahead_threads=1 / sliced_threads=0 / nr=0 / decimate=1 / interlaced=0 / bluray_compat=0 / constrained_intra=0 / bframes=8 / b_pyramid=0 / b_adapt=1 / b_bias=0 / direct=1 / weightb=0 / open_gop=0 / weightp=0 / keyint=240 / keyint_min=24 / scenecut=40 / intra_refresh=0 / rc_lookahead=40 / rc=2pass / mbtree=1 / bitrate=5100 / ratetol=1.0 / qcomp=0.60 / qpmin=4 / qpmax=69 / qpstep=4 / cplxblur=20.0 / qblur=0.5 / vbv_maxrate=9500 / vbv_bufsize=9500 / nal_hrd=none / filler=0 / ip_ratio=1.40 / aq=1:0.90
    Язык                                     : English
    Дата кодирования                         : UTC 2014-12-06 08:30:18
    Дата пометки                             : UTC 2014-12-06 08:32:54
    Основные цвета                           : BT.709-5, BT.1361, IEC 61966-2-4, SMPTE RP177
    Характеристики трансфера                 : BT.709-5, BT.1361
    Коэффициенты матрицы                     : BT.709-5, BT.1361, IEC 61966-2-4 709, SMPTE RP177
    Видео #2
    Идентификатор                            : 9
    Формат                                   : JPEG
    Идентификатор кодека                     : jpeg
    Продолжительность                        : 1 ч. 45 м.
    Вид битрейта                             : Переменный
    Битрейт                                  : 450 бит/сек
    Ширина                                   : 640 пикселей
    Высота                                   : 360 пикселей
    Соотношение сторон                       : 16:9
    Режим частоты кадров                     : Постоянный
    Частота кадров                           : 0,001 кадр/сек
    Цветовое пространство                    : YUV
    Субдискретизация насыщенности            : 4:2:0
    Битовая глубина                          : 8 бит
    Метод сжатия                             : С потерями
    Бит/(Пиксели*Кадры)                      : 1.953
    Размер потока                            : 660 Кбайт (0%)
    Язык                                     : English
    Дата кодирования                         : UTC 2014-12-06 09:01:38
    Дата пометки                             : UTC 2014-12-06 09:01:39
    Аудио #1
    Идентификатор                            : 2
    Формат                                   : AAC
    Формат/Информация                        : Advanced Audio Codec
    Профиль формата                          : LC
    Идентификатор кодека                     : 40
    Продолжительность                        : 1 ч. 45 м.
    Вид битрейта                             : Переменный
    Битрейт                                  : 165 Кбит/сек
    Максимальный битрейт                     : 251 Кбит/сек
    Каналы                                   : 2 канала
    Расположение каналов                     : Front: L R
    Частота                                  : 48,0 КГц
    Метод сжатия                             : С потерями
    Задержка видео                           : -7 с. 0 мс.
    Размер потока                            : 124 Мбайт (3%)
    Язык                                     : Russian
    Дата кодирования                         : UTC 2014-12-06 09:00:52
    Дата пометки                             : UTC 2014-12-06 09:01:21
    Аудио #2
    Идентификатор                            : 3
    Формат                                   : AAC
    Формат/Информация                        : Advanced Audio Codec
    Профиль формата                          : LC
    Идентификатор кодека                     : 40
    Продолжительность                        : 1 ч. 45 м.
    Вид битрейта                             : Переменный
    Битрейт                                  : 164 Кбит/сек
    Максимальный битрейт                     : 260 Кбит/сек
    Каналы                                   : 2 канала
    Расположение каналов                     : Front: L R
    Частота                                  : 48,0 КГц
    Метод сжатия                             : С потерями
    Задержка видео                           : -7 с. 0 мс.
    Размер потока                            : 124 Мбайт (3%)
    Язык                                     : English
    Дата кодирования                         : UTC 2014-12-06 09:00:52
    Дата пометки                             : UTC 2014-12-06 09:01:21
    Аудио #3
    Идентификатор                            : 4
    Формат                                   : AC-3
    Формат/Информация                        : Audio Coding 3
    Расширение режима                        : CM (complete main)
    Параметр Endianness формата              : Big
    Идентификатор кодека                     : ac-3
    Продолжительность                        : 1 ч. 45 м.
    Вид битрейта                             : Постоянный
    Битрейт                                  : 448 Кбит/сек
    Каналы                                   : 6 каналов
    Расположение каналов                     : Front: L C R, Side: L R, LFE
    Частота                                  : 48,0 КГц
    Битовая глубина                          : 16 бит
    Метод сжатия                             : С потерями
    Задержка видео                           : -7 с. 0 мс.
    Размер потока                            : 338 Мбайт (7%)
    Язык                                     : Russian
    Дата кодирования                         : UTC 2014-12-06 09:00:52
    Дата пометки                             : UTC 2014-12-06 09:01:17
    Аудио #4
    Идентификатор                            : 5
    Формат                                   : AC-3
    Формат/Информация                        : Audio Coding 3
    Расширение режима                        : CM (complete main)
    Параметр Endianness формата              : Big
    Идентификатор кодека                     : ac-3
    Продолжительность                        : 1 ч. 45 м.
    Вид битрейта                             : Постоянный
    Битрейт                                  : 448 Кбит/сек
    Каналы                                   : 6 каналов
    Расположение каналов                     : Front: L C R, Side: L R, LFE
    Частота                                  : 48,0 КГц
    Битовая глубина                          : 16 бит
    Метод сжатия                             : С потерями
    Задержка видео                           : -7 с. 0 мс.
    Размер потока                            : 338 Мбайт (7%)
    Язык                                     : English
    Дата кодирования                         : UTC 2014-12-06 09:00:52
    Дата пометки                             : UTC 2014-12-06 09:01:17
    Текст #1
    Идентификатор                            : 6
    Формат                                   : Timed text
    Режим смешивания                         : sbtl
    Идентификатор кодека                     : tx3g
    Продолжительность                        : 1 ч. 39 м.
    Вид битрейта                             : Переменный
    Битрейт                                  : 106 бит/сек
    Задержка видео                           : -7 с. 0 мс.
    Размер потока                            : 77,5 Кбайт (0%)
    Язык                                     : Russian
    Дата кодирования                         : UTC 2014-12-06 09:00:52
    Дата пометки                             : UTC 2014-12-06 09:00:52
    Текст #2
    Идентификатор                            : 7
    Формат                                   : Timed text
    Режим смешивания                         : sbtl
    Идентификатор кодека                     : tx3g
    Продолжительность                        : 1 ч. 39 м.
    Вид битрейта                             : Переменный
    Битрейт                                  : 59 бит/сек
    Задержка видео                           : -7 с. 0 мс.
    Размер потока                            : 43,3 Кбайт (0%)
    Язык                                     : English
    Дата кодирования                         : UTC 2014-12-06 09:00:52
    Дата пометки                             : UTC 2014-12-06 09:00:52
    Текст #3
    Идентификатор                            : 8
    Формат                                   : Apple text
    Идентификатор кодека                     : text
    Продолжительность                        : 1 ч. 45 м.
    Вид битрейта                             : Переменный
    Битрейт                                  : 0 бит/сек
    Задержка видео                           : -7 с. 0 мс.
    Размер потока                            : 279 байт (0%)
    Язык                                     : English
    Дата кодирования                         : UTC 2014-12-06 09:01:22
    Дата пометки                             : UTC 2014-12-06 09:01:22
    Меню
    00:00:00.000                             : Chapter 1
    00:07:03.589                             : Chapter 2
    00:16:30.614                             : Chapter 3
    00:25:49.297                             : Chapter 4
    00:34:24.187                             : Chapter 5
    00:45:35.482                             : Chapter 6
    00:52:46.079                             : Chapter 7
    01:00:56.444                             : Chapter 8
    01:10:09.914                             : Chapter 9
    01:21:05.694                             : Chapter 10
    01:29:26.652                             : Chapter 11
    01:37:52.616                             : Chapter 12

    MediaInfo 1080p Release

    Общее
    Полное имя                               : Y:\ATV\Prime\Prime (1080p HD).m4v
    Формат                                   : MPEG-4
    Идентификатор кодека                     : M4V
    Размер файла                             : 11,0 Гбайт
    Продолжительность                        : 1 ч. 45 м.
    Режим общего битрейта                    : Переменный
    Общий поток                              : 15,0 Мбит/сек
    Название фильма                          : Prime
    Исполнитель                              : Ben Younger
    Жанр                                     : Comedy
    Дата записи                              : UTC 2005-09-21 08:00:00
    Дата кодирования                         : UTC 2014-12-06 07:25:47
    Дата пометки                             : UTC 2014-12-06 08:35:43
    Правообладатель                          : © 2005 Universal Studios. All Rights Reserved.
    Обложка                                  : Yes
    sonm                                     : Prime
    desc                                     : 23-летний художник Дэйв влюбляется в 37-летнюю Рафи, обитательницу Нью-Йорка и деловую женщину, которая несколько обеспокоена таким подарком судьбы и пытается разобраться в ситуации с помощью своего психотерапевта Лизы. В принципе, она не против какой-то романтической истории, но уж слишком велика разница в возрасте...
    ldes                                     : 23-летний художник Дэйв влюбляется в 37-летнюю Рафи, обитательницу Нью-Йорка и деловую женщину, которая несколько обеспокоена таким подарком судьбы и пытается разобраться в ситуации с помощью своего психотерапевта Лизы. В принципе, она не против какой-то романтической истории, но уж слишком велика разница в возрасте. Психотерапевт убеждает Рафи, что в ее возрасте могут возникнуть всяческие кризисы, и потому надо без задней мысли просто развлечься и постараться получить удовольствие. Однако все меняется, когда Лиза узнает, что любовь с Рафи крутит ее собственный сын.
    hdvd                                     : 2
    stik                                     : 9
    rtng                                     : 0
    cnID                                     : 362017063
    xid                                      : Apple:vendor_id:2005-77180
    iTunEXTC                                 : mpaa|PG-13|300|Rated PG-13 for sexual content including dialogue and for language.
    iTunMOVI                                 : <?xml version="1.0" encoding="UTF-8"?> / <!DOCTYPE plist PUBLIC "-//Apple//DTD PLIST 1.0//EN" "http://anonym.to/?http://www.apple.com/DTDs/PropertyList-1.0.dtd"> / <plist version="1.0"> / <dict> /  <key>cast</key> /  <array> /   <dict> /    <key>name</key> /    <string>Ума Турман</string> /   </dict> /   <dict> /    <key>name</key> /    <string>Мэрил Стрип</string> /   </dict> /   <dict> /    <key>name</key> /    <string>Брайан Гринберг</string> /   </dict> /   <dict> /    <key>name</key> /    <string>Джон Абрахамс</string> /   </dict> /   <dict> /    <key>name</key> /    <string>Адриана Биази</string> /   </dict> /   <dict> /    <key>name</key> /    <string>Дэвид Янгер</string> /   </dict> /   <dict> /    <key>name</key> /    <string>Палмер Браун</string> /   </dict> /   <dict> /    <key>name</key> /    <string>Зак Орт</string> /   </dict> /   <dict> /    <key>name</key> /    <string>Энни Пэррис</string> /   </dict> /   <dict> /    <key>name</key> /    <string>Обри Доллар</string> /   </dict> /  </array> /  <key>directors</key> /  <array> /   <dict> /    <key>name</key> /    <string>Бен Янгер</string> /   </dict> /  </array> /  <key>producers</key> /  <array> /   <dict> /    <key>name</key> /    <string>Марк Гордон</string> /   </dict> /   <dict> /    <key>name</key> /    <string>Бредли Дженкель</string> /   </dict> /   <dict> /    <key>name</key> /    <string>Энтони Катагас</string> /   </dict> /  </array> /  <key>screenwriters</key> /  <array> /   <dict> /    <key>name</key> /    <string>Бен Янгер</string> /   </dict> /  </array> /  <key>studio</key> /  <string>Universal Pictures</string> / </dict> / </plist>
    Видео #1
    Идентификатор                            : 1
    Формат                                   : AVC
    Формат/Информация                        : Advanced Video Codec
    Профиль формата                          : High@L4.0
    Параметр CABAC формата                   : Да
    Параметр ReFrames формата                : 4 кадра
    Идентификатор кодека                     : avc1
    Идентификатор кодека/Информация          : Advanced Video Coding
    Продолжительность                        : 1 ч. 45 м.
    Вид битрейта                             : Переменный
    Битрейт                                  : 13,8 Мбит/сек
    Ширина                                   : 1920 пикселей
    Высота                                   : 1080 пикселей
    Соотношение сторон                       : 16:9
    Режим частоты кадров                     : Переменный
    Частота кадров                           : 23,976 кадра/сек
    Минимальная частота кадров               : 23,810 кадра/сек
    Максимальная частота кадров              : 24,390 кадра/сек
    Цветовое пространство                    : YUV
    Субдискретизация насыщенности            : 4:2:0
    Битовая глубина                          : 8 бит
    Тип развёртки                            : Прогрессивная
    Бит/(Пиксели*Кадры)                      : 0.278
    Размер потока                            : 10,1 Гбайт (92%)
    Библиотека кодирования                   : x264 core 142 r2479 dd79a61
    Настройки программы                      : cabac=1 / ref=4 / deblock=1:-2:-2 / analyse=0x3:0x113 / me=umh / subme=9 / psy=1 / psy_rd=1.10:0.15 / mixed_ref=1 / me_range=32 / chroma_me=1 / trellis=2 / 8x8dct=1 / cqm=0 / deadzone=21,11 / fast_pskip=1 / chroma_qp_offset=-3 / threads=18 / lookahead_threads=1 / sliced_threads=0 / nr=0 / decimate=1 / interlaced=0 / bluray_compat=0 / constrained_intra=0 / bframes=8 / b_pyramid=2 / b_adapt=1 / b_bias=0 / direct=1 / weightb=1 / open_gop=0 / weightp=2 / keyint=240 / keyint_min=24 / scenecut=40 / intra_refresh=0 / rc_lookahead=40 / rc=2pass / mbtree=1 / bitrate=13800 / ratetol=1.0 / qcomp=0.60 / qpmin=0 / qpmax=69 / qpstep=4 / cplxblur=20.0 / qblur=0.5 / vbv_maxrate=25000 / vbv_bufsize=25000 / nal_hrd=none / filler=0 / ip_ratio=1.40 / aq=1:0.90
    Язык                                     : English
    Дата кодирования                         : UTC 2014-12-06 07:25:47
    Дата пометки                             : UTC 2014-12-06 07:33:41
    Основные цвета                           : BT.709-5, BT.1361, IEC 61966-2-4, SMPTE RP177
    Характеристики трансфера                 : BT.709-5, BT.1361
    Коэффициенты матрицы                     : BT.709-5, BT.1361, IEC 61966-2-4 709, SMPTE RP177
    Видео #2
    Идентификатор                            : 9
    Формат                                   : JPEG
    Идентификатор кодека                     : jpeg
    Продолжительность                        : 1 ч. 45 м.
    Вид битрейта                             : Переменный
    Битрейт                                  : 454 бит/сек
    Ширина                                   : 640 пикселей
    Высота                                   : 360 пикселей
    Соотношение сторон                       : 16:9
    Режим частоты кадров                     : Постоянный
    Частота кадров                           : 0,001 кадр/сек
    Цветовое пространство                    : YUV
    Субдискретизация насыщенности            : 4:2:0
    Битовая глубина                          : 8 бит
    Метод сжатия                             : С потерями
    Бит/(Пиксели*Кадры)                      : 1.970
    Размер потока                            : 665 Кбайт (0%)
    Язык                                     : English
    Дата кодирования                         : UTC 2014-12-06 08:35:25
    Дата пометки                             : UTC 2014-12-06 08:35:26
    Аудио #1
    Идентификатор                            : 2
    Формат                                   : AAC
    Формат/Информация                        : Advanced Audio Codec
    Профиль формата                          : LC
    Идентификатор кодека                     : 40
    Продолжительность                        : 1 ч. 45 м.
    Вид битрейта                             : Переменный
    Битрейт                                  : 165 Кбит/сек
    Максимальный битрейт                     : 251 Кбит/сек
    Каналы                                   : 2 канала
    Расположение каналов                     : Front: L R
    Частота                                  : 48,0 КГц
    Метод сжатия                             : С потерями
    Задержка видео                           : -14 с.
    Размер потока                            : 124 Мбайт (1%)
    Язык                                     : Russian
    Дата кодирования                         : UTC 2014-12-06 08:34:24
    Дата пометки                             : UTC 2014-12-06 08:35:00
    Аудио #2
    Идентификатор                            : 3
    Формат                                   : AAC
    Формат/Информация                        : Advanced Audio Codec
    Профиль формата                          : LC
    Идентификатор кодека                     : 40
    Продолжительность                        : 1 ч. 45 м.
    Вид битрейта                             : Переменный
    Битрейт                                  : 164 Кбит/сек
    Максимальный битрейт                     : 260 Кбит/сек
    Каналы                                   : 2 канала
    Расположение каналов                     : Front: L R
    Частота                                  : 48,0 КГц
    Метод сжатия                             : С потерями
    Задержка видео                           : -14 с.
    Размер потока                            : 124 Мбайт (1%)
    Язык                                     : English
    Дата кодирования                         : UTC 2014-12-06 08:34:24
    Дата пометки                             : UTC 2014-12-06 08:35:00
    Аудио #3
    Идентификатор                            : 4
    Формат                                   : AC-3
    Формат/Информация                        : Audio Coding 3
    Расширение режима                        : CM (complete main)
    Параметр Endianness формата              : Big
    Идентификатор кодека                     : ac-3
    Продолжительность                        : 1 ч. 45 м.
    Вид битрейта                             : Постоянный
    Битрейт                                  : 448 Кбит/сек
    Каналы                                   : 6 каналов
    Расположение каналов                     : Front: L C R, Side: L R, LFE
    Частота                                  : 48,0 КГц
    Битовая глубина                          : 16 бит
    Метод сжатия                             : С потерями
    Задержка видео                           : -14 с.
    Размер потока                            : 338 Мбайт (3%)
    Язык                                     : Russian
    Дата кодирования                         : UTC 2014-12-06 08:34:24
    Дата пометки                             : UTC 2014-12-06 08:34:56
    Аудио #4
    Идентификатор                            : 5
    Формат                                   : AC-3
    Формат/Информация                        : Audio Coding 3
    Расширение режима                        : CM (complete main)
    Параметр Endianness формата              : Big
    Идентификатор кодека                     : ac-3
    Продолжительность                        : 1 ч. 45 м.
    Вид битрейта                             : Постоянный
    Битрейт                                  : 448 Кбит/сек
    Каналы                                   : 6 каналов
    Расположение каналов                     : Front: L C R, Side: L R, LFE
    Частота                                  : 48,0 КГц
    Битовая глубина                          : 16 бит
    Метод сжатия                             : С потерями
    Задержка видео                           : -14 с.
    Размер потока                            : 338 Мбайт (3%)
    Язык                                     : English
    Дата кодирования                         : UTC 2014-12-06 08:34:24
    Дата пометки                             : UTC 2014-12-06 08:34:56
    Текст #1
    Идентификатор                            : 6
    Формат                                   : Timed text
    Режим смешивания                         : sbtl
    Идентификатор кодека                     : tx3g
    Продолжительность                        : 1 ч. 39 м.
    Вид битрейта                             : Переменный
    Битрейт                                  : 106 бит/сек
    Задержка видео                           : -14 с.
    Размер потока                            : 77,5 Кбайт (0%)
    Язык                                     : Russian
    Дата кодирования                         : UTC 2014-12-06 08:34:24
    Дата пометки                             : UTC 2014-12-06 08:34:24
    Текст #2
    Идентификатор                            : 7
    Формат                                   : Timed text
    Режим смешивания                         : sbtl
    Идентификатор кодека                     : tx3g
    Продолжительность                        : 1 ч. 39 м.
    Вид битрейта                             : Переменный
    Битрейт                                  : 59 бит/сек
    Задержка видео                           : -14 с.
    Размер потока                            : 43,3 Кбайт (0%)
    Язык                                     : English
    Дата кодирования                         : UTC 2014-12-06 08:34:24
    Дата пометки                             : UTC 2014-12-06 08:34:24
    Текст #3
    Идентификатор                            : 8
    Формат                                   : Apple text
    Идентификатор кодека                     : text
    Продолжительность                        : 1 ч. 45 м.
    Вид битрейта                             : Переменный
    Битрейт                                  : 0 бит/сек
    Задержка видео                           : -14 с.
    Размер потока                            : 279 байт (0%)
    Язык                                     : English
    Дата кодирования                         : UTC 2014-12-06 08:35:00
    Дата пометки                             : UTC 2014-12-06 08:35:00
    Меню
    00:00:00.000                             : Chapter 1
    00:07:03.589                             : Chapter 2
    00:16:30.614                             : Chapter 3
    00:25:49.297                             : Chapter 4
    00:34:24.187                             : Chapter 5
    00:45:35.482                             : Chapter 6
    00:52:46.079                             : Chapter 7
    01:00:56.444                             : Chapter 8
    01:10:09.914                             : Chapter 9
    01:21:05.694                             : Chapter 10
    01:29:26.652                             : Chapter 11
    01:37:52.616                             : Chapter 12

    x264 лог 720p Release

    x264 [info]: frame I:1545  Avg QP:16.61  size:127147
    x264 [info]: frame P:78468 Avg QP:18.41  size: 37535
    x264 [info]: frame B:71575 Avg QP:20.20  size: 12399
    x264 [info]: consecutive B-frames: 23.2% 36.9% 16.7% 18.4%  4.5%  0.1%  0.0%  0.0%  0.0%
    x264 [info]: mb I  I16..4:  5.6% 65.1% 29.3%
    x264 [info]: mb P  I16..4:  1.0%  3.8%  1.5%  P16..4: 44.7% 27.2% 11.7%  0.0%  0.0%    skip:10.1%
    x264 [info]: mb B  I16..4:  0.1%  0.3%  0.1%  B16..8: 51.7% 10.6%  1.8%  direct: 5.2%  skip:30.2%  L0:39.9% L1:48.6% BI:11.5%
    x264 [info]: 8x8 transform intra:61.5% inter:47.8%
    x264 [info]: coded y,uvDC,uvAC intra: 85.2% 78.6% 50.1% inter: 30.5% 20.1% 1.6%
    x264 [info]: i16 v,h,dc,p: 63% 15%  7% 15%
    x264 [info]: i8 v,h,dc,ddl,ddr,vr,hd,vl,hu:  9%  7%  6% 11% 16% 15% 14% 12% 10%
    x264 [info]: i4 v,h,dc,ddl,ddr,vr,hd,vl,hu: 11%  8%  3% 10% 17% 16% 14% 11%  9%
    x264 [info]: i8c dc,h,v,p: 50% 17% 22% 11%
    x264 [info]: ref P L0: 66.3% 19.3% 14.4%
    x264 [info]: ref B L0: 78.5% 21.5%
    x264 [info]: kb/s:5098.23

    x264 лог 1080p Release

    x264 [info]: frame I:1657  Avg QP:16.78  size:214455
    x264 [info]: frame P:95395 Avg QP:18.81  size: 87751
    x264 [info]: frame B:54536 Avg QP:20.48  size: 39638
    x264 [info]: consecutive B-frames: 37.1% 41.7% 10.4%  9.8%  1.0%  0.0%  0.0%  0.0%  0.0%
    x264 [info]: mb I  I16..4:  3.0% 94.2%  2.9%
    x264 [info]: mb P  I16..4:  1.6% 21.9%  0.6%  P16..4: 42.3% 19.5%  8.7%  0.0%  0.0%    skip: 5.4%
    x264 [info]: mb B  I16..4:  0.3%  3.1%  0.0%  B16..8: 42.8%  8.6%  1.9%  direct:15.3%  skip:27.8%  L0:40.3% L1:38.6% BI:21.1%
    x264 [info]: 8x8 transform intra:90.9% inter:52.1%
    x264 [info]: coded y,uvDC,uvAC intra: 87.5% 88.5% 64.4% inter: 46.7% 49.5% 4.2%
    x264 [info]: i16 v,h,dc,p: 58% 17% 10% 15%
    x264 [info]: i8 v,h,dc,ddl,ddr,vr,hd,vl,hu: 13%  9% 25%  7%  9%  9%  8%  9% 11%
    x264 [info]: i4 v,h,dc,ddl,ddr,vr,hd,vl,hu: 14%  7%  3%  9% 15% 16% 14% 11% 11%
    x264 [info]: i8c dc,h,v,p: 54% 20% 17%  8%
    x264 [info]: Weighted P-Frames: Y:1.7% UV:0.3%
    x264 [info]: ref P L0: 51.5% 12.0% 21.3% 10.9%  4.3%  0.1%
    x264 [info]: ref B L0: 78.0% 20.0%  2.0%
    x264 [info]: ref B L1: 96.6%  3.4%
    x264 [info]: kb/s:13776.96

    Скриншоты 720p Release


    Скриншоты 1080p Release


    -

    Релиз подготовлен для просмотра на Apple TV, iPad, iPhone, iPod Touch.
    Для просмотра данного релиза на компьютере с ОС Windows рекомендуется использовать VLC media player
    --
    Скачать .torrent

    Скачать торрент-файл бесплатно и на максимальной скорости!

    Как скачивать? · Что такое торрент? · Рейтинг и ограничения

    !ВНИМАНИЕ!
    Сайт не распространяет и не хранит электронные версии произведений, а занимается лишь лишь предоставлением доступа к создаваемому пользователями каталогу ссылок на торрент-файлы, которые содержат только списки хеш-сумм, убедительная просьба с жалобами обращаться напрямую к пользователю. Файлы для обмена на трекере предоставлены пользователями сайта, и администрация не несёт ответственности за их содержание. Просьба не заливать файлы, защищенные авторскими правами, а также файлы нелегального содержания!


    _________________
    [Профиль] [ЛС]
    Показать сообщения:    
    Ответить на тему

    Текущее время: Сегодня, в 06:20

    Часовой пояс: GMT + 2



    Вы не можете начинать темы
    Вы не можете отвечать на сообщения
    Вы не можете редактировать свои сообщения
    Вы не можете удалять свои сообщения
    Вы не можете голосовать в опросах
    Вы не можете прикреплять файлы к сообщениям
    Вы не можете скачивать файлы