BitTorrentTracker PerecTracker.org
BitTorrentTracker PerecTracker.org
    
Регистрация  ·  Вход
 
 · 
Забыли пароль?

  • Безумное свидание / Date Night (Шон Леви / Shawn Levy) [2010, триллер, мелодрама, комедия, BDRip, HD (1080p, 720p)] DUB, Original + sub (rus, eng)

    Ответить на тему
     
    Автор Сообщение

    Flirldrerve

    Создавать темы 27-Окт-2015 05:20

           

    [Цитировать]

    Безумное свидание / Date Night
    "Не все свидания идут по плану"
    6.537 / 10
    -Год выпуска: 2010
    Страна: США
    Жанр: триллер, мелодрама, комедия, криминал
    Продолжительность: 88 мин.
    Перевод: Профессиональный дублированный перевод
    Режиссёр: Шон Леви
    Сценарий: Джош Клауснер
    Продюсер: Шон Леви, Джозеф М. Карачиоло мл., Джош МакЛаглен
    Оператор: Дин Семлер
    Композитор: Кристоф Бек
    Художник: Дэвид Гропмэн, Дэн Уэбстер, Марлен Стюарт
    Монтаж: Дин Зиммерман
    В ролях: Стив Карелл, Тина Фей, Тараджи П. Хенсон, Марк Уолберг, Джимми Симпсон, Коммон, Уильям Фихтнер, Джеймс Франко, Мила Кунис, Лейтон Мистер
    Роли дублировали: Сергей Бурунов, Людмила Шувалова, Ольга Сирина, Александр Гаврилин, Андрей Симанов
    Бюджет: $55 000 000
    Сборы в США: $98 711 404
    Сборы в мире: + $53 552 476 = $152 263 880
    Сборы в России: $3 335 755
    Мировая премьера: 6 апреля 2010
    Премьера (РФ): 15 апреля 2010, Двадцатый Век Фокс СНГ
    Релиз на Blu-Ray: 30 сентября 2010, Двадцатый Век Фокс СНГ
    Релиз на DVD: 10 июня 2010, Двадцатый Век Фокс СНГ
    Описание: Скучную жизнь супругов Фостер должен разнообразить ужин в модном нью-йоркском ресторане. Так и получилось, ведь стоило им представиться чужими именами, чтобы получить столик без очереди и безумные приключения тут же начались. Приняв их за других, в бешеную гонку по городу за семейной четой пустились коррумпированные копы и городские гангстеры.-Качество исходника: Blu-Ray 1080p ()
    Качество: BDRip
    Тип: 720p 1080p
    Контейнер: m4v
    Видео: 1280x544 at 23.976 fps, MPEG-4 AVC, ~4100 kbps avg
    Видео: 1920x816 at 23.976 fps, MPEG-4 AVC, ~13500 kbps avg
    Аудио#1: Russian: 48 kHz, ААС, 2/0 (L,R), ~160.00 kbps avg |Профессиональный (дублированный)
    Аудио#2: English: 48 kHz, ААС, 2/0 (L,R), ~160.00 kbps avg
    Аудио#3: Russian: 48 kHz, AC3, 3/2 (L,C,R,l,r) + LFE ch, ~448 kbps avg |Профессиональный (дублированный)
    Аудио#4: English: 48 kHz, AC3, 3/2 (L,C,R,l,r) + LFE ch, ~448 kbps avg
    Субтитры №1: Russian: |Полные
    Субтитры №2: English: |Полные-

    iTunes Meta Tags for country us

    Name: Date Night
    Artist: Shawn Levy
    Genre: Comedy
    Release Date: 2010-04-06T08:00:00Z
    Description: Скучную жизнь супругов Фостер должен разнообразить ужин в модном нью-йоркском ресторане. Так и получилось, ведь стоило им представиться чужими именами, чтобы получить столик без очереди и безумные приключения тут же начались...
    Long Description: Скучную жизнь супругов Фостер должен разнообразить ужин в модном нью-йоркском ресторане. Так и получилось, ведь стоило им представиться чужими именами, чтобы получить столик без очереди и безумные приключения тут же начались. Приняв их за других, в бешеную гонку по городу за семейной четой пустились коррумпированные копы и городские гангстеры.
    Rating: PG-13
    Studio: 20th Century Fox
    Cast: Стив Карелл, Тина Фей, Тараджи П. Хенсон, Марк Уолберг, Джимми Симпсон, Коммон, Уильям Фихтнер, Джеймс Франко, Мила Кунис, Лейтон Мистер
    Director: Шон Леви
    Producers: Шон Леви, Джозеф М. Карачиоло мл., Джош МакЛаглен
    Screenwriters: Джош Клауснер
    Copyright: © 2009 Twentieth Century Fox Film Corporation
    contentID: 370805508
    XID: Apple:vendor_id:2010-445175
    Sort Name: Date Night

    MediaInfo 720p Release

    Общее
    Полное имя                               : Y:\ATV\Date Night\Date Night (HD).m4v
    Формат                                   : MPEG-4
    Идентификатор кодека                     : M4V
    Размер файла                             : 3,77 Гбайт
    Продолжительность                        : 1 ч. 41 м.
    Режим общего битрейта                    : Переменный
    Общий поток                              : 5319 Кбит/сек
    Название фильма                          : Date Night
    Исполнитель                              : Shawn Levy
    Жанр                                     : Comedy
    Дата записи                              : UTC 2010-04-06 08:00:00
    Дата кодирования                         : UTC 2014-12-06 17:29:00
    Дата пометки                             : UTC 2014-12-06 17:37:17
    Правообладатель                          : © 2009 Twentieth Century Fox Film Corporation
    Обложка                                  : Yes
    sonm                                     : Date Night
    desc                                     : Скучную жизнь супругов Фостер должен разнообразить ужин в модном нью-йоркском ресторане. Так и получилось, ведь стоило им представиться чужими именами, чтобы получить столик без очереди и безумные приключения тут же начались...
    ldes                                     : Скучную жизнь супругов Фостер должен разнообразить ужин в модном нью-йоркском ресторане. Так и получилось, ведь стоило им представиться чужими именами, чтобы получить столик без очереди и безумные приключения тут же начались. Приняв их за других, в бешеную гонку по городу за семейной четой пустились коррумпированные копы и городские гангстеры.
    hdvd                                     : 1
    stik                                     : 9
    rtng                                     : 0
    cnID                                     : 370805508
    xid                                      : Apple:vendor_id:2010-445175
    iTunEXTC                                 : mpaa|PG-13|300|
    iTunMOVI                                 : <?xml version="1.0" encoding="UTF-8"?> / <!DOCTYPE plist PUBLIC "-//Apple//DTD PLIST 1.0//EN" "http://anonym.to/?http://www.apple.com/DTDs/PropertyList-1.0.dtd"> / <plist version="1.0"> / <dict> /  <key>cast</key> /  <array> /   <dict> /    <key>name</key> /    <string>Стив Карелл</string> /   </dict> /   <dict> /    <key>name</key> /    <string>Тина Фей</string> /   </dict> /   <dict> /    <key>name</key> /    <string>Тараджи П. Хенсон</string> /   </dict> /   <dict> /    <key>name</key> /    <string>Марк Уолберг</string> /   </dict> /   <dict> /    <key>name</key> /    <string>Джимми Симпсон</string> /   </dict> /   <dict> /    <key>name</key> /    <string>Коммон</string> /   </dict> /   <dict> /    <key>name</key> /    <string>Уильям Фихтнер</string> /   </dict> /   <dict> /    <key>name</key> /    <string>Джеймс Франко</string> /   </dict> /   <dict> /    <key>name</key> /    <string>Мила Кунис</string> /   </dict> /   <dict> /    <key>name</key> /    <string>Лейтон Мистер</string> /   </dict> /  </array> /  <key>directors</key> /  <array> /   <dict> /    <key>name</key> /    <string>Шон Леви</string> /   </dict> /  </array> /  <key>producers</key> /  <array> /   <dict> /    <key>name</key> /    <string>Шон Леви</string> /   </dict> /   <dict> /    <key>name</key> /    <string>Джозеф М. Карачиоло мл.</string> /   </dict> /   <dict> /    <key>name</key> /    <string>Джош МакЛаглен</string> /   </dict> /  </array> /  <key>screenwriters</key> /  <array> /   <dict> /    <key>name</key> /    <string>Джош Клауснер</string> /   </dict> /  </array> /  <key>studio</key> /  <string>20th Century Fox</string> / </dict> / </plist>
    Видео #1
    Идентификатор                            : 1
    Формат                                   : AVC
    Формат/Информация                        : Advanced Video Codec
    Профиль формата                          : High@L3.1
    Параметр CABAC формата                   : Нет
    Параметр ReFrames формата                : 3 кадра
    Идентификатор кодека                     : avc1
    Идентификатор кодека/Информация          : Advanced Video Coding
    Продолжительность                        : 1 ч. 41 м.
    Вид битрейта                             : Переменный
    Битрейт                                  : 4100 Кбит/сек
    Ширина                                   : 1280 пикселей
    Высота                                   : 544 пикселя
    Соотношение сторон                       : 2,35:1
    Режим частоты кадров                     : Переменный
    Частота кадров                           : 23,976 кадра/сек
    Минимальная частота кадров               : 23,810 кадра/сек
    Максимальная частота кадров              : 24,390 кадра/сек
    Цветовое пространство                    : YUV
    Субдискретизация насыщенности            : 4:2:0
    Битовая глубина                          : 8 бит
    Тип развёртки                            : Прогрессивная
    Бит/(Пиксели*Кадры)                      : 0.246
    Размер потока                            : 2,90 Гбайт (77%)
    Библиотека кодирования                   : x264 core 142 r2479 dd79a61
    Настройки программы                      : cabac=0 / ref=3 / deblock=1:-3:-3 / analyse=0x3:0x113 / me=umh / subme=9 / psy=1 / psy_rd=1.00:0.00 / mixed_ref=1 / me_range=32 / chroma_me=1 / trellis=0 / 8x8dct=1 / cqm=0 / deadzone=21,11 / fast_pskip=1 / chroma_qp_offset=-2 / threads=18 / lookahead_threads=1 / sliced_threads=0 / nr=0 / decimate=1 / interlaced=0 / bluray_compat=0 / constrained_intra=0 / bframes=8 / b_pyramid=0 / b_adapt=1 / b_bias=0 / direct=1 / weightb=0 / open_gop=0 / weightp=0 / keyint=240 / keyint_min=24 / scenecut=40 / intra_refresh=0 / rc_lookahead=40 / rc=2pass / mbtree=1 / bitrate=4100 / ratetol=1.0 / qcomp=0.60 / qpmin=4 / qpmax=69 / qpstep=4 / cplxblur=20.0 / qblur=0.5 / vbv_maxrate=9500 / vbv_bufsize=9500 / nal_hrd=none / filler=0 / ip_ratio=1.40 / aq=1:0.80
    Язык                                     : English
    Дата кодирования                         : UTC 2014-12-06 17:29:00
    Дата пометки                             : UTC 2014-12-06 17:30:58
    Основные цвета                           : BT.709-5, BT.1361, IEC 61966-2-4, SMPTE RP177
    Характеристики трансфера                 : BT.709-5, BT.1361
    Коэффициенты матрицы                     : BT.709-5, BT.1361, IEC 61966-2-4 709, SMPTE RP177
    Видео #2
    Идентификатор                            : 9
    Формат                                   : JPEG
    Идентификатор кодека                     : jpeg
    Продолжительность                        : 1 ч. 41 м.
    Вид битрейта                             : Переменный
    Битрейт                                  : 1051 бит/сек
    Ширина                                   : 640 пикселей
    Высота                                   : 272 пикселя
    Соотношение сторон                       : 2,35:1
    Режим частоты кадров                     : Переменный
    Частота кадров                           : 0,004 кадр/сек
    Минимальная частота кадров               : 0,002 кадр/сек
    Максимальная частота кадров              : 0,011 кадр/сек
    Цветовое пространство                    : YUV
    Субдискретизация насыщенности            : 4:2:0
    Битовая глубина                          : 8 бит
    Метод сжатия                             : С потерями
    Бит/(Пиксели*Кадры)                      : 1.509
    Размер потока                            : 770 Кбайт (0%)
    Язык                                     : English
    Дата кодирования                         : UTC 2014-12-06 17:36:56
    Дата пометки                             : UTC 2014-12-06 17:36:57
    Аудио #1
    Идентификатор                            : 2
    Формат                                   : AAC
    Формат/Информация                        : Advanced Audio Codec
    Профиль формата                          : LC
    Идентификатор кодека                     : 40
    Продолжительность                        : 1 ч. 41 м.
    Вид битрейта                             : Переменный
    Битрейт                                  : 165 Кбит/сек
    Максимальный битрейт                     : 262 Кбит/сек
    Каналы                                   : 2 канала
    Расположение каналов                     : Front: L R
    Частота                                  : 48,0 КГц
    Метод сжатия                             : С потерями
    Задержка видео                           : -7 с. 0 мс.
    Размер потока                            : 120 Мбайт (3%)
    Язык                                     : Russian
    Дата кодирования                         : UTC 2014-12-06 17:35:54
    Дата пометки                             : UTC 2014-12-06 17:36:43
    Аудио #2
    Идентификатор                            : 3
    Формат                                   : AAC
    Формат/Информация                        : Advanced Audio Codec
    Профиль формата                          : LC
    Идентификатор кодека                     : 40
    Продолжительность                        : 1 ч. 41 м.
    Вид битрейта                             : Переменный
    Битрейт                                  : 165 Кбит/сек
    Максимальный битрейт                     : 264 Кбит/сек
    Каналы                                   : 2 канала
    Расположение каналов                     : Front: L R
    Частота                                  : 48,0 КГц
    Метод сжатия                             : С потерями
    Задержка видео                           : -7 с. 0 мс.
    Размер потока                            : 120 Мбайт (3%)
    Язык                                     : English
    Дата кодирования                         : UTC 2014-12-06 17:35:54
    Дата пометки                             : UTC 2014-12-06 17:36:43
    Аудио #3
    Идентификатор                            : 4
    Формат                                   : AC-3
    Формат/Информация                        : Audio Coding 3
    Расширение режима                        : CM (complete main)
    Параметр Endianness формата              : Big
    Идентификатор кодека                     : ac-3
    Продолжительность                        : 1 ч. 41 м.
    Вид битрейта                             : Постоянный
    Битрейт                                  : 448 Кбит/сек
    Каналы                                   : 6 каналов
    Расположение каналов                     : Front: L C R, Side: L R, LFE
    Частота                                  : 48,0 КГц
    Битовая глубина                          : 16 бит
    Метод сжатия                             : С потерями
    Задержка видео                           : -7 с. 0 мс.
    Размер потока                            : 326 Мбайт (8%)
    Язык                                     : Russian
    Дата кодирования                         : UTC 2014-12-06 17:35:54
    Дата пометки                             : UTC 2014-12-06 17:36:34
    Аудио #4
    Идентификатор                            : 5
    Формат                                   : AC-3
    Формат/Информация                        : Audio Coding 3
    Расширение режима                        : CM (complete main)
    Параметр Endianness формата              : Big
    Идентификатор кодека                     : ac-3
    Продолжительность                        : 1 ч. 41 м.
    Вид битрейта                             : Постоянный
    Битрейт                                  : 448 Кбит/сек
    Каналы                                   : 6 каналов
    Расположение каналов                     : Front: L C R, Side: L R, LFE
    Частота                                  : 48,0 КГц
    Битовая глубина                          : 16 бит
    Метод сжатия                             : С потерями
    Задержка видео                           : -7 с. 0 мс.
    Размер потока                            : 326 Мбайт (8%)
    Язык                                     : English
    Дата кодирования                         : UTC 2014-12-06 17:35:54
    Дата пометки                             : UTC 2014-12-06 17:36:34
    Текст #1
    Идентификатор                            : 6
    Формат                                   : Timed text
    Режим смешивания                         : sbtl
    Идентификатор кодека                     : tx3g
    Продолжительность                        : 1 ч. 41 м.
    Вид битрейта                             : Переменный
    Битрейт                                  : 125 бит/сек
    Задержка видео                           : -7 с. 0 мс.
    Размер потока                            : 92,6 Кбайт (0%)
    Язык                                     : Russian
    Дата кодирования                         : UTC 2014-12-06 17:35:54
    Дата пометки                             : UTC 2014-12-06 17:35:54
    Текст #2
    Идентификатор                            : 7
    Формат                                   : Timed text
    Режим смешивания                         : sbtl
    Идентификатор кодека                     : tx3g
    Продолжительность                        : 1 ч. 41 м.
    Вид битрейта                             : Переменный
    Битрейт                                  : 95 бит/сек
    Задержка видео                           : -7 с. 0 мс.
    Размер потока                            : 70,8 Кбайт (0%)
    Язык                                     : English
    Дата кодирования                         : UTC 2014-12-06 17:35:54
    Дата пометки                             : UTC 2014-12-06 17:35:54
    Текст #3
    Идентификатор                            : 8
    Формат                                   : Apple text
    Идентификатор кодека                     : text
    Продолжительность                        : 1 ч. 41 м.
    Вид битрейта                             : Переменный
    Битрейт                                  : 1 бит/сек
    Задержка видео                           : -7 с. 0 мс.
    Размер потока                            : 567 байт (0%)
    Язык                                     : English
    Дата кодирования                         : UTC 2014-12-06 17:36:43
    Дата пометки                             : UTC 2014-12-06 17:36:43
    Меню
    00:00:00.000                             : Chapter 1
    00:04:37.485                             : Chapter 2
    00:09:02.542                             : Chapter 3
    00:14:24.989                             : Chapter 4
    00:18:36.573                             : Chapter 5
    00:23:43.296                             : Chapter 6
    00:29:07.162                             : Chapter 7
    00:35:39.637                             : Chapter 8
    00:38:58.502                             : Chapter 9
    00:42:40.933                             : Chapter 10
    00:45:29.393                             : Chapter 11
    00:46:59.691                             : Chapter 12
    00:51:48.605                             : Chapter 13
    00:58:35.678                             : Chapter 14
    01:07:14.071                             : Chapter 15
    01:10:25.304                             : Chapter 16
    01:15:17.638                             : Chapter 17
    01:17:42.574                             : Chapter 18
    01:19:50.660                             : Chapter 19
    01:24:01.244                             : Chapter 20
    01:29:00.126                             : Chapter 21
    01:32:08.397                             : Chapter 22
    01:34:31.916                             : Chapter 23
    01:36:26.238                             : Chapter 24

    MediaInfo 1080p Release

    Общее
    Полное имя                               : Y:\ATV\Date Night\Date Night (1080p HD).m4v
    Формат                                   : MPEG-4
    Идентификатор кодека                     : M4V
    Размер файла                             : 10,4 Гбайт
    Продолжительность                        : 1 ч. 41 м.
    Режим общего битрейта                    : Переменный
    Общий поток                              : 14,7 Мбит/сек
    Название фильма                          : Date Night
    Исполнитель                              : Shawn Levy
    Жанр                                     : Comedy
    Дата записи                              : UTC 2010-04-06 08:00:00
    Дата кодирования                         : UTC 2014-12-06 13:40:21
    Дата пометки                             : UTC 2014-12-06 17:49:03
    Правообладатель                          : © 2009 Twentieth Century Fox Film Corporation
    Обложка                                  : Yes
    sonm                                     : Date Night
    desc                                     : Скучную жизнь супругов Фостер должен разнообразить ужин в модном нью-йоркском ресторане. Так и получилось, ведь стоило им представиться чужими именами, чтобы получить столик без очереди и безумные приключения тут же начались...
    ldes                                     : Скучную жизнь супругов Фостер должен разнообразить ужин в модном нью-йоркском ресторане. Так и получилось, ведь стоило им представиться чужими именами, чтобы получить столик без очереди и безумные приключения тут же начались. Приняв их за других, в бешеную гонку по городу за семейной четой пустились коррумпированные копы и городские гангстеры.
    hdvd                                     : 2
    stik                                     : 9
    rtng                                     : 0
    cnID                                     : 370805508
    xid                                      : Apple:vendor_id:2010-445175
    iTunEXTC                                 : mpaa|PG-13|300|
    iTunMOVI                                 : <?xml version="1.0" encoding="UTF-8"?> / <!DOCTYPE plist PUBLIC "-//Apple//DTD PLIST 1.0//EN" "http://anonym.to/?http://www.apple.com/DTDs/PropertyList-1.0.dtd"> / <plist version="1.0"> / <dict> /  <key>cast</key> /  <array> /   <dict> /    <key>name</key> /    <string>Стив Карелл</string> /   </dict> /   <dict> /    <key>name</key> /    <string>Тина Фей</string> /   </dict> /   <dict> /    <key>name</key> /    <string>Тараджи П. Хенсон</string> /   </dict> /   <dict> /    <key>name</key> /    <string>Марк Уолберг</string> /   </dict> /   <dict> /    <key>name</key> /    <string>Джимми Симпсон</string> /   </dict> /   <dict> /    <key>name</key> /    <string>Коммон</string> /   </dict> /   <dict> /    <key>name</key> /    <string>Уильям Фихтнер</string> /   </dict> /   <dict> /    <key>name</key> /    <string>Джеймс Франко</string> /   </dict> /   <dict> /    <key>name</key> /    <string>Мила Кунис</string> /   </dict> /   <dict> /    <key>name</key> /    <string>Лейтон Мистер</string> /   </dict> /  </array> /  <key>directors</key> /  <array> /   <dict> /    <key>name</key> /    <string>Шон Леви</string> /   </dict> /  </array> /  <key>producers</key> /  <array> /   <dict> /    <key>name</key> /    <string>Шон Леви</string> /   </dict> /   <dict> /    <key>name</key> /    <string>Джозеф М. Карачиоло мл.</string> /   </dict> /   <dict> /    <key>name</key> /    <string>Джош МакЛаглен</string> /   </dict> /  </array> /  <key>screenwriters</key> /  <array> /   <dict> /    <key>name</key> /    <string>Джош Клауснер</string> /   </dict> /  </array> /  <key>studio</key> /  <string>20th Century Fox</string> / </dict> / </plist>
    Видео #1
    Идентификатор                            : 1
    Формат                                   : AVC
    Формат/Информация                        : Advanced Video Codec
    Профиль формата                          : High@L4.0
    Параметр CABAC формата                   : Да
    Параметр ReFrames формата                : 4 кадра
    Идентификатор кодека                     : avc1
    Идентификатор кодека/Информация          : Advanced Video Coding
    Продолжительность                        : 1 ч. 41 м.
    Вид битрейта                             : Переменный
    Битрейт                                  : 13,5 Мбит/сек
    Ширина                                   : 1920 пикселей
    Высота                                   : 816 пикселей
    Соотношение сторон                       : 2,35:1
    Режим частоты кадров                     : Переменный
    Частота кадров                           : 23,976 кадра/сек
    Минимальная частота кадров               : 23,810 кадра/сек
    Максимальная частота кадров              : 24,390 кадра/сек
    Цветовое пространство                    : YUV
    Субдискретизация насыщенности            : 4:2:0
    Битовая глубина                          : 8 бит
    Тип развёртки                            : Прогрессивная
    Бит/(Пиксели*Кадры)                      : 0.359
    Размер потока                            : 9,57 Гбайт (92%)
    Библиотека кодирования                   : x264 core 142 r2479 dd79a61
    Настройки программы                      : cabac=1 / ref=4 / deblock=1:-3:-3 / analyse=0x3:0x113 / me=umh / subme=9 / psy=1 / psy_rd=1.00:0.00 / mixed_ref=1 / me_range=32 / chroma_me=1 / trellis=2 / 8x8dct=1 / cqm=0 / deadzone=21,11 / fast_pskip=1 / chroma_qp_offset=-2 / threads=18 / lookahead_threads=1 / sliced_threads=0 / nr=0 / decimate=1 / interlaced=0 / bluray_compat=0 / constrained_intra=0 / bframes=8 / b_pyramid=2 / b_adapt=1 / b_bias=0 / direct=1 / weightb=1 / open_gop=0 / weightp=2 / keyint=240 / keyint_min=24 / scenecut=40 / intra_refresh=0 / rc_lookahead=40 / rc=2pass / mbtree=1 / bitrate=13500 / ratetol=1.0 / qcomp=0.60 / qpmin=0 / qpmax=69 / qpstep=4 / cplxblur=20.0 / qblur=0.5 / vbv_maxrate=25000 / vbv_bufsize=25000 / nal_hrd=none / filler=0 / ip_ratio=1.40 / aq=1:0.80
    Язык                                     : English
    Дата кодирования                         : UTC 2014-12-06 13:40:21
    Дата пометки                             : UTC 2014-12-06 13:48:25
    Основные цвета                           : BT.709-5, BT.1361, IEC 61966-2-4, SMPTE RP177
    Характеристики трансфера                 : BT.709-5, BT.1361
    Коэффициенты матрицы                     : BT.709-5, BT.1361, IEC 61966-2-4 709, SMPTE RP177
    Видео #2
    Идентификатор                            : 9
    Формат                                   : JPEG
    Идентификатор кодека                     : jpeg
    Продолжительность                        : 1 ч. 41 м.
    Вид битрейта                             : Переменный
    Битрейт                                  : 1022 бит/сек
    Ширина                                   : 640 пикселей
    Высота                                   : 272 пикселя
    Соотношение сторон                       : 2,35:1
    Режим частоты кадров                     : Переменный
    Частота кадров                           : 0,004 кадр/сек
    Минимальная частота кадров               : 0,002 кадр/сек
    Максимальная частота кадров              : 5,988 кадров/сек
    Цветовое пространство                    : YUV
    Субдискретизация насыщенности            : 4:2:0
    Битовая глубина                          : 8 бит
    Метод сжатия                             : С потерями
    Бит/(Пиксели*Кадры)                      : 1.468
    Размер потока                            : 780 Кбайт (0%)
    Язык                                     : English
    Дата кодирования                         : UTC 2014-12-06 17:48:42
    Дата пометки                             : UTC 2014-12-06 17:48:43
    Аудио #1
    Идентификатор                            : 2
    Формат                                   : AAC
    Формат/Информация                        : Advanced Audio Codec
    Профиль формата                          : LC
    Идентификатор кодека                     : 40
    Продолжительность                        : 1 ч. 41 м.
    Вид битрейта                             : Переменный
    Битрейт                                  : 165 Кбит/сек
    Максимальный битрейт                     : 262 Кбит/сек
    Каналы                                   : 2 канала
    Расположение каналов                     : Front: L R
    Частота                                  : 48,0 КГц
    Метод сжатия                             : С потерями
    Задержка видео                           : -14 с.
    Размер потока                            : 120 Мбайт (1%)
    Язык                                     : Russian
    Дата кодирования                         : UTC 2014-12-06 17:47:53
    Дата пометки                             : UTC 2014-12-06 17:48:19
    Аудио #2
    Идентификатор                            : 3
    Формат                                   : AAC
    Формат/Информация                        : Advanced Audio Codec
    Профиль формата                          : LC
    Идентификатор кодека                     : 40
    Продолжительность                        : 1 ч. 41 м.
    Вид битрейта                             : Переменный
    Битрейт                                  : 165 Кбит/сек
    Максимальный битрейт                     : 264 Кбит/сек
    Каналы                                   : 2 канала
    Расположение каналов                     : Front: L R
    Частота                                  : 48,0 КГц
    Метод сжатия                             : С потерями
    Задержка видео                           : -14 с.
    Размер потока                            : 120 Мбайт (1%)
    Язык                                     : English
    Дата кодирования                         : UTC 2014-12-06 17:47:53
    Дата пометки                             : UTC 2014-12-06 17:48:19
    Аудио #3
    Идентификатор                            : 4
    Формат                                   : AC-3
    Формат/Информация                        : Audio Coding 3
    Расширение режима                        : CM (complete main)
    Параметр Endianness формата              : Big
    Идентификатор кодека                     : ac-3
    Продолжительность                        : 1 ч. 41 м.
    Вид битрейта                             : Постоянный
    Битрейт                                  : 448 Кбит/сек
    Каналы                                   : 6 каналов
    Расположение каналов                     : Front: L C R, Side: L R, LFE
    Частота                                  : 48,0 КГц
    Битовая глубина                          : 16 бит
    Метод сжатия                             : С потерями
    Задержка видео                           : -14 с.
    Размер потока                            : 326 Мбайт (3%)
    Язык                                     : Russian
    Дата кодирования                         : UTC 2014-12-06 17:47:53
    Дата пометки                             : UTC 2014-12-06 17:48:13
    Аудио #4
    Идентификатор                            : 5
    Формат                                   : AC-3
    Формат/Информация                        : Audio Coding 3
    Расширение режима                        : CM (complete main)
    Параметр Endianness формата              : Big
    Идентификатор кодека                     : ac-3
    Продолжительность                        : 1 ч. 41 м.
    Вид битрейта                             : Постоянный
    Битрейт                                  : 448 Кбит/сек
    Каналы                                   : 6 каналов
    Расположение каналов                     : Front: L C R, Side: L R, LFE
    Частота                                  : 48,0 КГц
    Битовая глубина                          : 16 бит
    Метод сжатия                             : С потерями
    Задержка видео                           : -14 с.
    Размер потока                            : 326 Мбайт (3%)
    Язык                                     : English
    Дата кодирования                         : UTC 2014-12-06 17:47:53
    Дата пометки                             : UTC 2014-12-06 17:48:13
    Текст #1
    Идентификатор                            : 6
    Формат                                   : Timed text
    Режим смешивания                         : sbtl
    Идентификатор кодека                     : tx3g
    Продолжительность                        : 1 ч. 41 м.
    Вид битрейта                             : Переменный
    Битрейт                                  : 125 бит/сек
    Задержка видео                           : -14 с.
    Размер потока                            : 92,6 Кбайт (0%)
    Язык                                     : Russian
    Дата кодирования                         : UTC 2014-12-06 17:47:53
    Дата пометки                             : UTC 2014-12-06 17:47:53
    Текст #2
    Идентификатор                            : 7
    Формат                                   : Timed text
    Режим смешивания                         : sbtl
    Идентификатор кодека                     : tx3g
    Продолжительность                        : 1 ч. 41 м.
    Вид битрейта                             : Переменный
    Битрейт                                  : 95 бит/сек
    Задержка видео                           : -14 с.
    Размер потока                            : 70,8 Кбайт (0%)
    Язык                                     : English
    Дата кодирования                         : UTC 2014-12-06 17:47:53
    Дата пометки                             : UTC 2014-12-06 17:47:53
    Текст #3
    Идентификатор                            : 8
    Формат                                   : Apple text
    Идентификатор кодека                     : text
    Продолжительность                        : 1 ч. 41 м.
    Вид битрейта                             : Переменный
    Битрейт                                  : 1 бит/сек
    Задержка видео                           : -14 с.
    Размер потока                            : 591 байт (0%)
    Язык                                     : English
    Дата кодирования                         : UTC 2014-12-06 17:48:19
    Дата пометки                             : UTC 2014-12-06 17:48:19
    Меню
    00:00:00.000                             : Chapter 1
    00:04:37.485                             : Chapter 2
    00:09:02.542                             : Chapter 3
    00:14:24.989                             : Chapter 4
    00:18:36.573                             : Chapter 5
    00:23:43.296                             : Chapter 6
    00:29:07.162                             : Chapter 7
    00:35:39.637                             : Chapter 8
    00:38:58.502                             : Chapter 9
    00:42:40.933                             : Chapter 10
    00:45:29.393                             : Chapter 11
    00:46:59.691                             : Chapter 12
    00:51:48.605                             : Chapter 13
    00:58:35.678                             : Chapter 14
    01:07:14.071                             : Chapter 15
    01:10:25.304                             : Chapter 16
    01:15:17.638                             : Chapter 17
    01:17:42.574                             : Chapter 18
    01:19:50.660                             : Chapter 19
    01:24:01.244                             : Chapter 20
    01:29:00.126                             : Chapter 21
    01:32:08.397                             : Chapter 22
    01:34:31.916                             : Chapter 23
    01:36:26.238                             : Chapter 24
    01:41:35.881                             : Chapter 25

    x264 лог 720p Release

    x264 [info]: frame I:2320  Avg QP:16.12  size: 87826
    x264 [info]: frame P:89660 Avg QP:18.82  size: 26818
    x264 [info]: frame B:54179 Avg QP:20.47  size:  9286
    x264 [info]: consecutive B-frames: 37.4% 38.5%  7.3% 10.8%  5.6%  0.3%  0.0%  0.0%  0.1%
    x264 [info]: mb I  I16..4: 10.9% 58.9% 30.2%
    x264 [info]: mb P  I16..4:  1.0%  3.7%  1.5%  P16..4: 43.0% 23.2% 11.4%  0.0%  0.0%    skip:16.2%
    x264 [info]: mb B  I16..4:  0.0%  0.3%  0.1%  B16..8: 48.3%  9.2%  1.7%  direct: 4.2%  skip:36.1%  L0:42.4% L1:50.1% BI: 7.5%
    x264 [info]: 8x8 transform intra:59.9% inter:45.5%
    x264 [info]: coded y,uvDC,uvAC intra: 82.0% 84.0% 69.4% inter: 24.7% 25.2% 7.3%
    x264 [info]: i16 v,h,dc,p: 44% 19%  8% 29%
    x264 [info]: i8 v,h,dc,ddl,ddr,vr,hd,vl,hu:  8%  8%  5% 12% 16% 15% 14% 11% 10%
    x264 [info]: i4 v,h,dc,ddl,ddr,vr,hd,vl,hu:  8%  9%  4% 13% 17% 15% 14% 11%  9%
    x264 [info]: i8c dc,h,v,p: 53% 16% 18% 13%
    x264 [info]: ref P L0: 64.1% 20.6% 15.3%
    x264 [info]: ref B L0: 73.7% 26.3%
    x264 [info]: kb/s:4083.06

    x264 лог 1080p Release

    x264 [info]: frame I:2327  Avg QP:15.99  size:174029
    x264 [info]: frame P:115777 Avg QP:18.46  size: 75615
    x264 [info]: frame B:28055 Avg QP:20.06  size: 39789
    x264 [info]: consecutive B-frames: 64.9% 27.6%  3.1%  3.7%  0.5%  0.0%  0.0%  0.0%  0.1%
    x264 [info]: mb I  I16..4:  9.3% 82.5%  8.1%
    x264 [info]: mb P  I16..4:  1.0% 10.9%  0.4%  P16..4: 41.7% 22.6% 12.8%  0.0%  0.0%    skip:10.5%
    x264 [info]: mb B  I16..4:  0.0%  1.6%  0.0%  B16..8: 44.1%  9.6%  2.8%  direct:10.2%  skip:31.6%  L0:42.3% L1:42.5% BI:15.1%
    x264 [info]: 8x8 transform intra:87.7% inter:54.5%
    x264 [info]: coded y,uvDC,uvAC intra: 89.2% 90.9% 78.2% inter: 45.6% 50.5% 18.0%
    x264 [info]: i16 v,h,dc,p: 35% 17% 19% 29%
    x264 [info]: i8 v,h,dc,ddl,ddr,vr,hd,vl,hu:  9%  8% 11% 11% 14% 13% 12% 12% 12%
    x264 [info]: i4 v,h,dc,ddl,ddr,vr,hd,vl,hu:  9%  9%  5% 10% 15% 13% 14% 11% 14%
    x264 [info]: i8c dc,h,v,p: 56% 15% 14% 15%
    x264 [info]: Weighted P-Frames: Y:1.9% UV:0.7%
    x264 [info]: ref P L0: 49.6%  8.2% 22.6% 11.7%  7.8%  0.1%
    x264 [info]: ref B L0: 72.8% 25.6%  1.6%
    x264 [info]: ref B L1: 97.0%  3.0%
    x264 [info]: kb/s:13485.09

    Скриншоты 720p Release


    Скриншоты 1080p Release


    -

    Релиз подготовлен для просмотра на Apple TV, iPad, iPhone, iPod Touch.
    Для просмотра данного релиза на компьютере с ОС Windows рекомендуется использовать VLC media player
    --
    Скачать .torrent

    Скачать торрент-файл бесплатно и на максимальной скорости!

    Как скачивать? · Что такое торрент? · Рейтинг и ограничения

    !ВНИМАНИЕ!
    Сайт не распространяет и не хранит электронные версии произведений, а занимается лишь лишь предоставлением доступа к создаваемому пользователями каталогу ссылок на торрент-файлы, которые содержат только списки хеш-сумм, убедительная просьба с жалобами обращаться напрямую к пользователю. Файлы для обмена на трекере предоставлены пользователями сайта, и администрация не несёт ответственности за их содержание. Просьба не заливать файлы, защищенные авторскими правами, а также файлы нелегального содержания!


    _________________
    [Профиль] [ЛС]
    Показать сообщения:    
    Ответить на тему

    Текущее время: Сегодня, в 06:20

    Часовой пояс: GMT + 2



    Вы не можете начинать темы
    Вы не можете отвечать на сообщения
    Вы не можете редактировать свои сообщения
    Вы не можете удалять свои сообщения
    Вы не можете голосовать в опросах
    Вы не можете прикреплять файлы к сообщениям
    Вы не можете скачивать файлы