BitTorrentTracker PerecTracker.org
BitTorrentTracker PerecTracker.org
    
Регистрация  ·  Вход
 
 · 
Забыли пароль?

  • [ATV3] Криминальная фишка от Генри / Henry\'s Crime (Малькольм Венвилль / Malcolm Venville ) [2011, США, Мелодрама, комедия, криминал, BDRip, HD (1080p)] DUB + Original + sub (rus, eng)

    Ответить на тему
     
    Автор Сообщение

    Flirldrerve

    Создавать темы 27-Окт-2015 05:19

           

    [Цитировать]

    Криминальная фишка от Генри / Henry's Crime
    «Ну как не совершить преступление, за которое уже отсидел?»
    6.260 / 10 6.00 / 10
    -Год выпуска: 2011
    Страна: США
    Жанр: Мелодрама, комедия, криминал
    Продолжительность: 01:47:38
    Перевод: Профессиональный (дублированный) (Лицензия)
    Оригинальная аудиодорожка: Есть
    Cубтитры: Русские, Английские
    Режиссёр: Малькольм Венвилль
    Сценарий: Саша Джерваси, Дэвид Н. Уайт, Стивен Хэймел
    Продюсер: Питер М. Грэхэм II, Стивен Хэймел, Дэвид Мимран
    Оператор: Пол Кэмерон
    Художник: Крис Джонс, Мелисса Тот, Лаура Химэн
    Монтаж: Кертис Клэйтон
    В ролях: Киану Ривз, Джеймс Каан, Вера Фармига, Петер Стормаре, Джуди Грир, Дэнни Хоч, Фишер Стивенс, Карри Грэм, Дэвид Костабайл, Билл Дьюк
    Бюджет: $12 000 000
    Сборы в США: $102 541
    Сборы в мире: + $102 399 = $204 940
    Сборы в России: $1 587 260
    Мировая премьера: 14 сентября 2010
    Премьера (РФ): 7 апреля 2011, «Парадиз»
    Релиз на DVD: 16 июня 2011, «Парадиз Медиа»
    Релиз на Blu-Ray: 30 июня 2011, «Парадиз Медиа»
    Описание: Встречайте Генри — самого унылого парня в Америке. Он сидит в своей будке у дороги, взимая пошлину с проезжающих. Казалось, в его жизни ничто не может измениться. Но однажды сомнительный приятель попросил Генри подождать его у крыльца главного банка в Буффало… В результате — три года тюрьмы по ложному обвинению в ограблении. Но пройдет время, и Генри вернется к тому самому банку, чтобы взять свое…-Качество исходника: Кинозал, Криминальная фишка от Генри / Henry's Crime / 2011 / ДБ, СТ / Blu-Ray Remux (1080p)
    Качество: BDRip
    Тип: HD (1080p)
    Контейнер: M4V
    Видео: H.264, 1920x800, 2.40:1, 8 000 Kbps, 23.976 fps
    Аудио 1: Русский/Профессиональный (дублированный) (Лицензия), AAC / 2.0 / 156 Kbps / 48.0 KHz
    Аудио 2: Английский/Оригинальная дорожка , AAC / 2.0 / 155 Kbps / 48.0 KHz
    Аудио 3: Русский/Профессиональный (дублированный) (Лицензия), AC-3 / 5.1 / 640 Kbps / 48.0 KHz
    Аудио 4: Английский/Оригинальная дорожка , AC-3 / 5.1 / 640 Kbps / 48.0 KHz
    Субтитры 1: Русские полные
    Субтитры 2: Английские полные
    -

    iTunes Meta Tags

    Sort Name: Henry's Crime
    XID: Apple:vendor_id:2011-463782
    contentID: 446048189
    Copyright: © 2010 Henry's Crime, LLC. All rights reserved.
    Screenwriters: Саша Джерваси, Дэвид Н. Уайт, Стивен Хэймел
    Producers: Питер М. Грэхэм II, Стивен Хэймел, Дэвид Мимран
    Director: Малькольм Венвилль
    Cast: Киану Ривз, Джеймс Каан, Вера Фармига, Петер Стормаре, Джуди Грир, Дэнни Хоч, Фишер Стивенс, Карри Грэм, Дэвид Костабайл, Билл Дьюк, Всеволод Кузнецов, Игорь Старосельцев, Елена Ивасишина, Александр Новиков, Валентина Абрамова
    Studio: 20th Century Fox
    Rating: 10
    Long Description: Встречайте Генри - самого унылого парня в Америке. Он сидит в своей будке у дороги, взимая пошлину с проезжающих. Казалось, в его жизни ничто не может измениться. Но однажды сомнительный приятель попросил Генри подождать его у крыльца главного банка в Буффало... В результате - три года тюрьмы по ложному обвинению в ограблении. Но пройдет время, и Генри вернется к тому самому банку, чтобы взять свое...
    Description: Встречайте Генри - самого унылого парня в Америке. Он сидит в своей будке у дороги, взимая пошлину с проезжающих. Казалось, в его жизни ничто не может измениться.
    Release Date: 2011-04-07T08:00:00Z
    Genre: Comedy
    Artist: Malcolm Venville
    Name: Henry's Crime

    MediaInfo

    General
    Complete name                            : /Users/imac/HandBrake/Henry's Crime (1080p HD).m4v
    Format                                   : MPEG-4
    Codec ID                                 : M4V
    File size                                : 7.23 GiB
    Duration                                 : 1h 47mn
    Overall bit rate mode                    : Variable
    Overall bit rate                         : 9 597 Kbps
    Movie name                               : Henry's Crime
    Performer                                : Malcolm Venville
    Genre                                    : Comedy
    Recorded date                            : UTC 2011-04-07 08:00:00
    Encoded date                             : UTC 2014-12-13 07:49:54
    Tagged date                              : UTC 2014-12-13 07:54:51
    Copyright                                : © 2010 Henry\'s Crime, LLC. All rights reserved.
    Cover                                    : Yes
    sonm                                     : Henry's Crime
    desc                                     : Встречайте Генри - самого унылого парня в Америке. Он сидит в своей будке у дороги, взимая пошлину с проезжающих. Казалось, в его жизни ничто не может измениться.
    ldes                                     : Встречайте Генри - самого унылого парня в Америке. Он сидит в своей будке у дороги, взимая пошлину с проезжающих. Казалось, в его жизни ничто не может измениться. Но однажды сомнительный приятель попросил Генри подождать его у крыльца главного банка в Буффало... В результате - три года тюрьмы по ложному обвинению в ограблении. Но пройдет время, и Генри вернется к тому самому банку, чтобы взять свое...
    hdvd                                     : 2
    stik                                     : 9
    rtng                                     : 0
    cnID                                     : 446048189
    xid                                      : Apple:vendor_id:2011-463782
    iTunEXTC                                 : mpaa|PG-13|300|
    iTunMOVI                                 : <?xml version=\"1.0\" encoding=\"UTF-8\"?> / <!DOCTYPE plist PUBLIC \"-//Apple//DTD PLIST 1.0//EN\" \"http://anonym.to/?http://www.apple.com/DTDs/PropertyList-1.0.dtd\"> / <plist version=\"1.0\"> / <dict> /  <key>cast</key> /  <array> /   <dict> /    <key>name</key> /    <string>Киану Ривз</string> /   </dict> /   <dict> /    <key>name</key> /    <string>Джеймс Каан</string> /   </dict> /   <dict> /    <key>name</key> /    <string>Вера Фармига</string> /   </dict> /   <dict> /    <key>name</key> /    <string>Петер Стормаре</string> /   </dict> /   <dict> /    <key>name</key> /    <string>Джуди Грир</string> /   </dict> /   <dict> /    <key>name</key> /    <string>Дэнни Хоч</string> /   </dict> /   <dict> /    <key>name</key> /    <string>Фишер Стивенс</string> /   </dict> /   <dict> /    <key>name</key> /    <string>Карри Грэм</string> /   </dict> /   <dict> /    <key>name</key> /    <string>Дэвид Костабайл</string> /   </dict> /   <dict> /    <key>name</key> /    <string>Билл Дьюк</string> /   </dict> /   <dict> /    <key>name</key> /    <string>Всеволод Кузнецов</string> /   </dict> /   <dict> /    <key>name</key> /    <string>Игорь Старосельцев</string> /   </dict> /   <dict> /    <key>name</key> /    <string>Елена Ивасишина</string> /   </dict> /   <dict> /    <key>name</key> /    <string>Александр Новиков</string> /   </dict> /   <dict> /    <key>name</key> /    <string>Валентина Абрамова</string> /   </dict> /  </array> /  <key>directors</key> /  <array> /   <dict> /    <key>name</key> /    <string>Малькольм Венвилль</string> /   </dict> /  </array> /  <key>producers</key> /  <array> /   <dict> /    <key>name</key> /    <string>Питер М. Грэхэм II</string> /   </dict> /   <dict> /    <key>name</key> /    <string>Стивен Хэймел</string> /   </dict> /   <dict> /    <key>name</key> /    <string>Дэвид Мимран</string> /   </dict> /  </array> /  <key>screenwriters</key> /  <array> /   <dict> /    <key>name</key> /    <string>Саша Джерваси</string> /   </dict> /   <dict> /    <key>name</key> /    <string>Дэвид Н. Уайт</string> /   </dict> /   <dict> /    <key>name</key> /    <string>Стивен Хэймел</string> /   </dict> /  </array> /  <key>studio</key> /  <string>20th Century Fox</string> / </dict> / </plist>
    Video #1
    ID                                       : 2
    Format                                   : AVC
    Format/Info                              : Advanced Video Codec
    Format profile                           : High@L4.0
    Format settings, CABAC                   : Yes
    Format settings, ReFrames                : 4 frames
    Codec ID                                 : avc1
    Codec ID/Info                            : Advanced Video Coding
    Duration                                 : 1h 47mn
    Bit rate mode                            : Variable
    Bit rate                                 : 8 000 Kbps
    Width                                    : 1 920 pixels
    Height                                   : 800 pixels
    Display aspect ratio                     : 2.40:1
    Frame rate mode                          : Variable
    Frame rate                               : 23.976 fps
    Minimum frame rate                       : 23.810 fps
    Maximum frame rate                       : 24.246 fps
    Color space                              : YUV
    Chroma subsampling                       : 4:2:0
    Bit depth                                : 8 bits
    Scan type                                : Progressive
    Bits/(Pixel*Frame)                       : 0.217
    Stream size                              : 6.02 GiB (83%)
    Writing library                          : x264 core 142 r2479 dd79a61
    Encoding settings                        : cabac=1 / ref=4 / deblock=1:0:0 / analyse=0x3:0x133 / me=umh / subme=10 / psy=1 / psy_rd=1.00:0.00 / mixed_ref=1 / me_range=32 / chroma_me=1 / trellis=2 / 8x8dct=1 / cqm=0 / deadzone=21,11 / fast_pskip=1 / chroma_qp_offset=-2 / threads=12 / lookahead_threads=1 / sliced_threads=0 / nr=0 / decimate=1 / interlaced=0 / bluray_compat=0 / constrained_intra=0 / bframes=4 / b_pyramid=2 / b_adapt=2 / b_bias=0 / direct=3 / weightb=1 / open_gop=0 / weightp=2 / keyint=240 / keyint_min=24 / scenecut=40 / intra_refresh=0 / rc_lookahead=40 / rc=2pass / mbtree=0 / bitrate=8000 / ratetol=1.0 / qcomp=0.60 / qpmin=0 / qpmax=69 / qpstep=4 / cplxblur=20.0 / qblur=0.5 / vbv_maxrate=25000 / vbv_bufsize=25000 / nal_hrd=none / filler=0 / ip_ratio=1.40 / pb_ratio=1.30 / aq=1:1.00
    Language                                 : English
    Encoded date                             : UTC 2014-12-13 07:49:54
    Tagged date                              : UTC 2014-12-13 07:52:40
    Color primaries                          : BT.709-5, BT.1361, IEC 61966-2-4, SMPTE RP177
    Transfer characteristics                 : BT.709-5, BT.1361
    Matrix coefficients                      : BT.709-5, BT.1361, IEC 61966-2-4 709, SMPTE RP177
    Video #2
    ID                                       : 9
    Format                                   : JPEG
    Codec ID                                 : jpeg
    Duration                                 : 1h 47mn
    Bit rate mode                            : Variable
    Bit rate                                 : 497 bps
    Width                                    : 640 pixels
    Height                                   : 266 pixels
    Display aspect ratio                     : 2.40:1
    Frame rate mode                          : Variable
    Frame rate                               : 0.002 fps
    Minimum frame rate                       : 0.001 fps
    Maximum frame rate                       : 2.994 fps
    Color space                              : YUV
    Chroma subsampling                       : 4:2:0
    Bit depth                                : 8 bits
    Compression mode                         : Lossy
    Bits/(Pixel*Frame)                       : 1.460
    Stream size                              : 394 KiB (0%)
    Language                                 : English
    Encoded date                             : UTC 2014-12-13 07:52:45
    Tagged date                              : UTC 2014-12-13 07:52:46
    Audio #1
    ID                                       : 1
    Format                                   : AAC
    Format/Info                              : Advanced Audio Codec
    Format profile                           : LC
    Codec ID                                 : 40
    Duration                                 : 1h 47mn
    Bit rate mode                            : Variable
    Bit rate                                 : 156 Kbps
    Maximum bit rate                         : 236 Kbps
    Channel(s)                               : 2 channels
    Channel positions                        : Front: L R
    Sampling rate                            : 48.0 KHz
    Compression mode                         : Lossy
    Stream size                              : 121 MiB (2%)
    Language                                 : Russian
    Encoded date                             : UTC 2014-12-13 07:49:54
    Tagged date                              : UTC 2014-12-13 07:51:59
    Audio #2
    ID                                       : 3
    Format                                   : AAC
    Format/Info                              : Advanced Audio Codec
    Format profile                           : LC
    Codec ID                                 : 40
    Duration                                 : 1h 47mn
    Bit rate mode                            : Variable
    Bit rate                                 : 155 Kbps
    Maximum bit rate                         : 247 Kbps
    Channel(s)                               : 2 channels
    Channel positions                        : Front: L R
    Sampling rate                            : 48.0 KHz
    Compression mode                         : Lossy
    Stream size                              : 120 MiB (2%)
    Language                                 : English
    Encoded date                             : UTC 2014-12-13 07:49:54
    Tagged date                              : UTC 2014-12-13 07:51:44
    Audio #3
    ID                                       : 4
    Format                                   : AC-3
    Format/Info                              : Audio Coding 3
    Mode extension                           : CM (complete main)
    Format settings, Endianness              : Big
    Codec ID                                 : ac-3
    Duration                                 : 1h 47mn
    Bit rate mode                            : Constant
    Bit rate                                 : 640 Kbps
    Channel(s)                               : 6 channels
    Channel positions                        : Front: L C R, Side: L R, LFE
    Sampling rate                            : 48.0 KHz
    Bit depth                                : 16 bits
    Compression mode                         : Lossy
    Stream size                              : 493 MiB (7%)
    Language                                 : Russian
    Encoded date                             : UTC 2014-12-13 07:49:54
    Tagged date                              : UTC 2014-12-13 07:51:14
    Audio #4
    ID                                       : 5
    Format                                   : AC-3
    Format/Info                              : Audio Coding 3
    Mode extension                           : CM (complete main)
    Format settings, Endianness              : Big
    Codec ID                                 : ac-3
    Duration                                 : 1h 47mn
    Bit rate mode                            : Constant
    Bit rate                                 : 640 Kbps
    Channel(s)                               : 6 channels
    Channel positions                        : Front: L C R, Side: L R, LFE
    Sampling rate                            : 48.0 KHz
    Bit depth                                : 16 bits
    Compression mode                         : Lossy
    Stream size                              : 493 MiB (7%)
    Language                                 : English
    Encoded date                             : UTC 2014-12-13 07:49:54
    Tagged date                              : UTC 2014-12-13 07:51:18
    Text #1
    ID                                       : 6
    Format                                   : Timed text
    Muxing mode                              : sbtl
    Codec ID                                 : tx3g
    Duration                                 : 1h 43mn
    Bit rate mode                            : Variable
    Bit rate                                 : 94 bps
    Stream size                              : 70.9 KiB (0%)
    Language                                 : Russian
    Encoded date                             : UTC 2014-12-13 07:49:54
    Tagged date                              : UTC 2014-12-13 07:50:42
    Text #2
    ID                                       : 7
    Format                                   : Timed text
    Muxing mode                              : sbtl
    Codec ID                                 : tx3g
    Duration                                 : 1h 47mn
    Bit rate mode                            : Variable
    Bit rate                                 : 65 bps
    Stream size                              : 51.5 KiB (0%)
    Language                                 : English
    Encoded date                             : UTC 2014-12-13 07:49:54
    Tagged date                              : UTC 2014-12-13 07:50:44
    Text #3
    ID                                       : 8
    Format                                   : Apple text
    Codec ID                                 : text
    Duration                                 : 1h 47mn
    Bit rate mode                            : Constant
    Bit rate                                 : 0 bps
    Stream size                              : 338 Bytes (0%)
    Language                                 : English
    Encoded date                             : UTC 2014-12-13 07:52:40
    Tagged date                              : UTC 2014-12-13 07:52:40
    Menu
    00:00:00.000                             : 00:00:00.000
    00:08:42.689                             : 00:08:42.605
    00:17:31.884                             : 00:17:31.799
    00:27:35.571                             : 00:27:35.487
    00:36:47.747                             : 00:36:47.663
    00:48:54.306                             : 00:48:54.222
    00:56:28.760                             : 00:56:28.675
    01:04:22.484                             : 01:04:22.400
    01:15:35.030                             : 01:15:34.947
    01:22:45.627                             : 01:22:45.542
    01:33:20.929                             : 01:33:20.802
    01:43:29.370                             : 01:43:29.243
    01:47:45.584                             : 01:47:45.500

    x264 лог

    x264 [info]: frame I:1388  Avg QP:15.04  size:201097
    x264 [info]: frame P:39521 Avg QP:16.83  size: 63462
    x264 [info]: frame B:114118 Avg QP:18.63  size: 32221
    x264 [info]: consecutive B-frames:  3.7%  2.4%  9.2% 30.0% 54.7%
    x264 [info]: mb I  I16..4:  4.7% 85.8%  9.5%
    x264 [info]: mb P  I16..4:  1.5% 11.6%  0.8%  P16..4: 38.1% 23.3% 12.2%  0.2%  0.0%    skip:12.4%
    x264 [info]: mb B  I16..4:  0.3%  1.0%  0.1%  B16..8: 49.2% 12.0%  2.7%  direct: 9.0%  skip:25.8%  L0:45.1% L1:48.4% BI: 6.5%
    x264 [info]: 8x8 transform intra:82.3% inter:64.7%
    x264 [info]: direct mvs  spatial:98.6% temporal:1.4%
    x264 [info]: coded y,uvDC,uvAC intra: 84.6% 88.6% 71.7% inter: 38.7% 35.4% 8.4%
    x264 [info]: i16 v,h,dc,p: 58% 14% 14% 14%
    x264 [info]: i8 v,h,dc,ddl,ddr,vr,hd,vl,hu: 11%  7% 12% 10% 13% 13% 11% 12% 11%
    x264 [info]: i4 v,h,dc,ddl,ddr,vr,hd,vl,hu: 13%  7%  7%  9% 14% 15% 12% 12% 11%
    x264 [info]: i8c dc,h,v,p: 54% 16% 17% 13%
    x264 [info]: Weighted P-Frames: Y:1.1% UV:0.5%
    x264 [info]: ref P L0: 48.5%  8.4% 28.3% 13.4%  1.4%  0.0%
    x264 [info]: ref B L0: 79.2% 15.7%  5.1%
    x264 [info]: ref B L1: 87.4% 12.6%
    x264 [info]: kb/s:7997.93

    Скриншоты

    -

    Релиз подготовлен для просмотра на Apple TV, iPad, iPhone, iPod Touch.
    Для просмотра данного релиза на компьютере с ОС Windows рекомендуется использовать VLC media player
    Скачать .torrent

    Скачать торрент-файл бесплатно и на максимальной скорости!

    Как скачивать? · Что такое торрент? · Рейтинг и ограничения

    !ВНИМАНИЕ!
    Сайт не распространяет и не хранит электронные версии произведений, а занимается лишь лишь предоставлением доступа к создаваемому пользователями каталогу ссылок на торрент-файлы, которые содержат только списки хеш-сумм, убедительная просьба с жалобами обращаться напрямую к пользователю. Файлы для обмена на трекере предоставлены пользователями сайта, и администрация не несёт ответственности за их содержание. Просьба не заливать файлы, защищенные авторскими правами, а также файлы нелегального содержания!


    _________________
    [Профиль] [ЛС]
    Показать сообщения:    
    Ответить на тему

    Текущее время: Сегодня, в 17:21

    Часовой пояс: GMT + 2



    Вы не можете начинать темы
    Вы не можете отвечать на сообщения
    Вы не можете редактировать свои сообщения
    Вы не можете удалять свои сообщения
    Вы не можете голосовать в опросах
    Вы не можете прикреплять файлы к сообщениям
    Вы не можете скачивать файлы