BitTorrentTracker PerecTracker.org
BitTorrentTracker PerecTracker.org
    
Регистрация  ·  Вход
 
 · 
Забыли пароль?

  • Элизиум: Рай не на Земле / Elysium (Нил Бломкамп) [2013, США, фантастика, боевик, триллер, драма, WEB-DL HD (720p, 1080p)] DUB, Original + SUB (rus, eng forced, spa, fin, swe, nor, dat, pol)

    Ответить на тему
     
    Автор Сообщение

    Flirldrerve

    Создавать темы 27-Окт-2015 05:19

           

    [Цитировать]

    Элизиум: Рай не на Земле / Elysium
    6.748 / 10
    -Год выпуска: 2013
    Страна: США
    Жанр: фантастика, боевик, триллер, драма
    Продолжительность: 109 мин.
    Перевод: Профессиональный дублированный перевод
    Оригинальная аудиодорожка: Есть
    Cубтитры: Русские форсированные, русские полные, английские форсированные, испанские полные, финские полные, шведские полные, норвежские полные, датские полные, польские полные
    Режиссёр: Нил Бломкамп
    Сценарий: Нил Бломкамп
    Продюсер: Саймон Кинберг, Сью Баден-Поуелл, Билл Блок
    Оператор: Трент Опалок
    Композитор: Райан Амон
    Художник: Филип Айви, Нэнси Анна Браун, Росс Демпстер
    Монтаж: Джулиан Кларк, Ли Смит
    В ролях: Мэтт Дэймон, Джоди Фостер, Шарлто Копли, Алиси Брага, Диего Луна, Вагнер Моура, Уильям Фихтнер, Брэндон Оре, Джош Блэкер, Эмма Тремблэ
    Роли дублировали: Сергей Чихачев, Даниил Эльдаров, Максим Чихачев
    Бюджет: $115 000 000
    Сборы в мире: + $127 100 000 = $212 218 599
    Мировая премьера: 7 августа 2013
    Премьера (РФ): 8 августа 2013, WDSSPR,
    Релиз на Blu-Ray: 3 декабря 2013, Columbia/Sony
    Релиз на DVD: 3 декабря 2013, Columbia/Sony
    Описание: В 2154 году существует два класса людей: очень богатые, живущие на чистой, созданной руками человека, космической станции под названием Элизиум и остальные, живущие на перенаселённой разрушенной Земле. Безжалостный правительственный чиновник Министр Роудс не остановится ни перед чем для применения анти-иммиграционных законов и сохранения роскошного образа жизни граждан Элизиума. Когда неудачника Макса загоняют в угол, он соглашается взять на себя сложную миссию, которая в случае успеха не только спасёт ему жизнь, но и может привести к равенству этих поляризованных миров.-Качество исходника: WEB-DL (HDClub & BlueBird)
    Качество: WEB-DL
    Тип: 720p 1080p
    Контейнер: m4v
    Видео: 1280x532 at 23.976 fps, MPEG-4 AVC, ~4200 kbps avg
    Видео: 1916x798 at 23.976 fps, MPEG-4 AVC, ~4500 kbps avg
    Аудио#1: Russian: 48 kHz, ААС, 2/0 (L,R), ~160.00 kbps avg |Дубляж, iTunes Russia|
    Аудио#2: English: 48 kHz, ААС, 2/0 (L,R), ~160.00 kbps avg
    Аудио#3: Russian: 48 kHz, AC3, 3/2 (L,C,R,l,r) + LFE ch, ~384.00 kbps avg |Дубляж, iTunes Russia|
    Субтитры №1: Russian: |Форсированные, iTunes Russia|
    Субтитры №2: English: |Форсированные, iTunes Russia|
    Субтитры №3: Russian: |Полные, iTunes Russia|
    Субтитры №4: Spanish: |Полные, iTunes Russia|
    Субтитры №5: Finnish: |Полные, iTunes Russia|
    Субтитры №6: Swedish: |Полные, iTunes Russia|
    Субтитры №7: Norwegian: |Полные, iTunes Russia|
    Субтитры №8: Danish: |Полные, iTunes Russia|
    Субтитры №9: Polish: |Полные, iTunes Russia|-

    Знаете ли Вы, что...

    • Съемки начались 25 июля 2011 года.
    • Нил Бломкамп основывал идеи идеального мира, существующего отдельно от разрушенной Земли, на реальных источниках: «В 1970х годах люди всерьёз обсуждали идею при необходимости построить космические станции и покинуть Землю. Одним из лучших решений этого вопроса стал проект Стэндфордского тора. Мне понравилась идея сочетать этот хорошо известный концепт с большими деньгами, бриллиантами и особняками в стиле Bel Air. Сам концепт — поместить все эти несуразные, роскошные дома на космической станции в форме пончика — безумно меня веселил и в итоге стал той задумкой, по которой я захотел снять фильм».
    • По словам режиссера картины, первым кандидатом на главную роль фильме был рэпер Ниндзя, участник африканской группы Die Antwoord. Но после долгих переговоров рэпер отказался от этого предложения. Свое решение он объяснил тем, что его дебют в большом кино не должен состояться в фильме, ориентированном на массового зрителя. После отказа Ниндзи режиссер обратился с таким же предложением к Эминему. Последний согласился участвовать в съемках, но поставил свое обязательное условие — фильм должен обязательно сниматься в его родном городе Детройте, с чем режиссер не смог согласиться. В итоге главная роль в картине досталась актеру Мэтту Дэймону.
    • Фильм в основном снимался на двух локациях: в Мехико, который изображал Лос-Анджелес в 2154 году (в этом же году развивается действие в фильме «Аватар»), и Ванкувере, который был Элизиумом.
    • На создание костюма HULC ушло 8 месяцев исследований, и прежде чем сдать готовый дизайн, в него было внесено 75 поправок.
    • В фильме, где действие происходит в 2154 году, герои Диего Луны и Мэтта Дэймона садятся в модернизированный автомобиль Nissan GT-R, который в реальности выпускается с 2007 года.
    • Элизиум в древнегреческой мифологии означает обитель душ блаженных.
    • Над созданием костюмов работал известный итальянский дизайнер одежды и владелец собственного модного дома Джорджо Армани совместно с художником по костюмам Эйприл Ферри.
    • Перед тем как начать писать сценарий Нил Бломкамп нарисовал небольшой комикс, показывающий в общих чертах мир «Элизиума».
    • Сид Мид — дизайнер, работавший над «Бегущий по лезвию» (1982), «Трон» (1982) и «Чужие» (1986) — построил несколько декораций Элизиума и помогал художникам с иллюстрациями.
    • Агент Крюгер, подобно главному отрицательному герою Fallout 2, Френку Хорригану, использует в качестве оружия большой нож (меч). Также, во второй половине фильма он, как и Хорриган, носит экзоскелет. Кроме того, время действия фильма близко ко времени действия сюжета игры Fallout (2154 и 2161 годы соответственно).

    -

    iTunes Meta Tags for country us

    Name: Elysium
    Artist: Neill Blomkamp
    Genre: Action & Adventure
    Release Date: 2013-08-07T08:00:00Z
    Description: В 2154 году существует два класса людей: очень богатые, живущие на чистой, созданной руками человека, космической станции под названием Элизиум и остальные, живущие на перенаселённой разрушенной Земле. Безжалостный правительственный чиновник Министр Роудс не остановится ни перед чем для применения анти-иммиграционных законов...
    Long Description: В 2154 году существует два класса людей: очень богатые, живущие на чистой, созданной руками человека, космической станции под названием Элизиум и остальные, живущие на перенаселённой разрушенной Земле. Безжалостный правительственный чиновник Министр Роудс не остановится ни перед чем для применения анти-иммиграционных законов и сохранения роскошного образа жизни граждан Элизиума. Когда неудачника Макса загоняют в угол, он соглашается взять на себя сложную миссию, которая в случае успеха не только спасёт ему жизнь, но и может привести к равенству этих поляризованных миров.
    Rating: R
    Rating Annotation: Rated R for strong bloody violence and language throughout
    Studio: MRC II Distribution Company L.P.
    Cast: Мэтт Дэймон, Джоди Фостер, Шарлто Копли, Алиси Брага, Диего Луна, Вагнер Моура, Уильям Фихтнер, Брэндон Оре, Джош Блэкер, Эмма Тремблэ
    Director: Нил Бломкамп
    Producers: Саймон Кинберг, Сью Баден-Поуелл, Билл Блок
    Screenwriters: Нил Бломкамп
    Copyright: © 2013 MRC II Distribution Company L.P. All Rights Reserved.
    contentID: 686619568
    XID: Apple:vendor_id:2013-487409
    Sort Name: Elysium

    iTunes Meta Tags for country ru

    Name: Элизиум – Рай не на Земле
    Artist: Neill Blomkamp
    Genre: Action & Adventure
    Release Date: 2013-08-07T08:00:00Z
    Description: В 2154 году существует два класса людей: очень богатые, живущие на чистой, созданной руками человека, космической станции под названием Элизиум и остальные, живущие на перенаселённой разрушенной Земле. Безжалостный правительственный чиновник Министр Роудс не остановится ни перед чем для применения анти-иммиграционных законов...
    Long Description: В 2154 году существует два класса людей: очень богатые, живущие на чистой, созданной руками человека, космической станции под названием Элизиум и остальные, живущие на перенаселённой разрушенной Земле. Безжалостный правительственный чиновник Министр Роудс не остановится ни перед чем для применения анти-иммиграционных законов и сохранения роскошного образа жизни граждан Элизиума. Когда неудачника Макса загоняют в угол, он соглашается взять на себя сложную миссию, которая в случае успеха не только спасёт ему жизнь, но и может привести к равенству этих поляризованных миров.
    Rating: 16+
    Studio: MRC II Distribution Company L.P.
    Cast: Мэтт Дэймон, Джоди Фостер, Шарлто Копли, Алиси Брага, Диего Луна, Вагнер Моура, Уильям Фихтнер, Брэндон Оре, Джош Блэкер, Эмма Тремблэ
    Director: Нил Бломкамп
    Producers: Саймон Кинберг, Сью Баден-Поуелл, Билл Блок
    Screenwriters: Нил Бломкамп
    Copyright: © 2013 MRC II Distribution Company L.P. All Rights Reserved.
    contentID: 723456410
    XID: sonypicturesentertainment:isan:0000-0003-92E4-0000-K-0000-0000-E
    Sort Name: Элизиум – Рай не на Земле

    MediaInfo 720p Release

    Общее
    Полное имя : Elysium (HD).m4v
    Формат : MPEG-4
    Идентификатор кодека : M4V
    Размер файла : 3,71 Гбайт
    Продолжительность : 1 ч. 49 м.
    Режим общего битрейта : Переменный
    Общий поток : 4855 Кбит/сек
    Название фильма : Elysium
    Исполнитель : Neill Blomkamp
    Жанр : Action & Adventure
    Дата записи : UTC 2013-08-07 08:00:00
    Дата кодирования : UTC 2013-11-12 09:42:35
    Дата пометки : UTC 2013-11-12 09:47:22
    Правообладатель : © 2013 MRC II Distribution Company L.P. All Rights Reserved.
    Обложка : Yes
    sonm : Elysium
    desc : В 2154 году существует два класса людей: очень богатые, живущие на чистой, созданной руками человека, космической станции под названием Элизиум и остальные, живущие на перенаселённой разрушенной Земле. Безжалостный правительственный чиновник Министр Роудс не остановится ни перед чем для применения анти-иммиграционных законов...
    ldes : В 2154 году существует два класса людей: очень богатые, живущие на чистой, созданной руками человека, космической станции под названием Элизиум и остальные, живущие на перенаселённой разрушенной Земле. Безжалостный правительственный чиновник Министр Роудс не остановится ни перед чем для применения анти-иммиграционных законов и сохранения роскошного образа жизни граждан Элизиума. Когда неудачника Макса загоняют в угол, он соглашается взять на себя сложную миссию, которая в случае успеха не только спасёт ему жизнь, но и может привести к равенству этих поляризованных миров.
    hdvd : 1
    stik : 9
    rtng : 0
    cnID : 686619568
    xid : Apple:vendor_id:2013-487409
    iTunEXTC : mpaa|R|400|Rated R for strong bloody violence and language throughout
    iTunMOVI : <?xml version="1.0" encoding="UTF-8"?> / <!DOCTYPE plist PUBLIC "-//Apple//DTD PLIST 1.0//EN" "http://anonym.to/?http://www.apple.com/DTDs/PropertyList-1.0.dtd"> / <plist version="1.0"> / <dict> /  <key>cast</key> /  <array> /   <dict> /    <key>name</key> /    <string>Мэтт Дэймон</string> /   </dict> /   <dict> /    <key>name</key> /    <string>Джоди Фостер</string> /   </dict> /   <dict> /    <key>name</key> /    <string>Шарлто Копли</string> /   </dict> /   <dict> /    <key>name</key> /    <string>Алиси Брага</string> /   </dict> /   <dict> /    <key>name</key> /    <string>Диего Луна</string> /   </dict> /   <dict> /    <key>name</key> /    <string>Вагнер Моура</string> /   </dict> /   <dict> /    <key>name</key> /    <string>Уильям Фихтнер</string> /   </dict> /   <dict> /    <key>name</key> /    <string>Брэндон Оре</string> /   </dict> /   <dict> /    <key>name</key> /    <string>Джош Блэкер</string> /   </dict> /   <dict> /    <key>name</key> /    <string>Эмма Тремблэ</string> /   </dict> /  </array> /  <key>directors</key> /  <array> /   <dict> /    <key>name</key> /    <string>Нил Бломкамп</string> /   </dict> /  </array> /  <key>producers</key> /  <array> /   <dict> /    <key>name</key> /    <string>Саймон Кинберг</string> /   </dict> /   <dict> /    <key>name</key> /    <string>Сью Баден-Поуелл</string> /   </dict> /   <dict> /    <key>name</key> /    <string>Билл Блок</string> /   </dict> /  </array> /  <key>screenwriters</key> /  <array> /   <dict> /    <key>name</key> /    <string>Нил Бломкамп</string> /   </dict> /  </array> /  <key>studio</key> /  <string>MRC II Distribution Company L.P.</string> / </dict> / </plist>
    Видео #1
    Идентификатор : 1
    Формат : AVC
    Формат/Информация : Advanced Video Codec
    Профиль формата : Main@L3.1
    Параметр CABAC формата : Нет
    Параметр ReFrames формата : 2 кадра
    Идентификатор кодека : avc1
    Идентификатор кодека/Информация : Advanced Video Coding
    Продолжительность : 1 ч. 49 м.
    Вид битрейта : Переменный
    Битрейт : 4135 Кбит/сек
    Ширина : 1280 пикселей
    Высота : 532 пикселя
    Соотношение сторон : 2,40:1
    Режим частоты кадров : Переменный
    Частота кадров : 23,976 кадра/сек
    Минимальная частота кадров : 23,810 кадра/сек
    Максимальная частота кадров : 24,390 кадра/сек
    Цветовое пространство : YUV
    Субдискретизация насыщенности : 4:2:0
    Битовая глубина : 8 бит
    Тип развёртки : Прогрессивная
    Бит/(Пиксели*Кадры) : 0.253
    Размер потока : 3,16 Гбайт (85%)
    Язык : English
    Дата кодирования : UTC 2013-11-12 09:42:35
    Дата пометки : UTC 2013-11-12 09:44:50
    Основные цвета : BT.709
    Характеристики трансфера : BT.709
    Коэффициенты матрицы : BT.709
    Видео #2
    Идентификатор : 15
    Формат : JPEG
    Идентификатор кодека : jpeg
    Продолжительность : 1 ч. 49 м.
    Вид битрейта : Переменный
    Битрейт : 579 бит/сек
    Ширина : 640 пикселей
    Высота : 266 пикселей
    Соотношение сторон : 2,40:1
    Режим частоты кадров : Переменный
    Частота кадров : 0,002 кадр/сек
    Минимальная частота кадров : 0,001 кадр/сек
    Максимальная частота кадров : 0,005 кадр/сек
    Цветовое пространство : YUV
    Субдискретизация насыщенности : 4:2:0
    Битовая глубина : 8 бит
    Метод сжатия : С потерями
    Бит/(Пиксели*Кадры) : 1.701
    Размер потока : 565 Кбайт (0%)
    Язык : English
    Дата кодирования : UTC 2013-11-12 09:46:41
    Дата пометки : UTC 2013-11-12 09:46:42
    Аудио #1
    Идентификатор : 2
    Формат : AAC
    Формат/Информация : Advanced Audio Codec
    Профиль формата : LC
    Идентификатор кодека : 40
    Продолжительность : 1 ч. 49 м.
    Вид битрейта : Переменный
    Битрейт : 164 Кбит/сек
    Максимальный битрейт : 264 Кбит/сек
    Каналы : 2 канала
    Расположение каналов : Front: L R
    Частота : 48,0 КГц
    Метод сжатия : С потерями
    Задержка видео : 42 мс.
    Размер потока : 129 Мбайт (3%)
    Язык : Russian
    Дата кодирования : UTC 2013-11-12 09:42:35
    Дата пометки : UTC 2013-11-12 09:42:41
    Аудио #2
    Идентификатор : 3
    Формат : AAC
    Формат/Информация : Advanced Audio Codec
    Профиль формата : LC
    Идентификатор кодека : 40
    Продолжительность : 1 ч. 49 м.
    Вид битрейта : Переменный
    Битрейт : 158 Кбит/сек
    Максимальный битрейт : 267 Кбит/сек
    Каналы : 2 канала
    Расположение каналов : Front: L R
    Частота : 48,0 КГц
    Метод сжатия : С потерями
    Задержка видео : 42 мс.
    Размер потока : 123 Мбайт (3%)
    Язык : English
    Дата кодирования : UTC 2013-11-12 09:42:35
    Дата пометки : UTC 2013-11-12 09:44:50
    Аудио #3
    Идентификатор : 4
    Формат : AC-3
    Формат/Информация : Audio Coding 3
    Расширение режима : CM (complete main)
    Параметр Endianness формата : Big
    Идентификатор кодека : ac-3
    Продолжительность : 1 ч. 49 м.
    Вид битрейта : Постоянный
    Битрейт : 384 Кбит/сек
    Каналы : 6 каналов
    Расположение каналов : Front: L C R, Side: L R, LFE
    Частота : 48,0 КГц
    Битовая глубина : 16 бит
    Метод сжатия : С потерями
    Задержка видео : 42 мс.
    Размер потока : 301 Мбайт (8%)
    Язык : Russian
    Дата кодирования : UTC 2013-11-12 09:42:35
    Дата пометки : UTC 2013-11-12 09:44:50
    Текст #1
    Идентификатор : 5
    Формат : Timed Text
    Режим смешивания : sbtl
    Идентификатор кодека : tx3g
    Продолжительность : 1 ч. 41 м.
    Вид битрейта : Переменный
    Битрейт : 6 бит/сек
    Задержка видео : 42 мс.
    Размер потока : 4,20 Кбайт (0%)
    Язык : Russian
    Дата кодирования : UTC 2013-11-12 09:42:35
    Дата пометки : UTC 2013-11-12 09:44:50
    Текст #2
    Идентификатор : 6
    Формат : Timed Text
    Режим смешивания : sbtl
    Идентификатор кодека : tx3g
    Продолжительность : 1 ч. 41 м.
    Вид битрейта : Переменный
    Битрейт : 2 бит/сек
    Задержка видео : 42 мс.
    Размер потока : 1,71 Кбайт (0%)
    Язык : English
    Дата кодирования : UTC 2013-11-12 09:42:35
    Дата пометки : UTC 2013-11-12 09:44:50
    Текст #3
    Идентификатор : 7
    Формат : Timed Text
    Режим смешивания : sbtl
    Идентификатор кодека : tx3g
    Продолжительность : 1 ч. 43 м.
    Вид битрейта : Переменный
    Битрейт : 76 бит/сек
    Задержка видео : 42 мс.
    Размер потока : 57,6 Кбайт (0%)
    Язык : Russian
    Дата кодирования : UTC 2013-11-12 09:42:35
    Дата пометки : UTC 2013-11-12 09:44:50
    Текст #4
    Идентификатор : 8
    Формат : Timed Text
    Режим смешивания : sbtl
    Идентификатор кодека : tx3g
    Продолжительность : 1 ч. 49 м.
    Вид битрейта : Переменный
    Битрейт : 49 бит/сек
    Задержка видео : 42 мс.
    Размер потока : 38,9 Кбайт (0%)
    Язык : Spanish
    Дата кодирования : UTC 2013-11-12 09:42:35
    Дата пометки : UTC 2013-11-12 09:44:50
    Текст #5
    Идентификатор : 9
    Формат : Timed Text
    Режим смешивания : sbtl
    Идентификатор кодека : tx3g
    Продолжительность : 1 ч. 49 м.
    Вид битрейта : Переменный
    Битрейт : 44 бит/сек
    Задержка видео : 42 мс.
    Размер потока : 35,0 Кбайт (0%)
    Язык : Finnish
    Дата кодирования : UTC 2013-11-12 09:42:35
    Дата пометки : UTC 2013-11-12 09:44:50
    Текст #6
    Идентификатор : 10
    Формат : Timed Text
    Режим смешивания : sbtl
    Идентификатор кодека : tx3g
    Продолжительность : 1 ч. 49 м.
    Вид битрейта : Переменный
    Битрейт : 51 бит/сек
    Задержка видео : 42 мс.
    Размер потока : 40,9 Кбайт (0%)
    Язык : Swedish
    Дата кодирования : UTC 2013-11-12 09:42:35
    Дата пометки : UTC 2013-11-12 09:44:50
    Текст #7
    Идентификатор : 11
    Формат : Timed Text
    Режим смешивания : sbtl
    Идентификатор кодека : tx3g
    Продолжительность : 1 ч. 49 м.
    Вид битрейта : Переменный
    Битрейт : 42 бит/сек
    Задержка видео : 42 мс.
    Размер потока : 33,5 Кбайт (0%)
    Язык : Norwegian
    Дата кодирования : UTC 2013-11-12 09:42:35
    Дата пометки : UTC 2013-11-12 09:44:50
    Текст #8
    Идентификатор : 12
    Формат : Timed Text
    Режим смешивания : sbtl
    Идентификатор кодека : tx3g
    Продолжительность : 1 ч. 49 м.
    Вид битрейта : Переменный
    Битрейт : 49 бит/сек
    Задержка видео : 42 мс.
    Размер потока : 39,0 Кбайт (0%)
    Язык : Danish
    Дата кодирования : UTC 2013-11-12 09:42:35
    Дата пометки : UTC 2013-11-12 09:44:50
    Текст #9
    Идентификатор : 13
    Формат : Timed Text
    Режим смешивания : sbtl
    Идентификатор кодека : tx3g
    Продолжительность : 1 ч. 41 м.
    Вид битрейта : Переменный
    Битрейт : 48 бит/сек
    Задержка видео : 42 мс.
    Размер потока : 36,1 Кбайт (0%)
    Язык : Polish
    Дата кодирования : UTC 2013-11-12 09:42:35
    Дата пометки : UTC 2013-11-12 09:44:50
    Меню #1
    00:00:00.000 : 1
    00:07:01.000 : 2
    00:11:57.000 : 3
    00:19:25.000 : 4
    00:25:32.000 : 5
    00:29:59.000 : 6
    00:39:18.000 : 7
    00:57:39.000 : 8
    01:00:54.000 : 9
    01:04:04.000 : 10
    01:07:17.000 : 11
    01:10:28.000 : 12
    01:16:54.000 : 13
    01:22:44.000 : 14
    01:30:13.000 : 15
    01:35:37.000 : 16
    Меню #2
    Идентификатор : 14
    Идентификатор кодека : text
    Продолжительность : 1 ч. 49 м.
    Язык : English
    Дата кодирования : UTC 2013-11-12 09:46:37
    Дата пометки : UTC 2013-11-12 09:46:37
    Вид битрейта : VBR
    00:00:00.000 : 1
    00:07:01.000 : 2
    00:11:57.000 : 3
    00:19:25.000 : 4
    00:25:32.000 : 5
    00:29:59.000 : 6
    00:39:18.000 : 7
    00:57:39.000 : 8
    01:00:54.000 : 9
    01:04:04.000 : 10
    01:07:17.000 : 11
    01:10:28.000 : 12
    01:16:54.000 : 13
    01:22:44.000 : 14
    01:30:13.000 : 15
    01:35:37.000 : 16

    MediaInfo 1080p Release

    Общее
    Полное имя : Elysium (1080p HD).m4v
    Формат : MPEG-4
    Идентификатор кодека : M4V
    Размер файла : 3,99 Гбайт
    Продолжительность : 1 ч. 49 м.
    Режим общего битрейта : Переменный
    Общий поток : 5210 Кбит/сек
    Название фильма : Elysium
    Исполнитель : Neill Blomkamp
    Жанр : Action & Adventure
    Дата записи : UTC 2013-08-07 08:00:00
    Дата кодирования : UTC 2013-11-12 10:20:03
    Дата пометки : UTC 2013-11-12 10:36:27
    Правообладатель : © 2013 MRC II Distribution Company L.P. All Rights Reserved.
    Обложка : Yes
    sonm : Elysium
    desc : В 2154 году существует два класса людей: очень богатые, живущие на чистой, созданной руками человека, космической станции под названием Элизиум и остальные, живущие на перенаселённой разрушенной Земле. Безжалостный правительственный чиновник Министр Роудс не остановится ни перед чем для применения анти-иммиграционных законов...
    ldes : В 2154 году существует два класса людей: очень богатые, живущие на чистой, созданной руками человека, космической станции под названием Элизиум и остальные, живущие на перенаселённой разрушенной Земле. Безжалостный правительственный чиновник Министр Роудс не остановится ни перед чем для применения анти-иммиграционных законов и сохранения роскошного образа жизни граждан Элизиума. Когда неудачника Макса загоняют в угол, он соглашается взять на себя сложную миссию, которая в случае успеха не только спасёт ему жизнь, но и может привести к равенству этих поляризованных миров.
    hdvd : 2
    stik : 9
    rtng : 0
    cnID : 686619568
    xid : Apple:vendor_id:2013-487409
    iTunEXTC : mpaa|R|400|Rated R for strong bloody violence and language throughout
    iTunMOVI : <?xml version="1.0" encoding="UTF-8"?> / <!DOCTYPE plist PUBLIC "-//Apple//DTD PLIST 1.0//EN" "http://anonym.to/?http://www.apple.com/DTDs/PropertyList-1.0.dtd"> / <plist version="1.0"> / <dict> /  <key>cast</key> /  <array> /   <dict> /    <key>name</key> /    <string>Мэтт Дэймон</string> /   </dict> /   <dict> /    <key>name</key> /    <string>Джоди Фостер</string> /   </dict> /   <dict> /    <key>name</key> /    <string>Шарлто Копли</string> /   </dict> /   <dict> /    <key>name</key> /    <string>Алиси Брага</string> /   </dict> /   <dict> /    <key>name</key> /    <string>Диего Луна</string> /   </dict> /   <dict> /    <key>name</key> /    <string>Вагнер Моура</string> /   </dict> /   <dict> /    <key>name</key> /    <string>Уильям Фихтнер</string> /   </dict> /   <dict> /    <key>name</key> /    <string>Брэндон Оре</string> /   </dict> /   <dict> /    <key>name</key> /    <string>Джош Блэкер</string> /   </dict> /   <dict> /    <key>name</key> /    <string>Эмма Тремблэ</string> /   </dict> /  </array> /  <key>directors</key> /  <array> /   <dict> /    <key>name</key> /    <string>Нил Бломкамп</string> /   </dict> /  </array> /  <key>producers</key> /  <array> /   <dict> /    <key>name</key> /    <string>Саймон Кинберг</string> /   </dict> /   <dict> /    <key>name</key> /    <string>Сью Баден-Поуелл</string> /   </dict> /   <dict> /    <key>name</key> /    <string>Билл Блок</string> /   </dict> /  </array> /  <key>screenwriters</key> /  <array> /   <dict> /    <key>name</key> /    <string>Нил Бломкамп</string> /   </dict> /  </array> /  <key>studio</key> /  <string>MRC II Distribution Company L.P.</string> / </dict> / </plist>
    Видео #1
    Идентификатор : 1
    Формат : AVC
    Формат/Информация : Advanced Video Codec
    Профиль формата : High@L4.0
    Параметр CABAC формата : Да
    Параметр ReFrames формата : 5 кадров
    Идентификатор кодека : avc1
    Идентификатор кодека/Информация : Advanced Video Coding
    Продолжительность : 1 ч. 49 м.
    Вид битрейта : Переменный
    Битрейт : 4490 Кбит/сек
    Ширина : 1916 пикселей
    Высота : 798 пикселей
    Соотношение сторон : 2,40:1
    Режим частоты кадров : Переменный
    Частота кадров : 23,976 кадра/сек
    Минимальная частота кадров : 23,810 кадра/сек
    Максимальная частота кадров : 24,390 кадра/сек
    Цветовое пространство : YUV
    Субдискретизация насыщенности : 4:2:0
    Битовая глубина : 8 бит
    Тип развёртки : Прогрессивная
    Бит/(Пиксели*Кадры) : 0.122
    Размер потока : 3,44 Гбайт (86%)
    Язык : English
    Дата кодирования : UTC 2013-11-12 10:20:04
    Дата пометки : UTC 2013-11-12 10:22:49
    Основные цвета : BT.709
    Характеристики трансфера : BT.709
    Коэффициенты матрицы : BT.709
    Видео #2
    Идентификатор : 15
    Формат : JPEG
    Идентификатор кодека : jpeg
    Продолжительность : 1 ч. 49 м.
    Вид битрейта : Переменный
    Битрейт : 550 бит/сек
    Ширина : 640 пикселей
    Высота : 266 пикселей
    Соотношение сторон : 2,40:1
    Режим частоты кадров : Переменный
    Частота кадров : 0,002 кадр/сек
    Минимальная частота кадров : 0,001 кадр/сек
    Максимальная частота кадров : 0,005 кадр/сек
    Цветовое пространство : YUV
    Субдискретизация насыщенности : 4:2:0
    Битовая глубина : 8 бит
    Метод сжатия : С потерями
    Бит/(Пиксели*Кадры) : 1.615
    Размер потока : 538 Кбайт (0%)
    Язык : English
    Дата кодирования : UTC 2013-11-12 10:35:54
    Дата пометки : UTC 2013-11-12 10:35:55
    Аудио #1
    Идентификатор : 2
    Формат : AAC
    Формат/Информация : Advanced Audio Codec
    Профиль формата : LC
    Идентификатор кодека : 40
    Продолжительность : 1 ч. 49 м.
    Вид битрейта : Переменный
    Битрейт : 164 Кбит/сек
    Максимальный битрейт : 264 Кбит/сек
    Каналы : 2 канала
    Расположение каналов : Front: L R
    Частота : 48,0 КГц
    Метод сжатия : С потерями
    Задержка видео : 42 мс.
    Размер потока : 129 Мбайт (3%)
    Язык : Russian
    Дата кодирования : UTC 2013-11-12 10:20:04
    Дата пометки : UTC 2013-11-12 10:20:41
    Аудио #2
    Идентификатор : 3
    Формат : AAC
    Формат/Информация : Advanced Audio Codec
    Профиль формата : LC
    Идентификатор кодека : 40
    Продолжительность : 1 ч. 49 м.
    Вид битрейта : Переменный
    Битрейт : 158 Кбит/сек
    Максимальный битрейт : 267 Кбит/сек
    Каналы : 2 канала
    Расположение каналов : Front: L R
    Частота : 48,0 КГц
    Метод сжатия : С потерями
    Задержка видео : 42 мс.
    Размер потока : 123 Мбайт (3%)
    Язык : English
    Дата кодирования : UTC 2013-11-12 10:20:04
    Дата пометки : UTC 2013-11-12 10:21:19
    Аудио #3
    Идентификатор : 4
    Формат : AC-3
    Формат/Информация : Audio Coding 3
    Расширение режима : CM (complete main)
    Параметр Endianness формата : Big
    Идентификатор кодека : ac-3
    Продолжительность : 1 ч. 49 м.
    Вид битрейта : Постоянный
    Битрейт : 384 Кбит/сек
    Каналы : 6 каналов
    Расположение каналов : Front: L C R, Side: L R, LFE
    Частота : 48,0 КГц
    Битовая глубина : 16 бит
    Метод сжатия : С потерями
    Задержка видео : 42 мс.
    Размер потока : 301 Мбайт (7%)
    Язык : Russian
    Дата кодирования : UTC 2013-11-12 10:20:04
    Дата пометки : UTC 2013-11-12 10:21:59
    Текст #1
    Идентификатор : 5
    Формат : Timed Text
    Режим смешивания : sbtl
    Идентификатор кодека : tx3g
    Продолжительность : 1 ч. 41 м.
    Вид битрейта : Переменный
    Битрейт : 6 бит/сек
    Задержка видео : 42 мс.
    Размер потока : 4,20 Кбайт (0%)
    Язык : Russian
    Дата кодирования : UTC 2013-11-12 10:20:04
    Дата пометки : UTC 2013-11-12 10:22:49
    Текст #2
    Идентификатор : 6
    Формат : Timed Text
    Режим смешивания : sbtl
    Идентификатор кодека : tx3g
    Продолжительность : 1 ч. 41 м.
    Вид битрейта : Переменный
    Битрейт : 2 бит/сек
    Задержка видео : 42 мс.
    Размер потока : 1,71 Кбайт (0%)
    Язык : English
    Дата кодирования : UTC 2013-11-12 10:20:04
    Дата пометки : UTC 2013-11-12 10:22:49
    Текст #3
    Идентификатор : 7
    Формат : Timed Text
    Режим смешивания : sbtl
    Идентификатор кодека : tx3g
    Продолжительность : 1 ч. 43 м.
    Вид битрейта : Переменный
    Битрейт : 76 бит/сек
    Задержка видео : 42 мс.
    Размер потока : 57,6 Кбайт (0%)
    Язык : Russian
    Дата кодирования : UTC 2013-11-12 10:20:04
    Дата пометки : UTC 2013-11-12 10:22:49
    Текст #4
    Идентификатор : 8
    Формат : Timed Text
    Режим смешивания : sbtl
    Идентификатор кодека : tx3g
    Продолжительность : 1 ч. 49 м.
    Вид битрейта : Переменный
    Битрейт : 49 бит/сек
    Задержка видео : 42 мс.
    Размер потока : 38,9 Кбайт (0%)
    Язык : Spanish
    Дата кодирования : UTC 2013-11-12 10:20:04
    Дата пометки : UTC 2013-11-12 10:22:49
    Текст #5
    Идентификатор : 9
    Формат : Timed Text
    Режим смешивания : sbtl
    Идентификатор кодека : tx3g
    Продолжительность : 1 ч. 49 м.
    Вид битрейта : Переменный
    Битрейт : 44 бит/сек
    Задержка видео : 42 мс.
    Размер потока : 35,0 Кбайт (0%)
    Язык : Finnish
    Дата кодирования : UTC 2013-11-12 10:20:04
    Дата пометки : UTC 2013-11-12 10:22:49
    Текст #6
    Идентификатор : 10
    Формат : Timed Text
    Режим смешивания : sbtl
    Идентификатор кодека : tx3g
    Продолжительность : 1 ч. 49 м.
    Вид битрейта : Переменный
    Битрейт : 51 бит/сек
    Задержка видео : 42 мс.
    Размер потока : 40,9 Кбайт (0%)
    Язык : Swedish
    Дата кодирования : UTC 2013-11-12 10:20:04
    Дата пометки : UTC 2013-11-12 10:22:49
    Текст #7
    Идентификатор : 11
    Формат : Timed Text
    Режим смешивания : sbtl
    Идентификатор кодека : tx3g
    Продолжительность : 1 ч. 49 м.
    Вид битрейта : Переменный
    Битрейт : 42 бит/сек
    Задержка видео : 42 мс.
    Размер потока : 33,5 Кбайт (0%)
    Язык : Norwegian
    Дата кодирования : UTC 2013-11-12 10:20:04
    Дата пометки : UTC 2013-11-12 10:22:49
    Текст #8
    Идентификатор : 12
    Формат : Timed Text
    Режим смешивания : sbtl
    Идентификатор кодека : tx3g
    Продолжительность : 1 ч. 49 м.
    Вид битрейта : Переменный
    Битрейт : 49 бит/сек
    Задержка видео : 42 мс.
    Размер потока : 39,0 Кбайт (0%)
    Язык : Danish
    Дата кодирования : UTC 2013-11-12 10:20:04
    Дата пометки : UTC 2013-11-12 10:22:49
    Текст #9
    Идентификатор : 13
    Формат : Timed Text
    Режим смешивания : sbtl
    Идентификатор кодека : tx3g
    Продолжительность : 1 ч. 41 м.
    Вид битрейта : Переменный
    Битрейт : 48 бит/сек
    Задержка видео : 42 мс.
    Размер потока : 36,1 Кбайт (0%)
    Язык : Polish
    Дата кодирования : UTC 2013-11-12 10:20:04
    Дата пометки : UTC 2013-11-12 10:22:49
    Меню #1
    00:00:00.000 : 1
    00:07:01.000 : 2
    00:11:57.000 : 3
    00:19:25.000 : 4
    00:25:32.000 : 5
    00:29:59.000 : 6
    00:39:18.000 : 7
    00:57:39.000 : 8
    01:00:54.000 : 9
    01:04:04.000 : 10
    01:07:17.000 : 11
    01:10:28.000 : 12
    01:16:54.000 : 13
    01:22:44.000 : 14
    01:30:13.000 : 15
    01:35:37.000 : 16
    Меню #2
    Идентификатор : 14
    Идентификатор кодека : text
    Продолжительность : 1 ч. 49 м.
    Язык : English
    Дата кодирования : UTC 2013-11-12 10:35:47
    Дата пометки : UTC 2013-11-12 10:35:47
    Вид битрейта : VBR
    00:00:00.000 : 1
    00:07:01.000 : 2
    00:11:57.000 : 3
    00:19:25.000 : 4
    00:25:32.000 : 5
    00:29:59.000 : 6
    00:39:18.000 : 7
    00:57:39.000 : 8
    01:00:54.000 : 9
    01:04:04.000 : 10
    01:07:17.000 : 11
    01:10:28.000 : 12
    01:16:54.000 : 13
    01:22:44.000 : 14
    01:30:13.000 : 15
    01:35:37.000 : 16

    Скриншоты 720p Release

    Скриншоты 1080p Release

    -

    Релиз подготовлен для просмотра на Apple TV, iPad, iPhone, iPod Touch.
    Для просмотра данного релиза на компьютере с ОС Windows рекомендуется использовать VLC media player
    Скачать .torrent

    Скачать торрент-файл бесплатно и на максимальной скорости!

    Как скачивать? · Что такое торрент? · Рейтинг и ограничения

    !ВНИМАНИЕ!
    Сайт не распространяет и не хранит электронные версии произведений, а занимается лишь лишь предоставлением доступа к создаваемому пользователями каталогу ссылок на торрент-файлы, которые содержат только списки хеш-сумм, убедительная просьба с жалобами обращаться напрямую к пользователю. Файлы для обмена на трекере предоставлены пользователями сайта, и администрация не несёт ответственности за их содержание. Просьба не заливать файлы, защищенные авторскими правами, а также файлы нелегального содержания!


    _________________
    [Профиль] [ЛС]
    Показать сообщения:    
    Ответить на тему

    Текущее время: Сегодня, в 18:29

    Часовой пояс: GMT + 2



    Вы не можете начинать темы
    Вы не можете отвечать на сообщения
    Вы не можете редактировать свои сообщения
    Вы не можете удалять свои сообщения
    Вы не можете голосовать в опросах
    Вы не можете прикреплять файлы к сообщениям
    Вы не можете скачивать файлы