BitTorrentTracker PerecTracker.org
BitTorrentTracker PerecTracker.org
    
Регистрация  ·  Вход
 
 · 
Забыли пароль?

  • [ATV3] Люси / Lucy (Люк Бессон / Luc Besson ) [2014, Франция, Боевик, фантастика, BDRip, HD (1080p)] DUB + Original + sub (rus for, eng for, rus, eng)

    Ответить на тему
     
    Автор Сообщение

    Flirldrerve

    Создавать темы 27-Окт-2015 05:19

           

    [Цитировать]

    Люси / Lucy
    «Она — ключ к тайнам Вселенной»
    6.855 / 10 6.50 / 10
    -Год выпуска: 2014
    Страна: Франция
    Жанр: Боевик, фантастика
    Продолжительность: 01:29:20
    Перевод: Профессиональный (дублированный) (Blu-ray CEE)
    Оригинальная аудиодорожка: Есть
    Cубтитры: Русские форсированные, Английские форсированные, Русские, Английские
    Режиссёр: Люк Бессон
    Сценарий: Люк Бессон
    Продюсер: Виржини Силла, Марк Шмугер
    Оператор: Тьерри Арбогаст
    Композитор: Эрик Серра
    Художник: Юг Тиссандье, Жиль Буалло, Доминик Муасан
    Монтаж: Жюльен Рей
    В ролях: Скарлетт Йоханссон, Морган Фриман, Чхве Мин Сик, Амр Вакед, Джулиан Райнд-Татт, Йохан Филип Асбек, Анали Типтон, Николас Фонгфет, Ян Оливер Шрёдер, Лука Анджелетти
    Бюджет: $40 000 000
    Сборы в США: $126 663 600
    Сборы в мире: + $332 200 000 = $458 863 600
    Сборы в России: $22 247 979
    Мировая премьера: 25 июля 2014
    Премьера (РФ): 11 сентября 2014, «UPI»
    Релиз на DVD: 4 декабря 2014, «Двадцатый Век Фокс СНГ»
    Релиз на Blu-Ray: 4 декабря 2014, «Двадцатый Век Фокс СНГ»
    Описание: Еще вчера она была просто сексапильной блондинкой, а сегодня — самое опасное и смертоносное создание на планете со сверхъестественными способностями и интеллектом. То, что совсем недавно лучшие умы мира считали фантастической теорией, для нее стало реальностью. И теперь из добычи она превратится в охотницу.-Качество исходника: Кинозал, Люси / Lucy / 2014 / ДБ, СТ / Blu-Ray Remux (1080p)
    Качество: BDRip
    Тип: HD (1080p)
    Контейнер: M4V
    Видео: H.264, 1920x800, 2.40:1, 8 000 Kbps, 23.976 fps
    Аудио 1: Русский/Профессиональный (дублированный) (Blu-ray CEE), AAC / 2.0 / 158 Kbps / 48.0 KHz
    Аудио 2: Английский/Оригинальная дорожка , AAC / 2.0 / 158 Kbps / 48.0 KHz
    Аудио 3: Русский/Профессиональный (дублированный) (Blu-ray CEE), AC-3 / 5.1 / 640 Kbps / 48.0 KHz
    Аудио 4: Английский/Оригинальная дорожка , AC-3 / 5.1 / 640 Kbps / 48.0 KHz
    Субтитры 1: Русские форсированные
    Субтитры 2: Английские форсированные
    Субтитры 3: Русские полные
    Субтитры 4: Английские полные
    -

    iTunes Meta Tags

    Sort Name: Lucy
    XID: Apple:vendor_id:2014-760326
    contentID: 898085303
    Copyright: © 2014 Universal Studios. All Rights Reserved.
    Screenwriters: Люк Бессон
    Producers: Виржини Силла, Марк Шмугер
    Director: Люк Бессон
    Cast: Скарлетт Йоханссон, Морган Фриман, Чхве Мин Сик, Амр Вакед, Джулиан Райнд-Татт, Йохан Филип Асбек, Анали Типтон, Николас Фонгфет, Ян Оливер Шрёдер, Лука Анджелетти
    Studio: Universal Pictures
    Rating Annotation: Rated R for strong violence, disturbing images, and sexuality.
    Rating: 11
    Long Description: Еще вчера она была просто сексапильной блондинкой, а сегодня - самое опасное и смертоносное создание на планете со сверхъестественными способностями и интеллектом. То, что совсем недавно лучшие умы мира считали фантастической теорией, для нее стало реальностью. И теперь из добычи она превратится в охотницу.
    Ее зовут Люси...
    Description: Еще вчера она была просто сексапильной блондинкой, а сегодня - самое опасное и смертоносное создание на планете со сверхъестественными способностями и интеллектом...
    Release Date: 2014-07-25T08:00:00Z
    Genre: Action & Adventure
    Artist: Luc Besson
    Name: Lucy

    MediaInfo

    General
    Complete name                            : /Users/imac/HandBrake/Lucy (1080p HD).m4v
    Format                                   : MPEG-4
    Codec ID                                 : M4V
    File size                                : 5.99 GiB
    Duration                                 : 1h 29mn
    Overall bit rate mode                    : Variable
    Overall bit rate                         : 9 602 Kbps
    Movie name                               : Lucy
    Performer                                : Luc Besson
    Genre                                    : Action & Adventure
    Recorded date                            : UTC 2014-07-25 08:00:00
    Encoded date                             : UTC 2014-11-22 22:47:44
    Tagged date                              : UTC 2014-11-22 22:54:19
    Copyright                                : © 2014 Universal Studios. All Rights Reserved.
    Cover                                    : Yes
    sonm                                     : Lucy
    desc                                     : Еще вчера она была просто сексапильной блондинкой, а сегодня - самое опасное и смертоносное создание на планете со сверхъестественными способностями и интеллектом...
    ldes                                     : Еще вчера она была просто сексапильной блондинкой, а сегодня - самое опасное и смертоносное создание на планете со сверхъестественными способностями и интеллектом. То, что совсем недавно лучшие умы мира считали фантастической теорией, для нее стало реальностью. И теперь из добычи она превратится в охотницу. / Ее зовут Люси...
    hdvd                                     : 2
    stik                                     : 9
    rtng                                     : 0
    cnID                                     : 898085303
    xid                                      : Apple:vendor_id:2014-760326
    iTunEXTC                                 : mpaa|R|400|Rated R for strong violence, disturbing images, and sexuality.
    iTunMOVI                                 : <?xml version=\\\"1.0\\\" encoding=\\\"UTF-8\\\"?> / <!DOCTYPE plist PUBLIC \\\"-//Apple//DTD PLIST 1.0//EN\\\" \\\"http://anonym.to/?http://www.apple.com/DTDs/PropertyList-1.0.dtd\\\"> / <plist version=\\\"1.0\\\"> / <dict> /   <key>cast</key> /   <array> /     <dict> /       <key>name</key> /       <string>Скарлетт Йоханссон</string> /     </dict> /     <dict> /       <key>name</key> /       <string>Морган Фриман</string> /     </dict> /     <dict> /       <key>name</key> /       <string>Чхве Мин Сик</string> /     </dict> /     <dict> /       <key>name</key> /       <string>Амр Вакед</string> /     </dict> /     <dict> /       <key>name</key> /       <string>Джулиан Райнд-Татт</string> /     </dict> /     <dict> /       <key>name</key> /       <string>Йохан Филип Асбек</string> /     </dict> /     <dict> /       <key>name</key> /       <string>Анали Типтон</string> /     </dict> /     <dict> /       <key>name</key> /       <string>Николас Фонгфет</string> /     </dict> /     <dict> /       <key>name</key> /       <string>Ян Оливер Шрёдер</string> /     </dict> /     <dict> /       <key>name</key> /       <string>Лука Анджелетти</string> /     </dict> /   </array> /   <key>directors</key> /   <array> /     <dict> /       <key>name</key> /       <string>Люк Бессон</string> /     </dict> /   </array> /   <key>producers</key> /   <array> /     <dict> /       <key>name</key> /       <string>Виржини Силла</string> /     </dict> /     <dict> /       <key>name</key> /       <string>Марк Шмугер</string> /     </dict> /   </array> /   <key>screenwriters</key> /   <array> /     <dict> /       <key>name</key> /       <string>Люк Бессон</string> /     </dict> /   </array> /   <key>studio</key> /   <string>Universal Pictures</string> / </dict> / </plist>
    Video #1
    ID                                       : 1
    Format                                   : AVC
    Format/Info                              : Advanced Video Codec
    Format profile                           : High@L4.0
    Format settings, CABAC                   : Yes
    Format settings, ReFrames                : 4 frames
    Codec ID                                 : avc1
    Codec ID/Info                            : Advanced Video Coding
    Duration                                 : 1h 29mn
    Bit rate mode                            : Variable
    Bit rate                                 : 8 000 Kbps
    Width                                    : 1 920 pixels
    Height                                   : 800 pixels
    Display aspect ratio                     : 2.40:1
    Frame rate mode                          : Variable
    Frame rate                               : 23.976 fps
    Minimum frame rate                       : 11.987 fps
    Maximum frame rate                       : 23.981 fps
    Color space                              : YUV
    Chroma subsampling                       : 4:2:0
    Bit depth                                : 8 bits
    Scan type                                : Progressive
    Bits/(Pixel*Frame)                       : 0.217
    Stream size                              : 4.99 GiB (83%)
    Writing library                          : x264 core 130 r2273 b3065e6
    Encoding settings                        : cabac=1 / ref=4 / deblock=1:0:0 / analyse=0x3:0x133 / me=umh / subme=10 / psy=1 / psy_rd=1.00:0.00 / mixed_ref=1 / me_range=32 / chroma_me=1 / trellis=2 / 8x8dct=1 / cqm=0 / deadzone=21,11 / fast_pskip=1 / chroma_qp_offset=-2 / threads=12 / lookahead_threads=1 / sliced_threads=0 / nr=0 / decimate=1 / interlaced=0 / bluray_compat=0 / constrained_intra=0 / bframes=4 / b_pyramid=2 / b_adapt=2 / b_bias=0 / direct=3 / weightb=1 / open_gop=0 / weightp=2 / keyint=240 / keyint_min=24 / scenecut=40 / intra_refresh=0 / rc_lookahead=40 / rc=2pass / mbtree=0 / bitrate=8000 / ratetol=1.0 / qcomp=0.60 / qpmin=0 / qpmax=69 / qpstep=4 / cplxblur=20.0 / qblur=0.5 / vbv_maxrate=25000 / vbv_bufsize=25000 / nal_hrd=none / ip_ratio=1.40 / pb_ratio=1.30 / aq=1:1.00
    Language                                 : English
    Encoded date                             : UTC 2014-11-22 22:47:44
    Tagged date                              : UTC 2014-11-22 22:51:23
    Color primaries                          : BT.709-5, BT.1361, IEC 61966-2-4, SMPTE RP177
    Transfer characteristics                 : BT.709-5, BT.1361
    Matrix coefficients                      : BT.709-5, BT.1361, IEC 61966-2-4 709, SMPTE RP177
    Video #2
    ID                                       : 11
    Format                                   : JPEG
    Codec ID                                 : jpeg
    Duration                                 : 1h 29mn
    Bit rate mode                            : Variable
    Bit rate                                 : 1 080 bps
    Width                                    : 640 pixels
    Height                                   : 266 pixels
    Display aspect ratio                     : 2.40:1
    Frame rate mode                          : Variable
    Frame rate                               : 0.004 fps
    Minimum frame rate                       : 0.002 fps
    Maximum frame rate                       : 0.007 fps
    Color space                              : YUV
    Chroma subsampling                       : 4:2:0
    Bit depth                                : 8 bits
    Compression mode                         : Lossy
    Bits/(Pixel*Frame)                       : 1.586
    Stream size                              : 659 KiB (0%)
    Language                                 : English
    Encoded date                             : UTC 2014-11-22 22:51:30
    Tagged date                              : UTC 2014-11-22 22:51:31
    Audio #1
    ID                                       : 2
    Format                                   : AAC
    Format/Info                              : Advanced Audio Codec
    Format profile                           : LC
    Codec ID                                 : 40
    Duration                                 : 1h 29mn
    Bit rate mode                            : Variable
    Bit rate                                 : 158 Kbps
    Maximum bit rate                         : 236 Kbps
    Channel(s)                               : 2 channels
    Channel positions                        : Front: L R
    Sampling rate                            : 48.0 KHz
    Compression mode                         : Lossy
    Stream size                              : 101 MiB (2%)
    Language                                 : Russian
    Encoded date                             : UTC 2014-11-22 22:47:44
    Tagged date                              : UTC 2014-11-22 22:49:35
    Audio #2
    ID                                       : 3
    Format                                   : AAC
    Format/Info                              : Advanced Audio Codec
    Format profile                           : LC
    Codec ID                                 : 40
    Duration                                 : 1h 29mn
    Bit rate mode                            : Variable
    Bit rate                                 : 158 Kbps
    Maximum bit rate                         : 238 Kbps
    Channel(s)                               : 2 channels
    Channel positions                        : Front: L R
    Sampling rate                            : 48.0 KHz
    Compression mode                         : Lossy
    Stream size                              : 101 MiB (2%)
    Language                                 : English
    Encoded date                             : UTC 2014-11-22 22:47:44
    Tagged date                              : UTC 2014-11-22 22:49:32
    Audio #3
    ID                                       : 4
    Format                                   : AC-3
    Format/Info                              : Audio Coding 3
    Mode extension                           : CM (complete main)
    Format settings, Endianness              : Big
    Codec ID                                 : ac-3
    Duration                                 : 1h 29mn
    Bit rate mode                            : Constant
    Bit rate                                 : 640 Kbps
    Channel(s)                               : 6 channels
    Channel positions                        : Front: L C R, Side: L R, LFE
    Sampling rate                            : 48.0 KHz
    Bit depth                                : 16 bits
    Compression mode                         : Lossy
    Stream size                              : 409 MiB (7%)
    Language                                 : Russian
    Encoded date                             : UTC 2014-11-22 22:47:44
    Tagged date                              : UTC 2014-11-22 22:48:25
    Audio #4
    ID                                       : 5
    Format                                   : AC-3
    Format/Info                              : Audio Coding 3
    Mode extension                           : CM (complete main)
    Format settings, Endianness              : Big
    Codec ID                                 : ac-3
    Duration                                 : 1h 29mn
    Bit rate mode                            : Constant
    Bit rate                                 : 640 Kbps
    Channel(s)                               : 6 channels
    Channel positions                        : Front: L C R, Side: L R, LFE
    Sampling rate                            : 48.0 KHz
    Bit depth                                : 16 bits
    Compression mode                         : Lossy
    Stream size                              : 409 MiB (7%)
    Language                                 : English
    Encoded date                             : UTC 2014-11-22 22:47:44
    Tagged date                              : UTC 2014-11-22 22:48:20
    Text #1
    ID                                       : 6
    Format                                   : Timed text
    Muxing mode                              : sbtl
    Codec ID                                 : tx3g
    Duration                                 : 1h 21mn
    Bit rate mode                            : Variable
    Bit rate                                 : 5 bps
    Stream size                              : 3.05 KiB (0%)
    Language                                 : Russian
    Encoded date                             : UTC 2014-11-22 22:47:44
    Tagged date                              : UTC 2014-11-22 22:47:44
    Text #2
    ID                                       : 7
    Format                                   : Timed text
    Muxing mode                              : sbtl
    Codec ID                                 : tx3g
    Duration                                 : 1h 21mn
    Bit rate mode                            : Variable
    Bit rate                                 : 3 bps
    Stream size                              : 1.78 KiB (0%)
    Language                                 : English
    Encoded date                             : UTC 2014-11-22 22:47:44
    Tagged date                              : UTC 2014-11-22 22:47:44
    Text #3
    ID                                       : 8
    Format                                   : Timed text
    Muxing mode                              : sbtl
    Codec ID                                 : tx3g
    Duration                                 : 1h 22mn
    Bit rate mode                            : Variable
    Bit rate                                 : 73 bps
    Stream size                              : 44.3 KiB (0%)
    Language                                 : Russian
    Encoded date                             : UTC 2014-11-22 22:47:44
    Tagged date                              : UTC 2014-11-22 22:47:44
    Text #4
    ID                                       : 9
    Format                                   : Timed text
    Muxing mode                              : sbtl
    Codec ID                                 : tx3g
    Duration                                 : 1h 22mn
    Bit rate mode                            : Variable
    Bit rate                                 : 57 bps
    Stream size                              : 34.3 KiB (0%)
    Language                                 : English
    Encoded date                             : UTC 2014-11-22 22:47:44
    Tagged date                              : UTC 2014-11-22 22:47:44
    Text #5
    ID                                       : 10
    Format                                   : Apple text
    Codec ID                                 : text
    Duration                                 : 1h 29mn
    Bit rate mode                            : Variable
    Bit rate                                 : 1 bps
    Stream size                              : 471 Bytes (0%)
    Language                                 : English
    Encoded date                             : UTC 2014-11-22 22:51:23
    Tagged date                              : UTC 2014-11-22 22:51:23
    Menu
    00:00:00.000                             : Chapter 1
    00:05:25.616                             : Chapter 2
    00:08:38.350                             : Chapter 3
    00:15:45.651                             : Chapter 4
    00:21:35.834                             : Chapter 5
    00:26:05.478                             : Chapter 6
    00:30:27.614                             : Chapter 7
    00:37:36.333                             : Chapter 8
    00:41:43.538                             : Chapter 9
    00:47:32.636                             : Chapter 10
    00:50:10.794                             : Chapter 11
    00:55:31.989                             : Chapter 12
    00:59:36.149                             : Chapter 13
    01:02:08.175                             : Chapter 14
    01:04:51.421                             : Chapter 15
    01:07:14.105                             : Chapter 16
    01:09:55.891                             : Chapter 17
    01:12:26.207                             : Chapter 18
    01:18:50.549                             : Chapter 19
    01:22:31.019                             : Chapter 20

    x264 лог

    x264 [info]: frame I:1541  Avg QP:14.80  size:220627  PSNR Mean Y:48.43 U:51.03 V:50.66 Avg:49.05 Global:48.20
    x264 [info]: frame P:37204 Avg QP:16.37  size: 71566  PSNR Mean Y:47.27 U:50.22 V:49.47 Avg:47.83 Global:46.83
    x264 [info]: frame B:89773 Avg QP:17.68  size: 26222  PSNR Mean Y:46.51 U:49.85 V:49.01 Avg:47.13 Global:45.99
    x264 [info]: consecutive B-frames:  5.5%  4.9% 22.6% 24.7% 42.2%
    x264 [info]: mb I  I16..4: 12.1% 75.8% 12.1%
    x264 [info]: mb P  I16..4:  3.4% 18.2%  1.6%  P16..4: 36.1% 19.4% 11.1%  0.3%  0.1%    skip: 9.9%
    x264 [info]: mb B  I16..4:  0.4%  1.4%  0.1%  B16..8: 40.3% 11.4%  2.9%  direct: 8.0%  skip:35.4%  L0:41.5% L1:46.1% BI:12.4%
    x264 [info]: 8x8 transform intra:77.3% inter:61.4%
    x264 [info]: direct mvs  spatial:97.3% temporal:2.7%
    x264 [info]: coded y,uvDC,uvAC intra: 85.4% 90.2% 75.8% inter: 29.1% 31.5% 9.0%
    x264 [info]: i16 v,h,dc,p: 41% 12% 12% 35%
    x264 [info]: i8 v,h,dc,ddl,ddr,vr,hd,vl,hu: 10% 10%  9% 10% 13% 12% 13% 12% 13%
    x264 [info]: i4 v,h,dc,ddl,ddr,vr,hd,vl,hu: 11% 10%  4%  9% 15% 14% 14% 11% 12%
    x264 [info]: i8c dc,h,v,p: 51% 17% 16% 16%
    x264 [info]: Weighted P-Frames: Y:3.5% UV:2.1%
    x264 [info]: ref P L0: 52.1% 11.2% 25.5%  8.8%  2.4%  0.1%
    x264 [info]: ref B L0: 82.7% 14.1%  3.2%
    x264 [info]: ref B L1: 91.8%  8.2%
    x264 [info]: SSIM Mean Y:0.9847699 (18.173db)
    x264 [info]: PSNR Mean Y:46.754 U:49.971 V:49.160 Avg:47.357 Global:46.235 kb/s:7994.19

    Скриншоты

    -

    Релиз подготовлен для просмотра на Apple TV, iPad, iPhone, iPod Touch.
    Для просмотра данного релиза на компьютере с ОС Windows рекомендуется использовать VLC media player
    Скачать .torrent

    Скачать торрент-файл бесплатно и на максимальной скорости!

    Как скачивать? · Что такое торрент? · Рейтинг и ограничения

    !ВНИМАНИЕ!
    Сайт не распространяет и не хранит электронные версии произведений, а занимается лишь лишь предоставлением доступа к создаваемому пользователями каталогу ссылок на торрент-файлы, которые содержат только списки хеш-сумм, убедительная просьба с жалобами обращаться напрямую к пользователю. Файлы для обмена на трекере предоставлены пользователями сайта, и администрация не несёт ответственности за их содержание. Просьба не заливать файлы, защищенные авторскими правами, а также файлы нелегального содержания!


    _________________
    [Профиль] [ЛС]
    Показать сообщения:    
    Ответить на тему

    Текущее время: Сегодня, в 08:12

    Часовой пояс: GMT + 2



    Вы не можете начинать темы
    Вы не можете отвечать на сообщения
    Вы не можете редактировать свои сообщения
    Вы не можете удалять свои сообщения
    Вы не можете голосовать в опросах
    Вы не можете прикреплять файлы к сообщениям
    Вы не можете скачивать файлы