BitTorrentTracker PerecTracker.org
BitTorrentTracker PerecTracker.org
    
Регистрация  ·  Вход
 
 · 
Забыли пароль?

  • [ATV3] Общак / The Drop (Михаэль Р. Роскам / Michaël R. Roskam ) [2014, США, Драма, криминал, BDRip, HD (1080p)] DUB + Original + sub (rus, eng)

    Ответить на тему
     
    Автор Сообщение

    Flirldrerve

    Создавать темы 27-Окт-2015 05:19

           

    [Цитировать]

    Общак / The Drop
    -
    6.913 / 10 7.40 / 10
    -Год выпуска: 2014
    Страна: США
    Жанр: Драма, криминал
    Продолжительность: 01:46:44
    Перевод: Дублированный (iTunes Russia)
    Оригинальная аудиодорожка: Есть
    Cубтитры: Русские, Английские
    Режиссёр: Михаэль Р. Роскам
    Сценарий: Деннис Лихейн
    Продюсер: Питер Чернин, Дилан Кларк, Майк Ларокка
    Оператор: Николас Каракатсанис
    Композитор: Марко Белтрами, Раф Кюнен
    Художник: Тереза ДеПрез, Майкл Ахерн, Дэвид С. Робинсон
    Монтаж: Кристофер Теллефсен
    В ролях: Том Харди, Нуми Рапас, Джеймс Гандольфини, Маттиас Шонартс, Джон Ортис, Элизабет Родригес, Майкл Аронов, Морган Спектор, Майкл Эспер, Росс Бикелл
    Бюджет: $12 600 000
    Сборы в США: $10 724 389
    Сборы в мире: + $4 530 826 = $15 255 215
    Сборы в России: $458 487
    Мировая премьера: 5 сентября 2014
    Премьера (РФ): 30 октября 2014, «Двадцатый Век Фокс СНГ»
    Релиз на DVD: 22 января 2015, «Двадцатый Век Фокс СНГ»
    Релиз на Blu-Ray: 22 января 2015, «Двадцатый Век Фокс СНГ»
    Описание: Боб Сагиновски оказывается в центре ограбления, из-за расследования которого может всплыть прошлое района, когда друзья, семьи и заклятые враги — все работали вместе, чтобы выжить…-Качество исходника: NNM-Club, Общак / The Drop (2014) BDRemux
    Качество: BDRip
    Тип: HD (1080p)
    Контейнер: M4V
    Видео: H.264, 1920x800, 2.40:1, 8 000 Kbps, 23.976 fps
    Аудио 1: Русский/Дублированный (iTunes Russia), AAC / 2.0 / 157 Kbps / 48.0 KHz
    Аудио 2: Английский/Оригинальная дорожка , AAC / 2.0 / 157 Kbps / 48.0 KHz
    Аудио 3: Русский/Дублированный (iTunes Russian), AC-3 / 5.1 / 384 Kbps / 48.0 KHz
    Аудио 4: Английский/Оригинальная дорожка , AC-3 / 5.1 / 640 Kbps / 48.0 KHz
    Субтитры 1: Русские полные
    Субтитры 2: Английские полные
    -

    iTunes Meta Tags

    Sort Name: Drop
    XID: Apple:vendor_id:2014-506490
    contentID: 918226038
    Copyright: © 2014 Twentieth Century Fox Film Corporation. All rights reserved.
    Screenwriters: Деннис Лихейн
    Producers: Питер Чернин, Дилан Кларк, Майк Ларокка
    Director: Михаэль Р. Роскам
    Cast: Том Харди, Нуми Рапас, Джеймс Гандольфини, Маттиас Шонартс, Джон Ортис, Элизабет Родригес, Майкл Аронов, Морган Спектор, Майкл Эспер, Росс Бикелл, Сергей Чихачев
    Studio: Fox Searchlight
    Rating: 11
    Long Description: Боб Сагиновски оказывается в центре ограбления, из-за расследования которого может всплыть прошлое района, когда друзья, семьи и заклятые враги - все работали вместе, чтобы выжить...
    Description: Боб Сагиновски оказывается в центре ограбления, из-за расследования которого может всплыть прошлое района, когда друзья, семьи и заклятые враги - все работали вместе, чтобы выжить...
    Release Date: 2014-09-05T08:00:00Z
    Genre: Drama
    Artist: Michaël R. Roskam
    Name: The Drop

    MediaInfo

    General
    Complete name                            : /Users/imac/HandBrake/The Drop (1080p HD).m4v
    Format                                   : MPEG-4
    Codec ID                                 : M4V
    File size                                : 6.96 GiB
    Duration                                 : 1h 46mn
    Overall bit rate mode                    : Variable
    Overall bit rate                         : 9 338 Kbps
    Movie name                               : The Drop
    Performer                                : Michaël R. Roskam
    Genre                                    : Drama
    Recorded date                            : UTC 2014-09-05 08:00:00
    Encoded date                             : UTC 2015-01-01 12:18:48
    Tagged date                              : UTC 2015-01-01 12:21:47
    Copyright                                : © 2014 Twentieth Century Fox Film Corporation. All rights reserved.
    Cover                                    : Yes
    sonm                                     : Drop
    desc                                     : Боб Сагиновски оказывается в центре ограбления, из-за расследования которого может всплыть прошлое района, когда друзья, семьи и заклятые враги - все работали вместе, чтобы выжить...
    ldes                                     : Боб Сагиновски оказывается в центре ограбления, из-за расследования которого может всплыть прошлое района, когда друзья, семьи и заклятые враги - все работали вместе, чтобы выжить...
    hdvd                                     : 2
    stik                                     : 9
    rtng                                     : 0
    cnID                                     : 918226038
    xid                                      : Apple:vendor_id:2014-506490
    iTunEXTC                                 : mpaa|R|400|
    iTunMOVI                                 : <?xml version=\"1.0\" encoding=\"UTF-8\"?> / <!DOCTYPE plist PUBLIC \"-//Apple//DTD PLIST 1.0//EN\" \"http://anonym.to/?http://www.apple.com/DTDs/PropertyList-1.0.dtd\"> / <plist version=\"1.0\"> / <dict> /  <key>cast</key> /  <array> /   <dict> /    <key>name</key> /    <string>Том Харди</string> /   </dict> /   <dict> /    <key>name</key> /    <string>Нуми Рапас</string> /   </dict> /   <dict> /    <key>name</key> /    <string>Джеймс Гандольфини</string> /   </dict> /   <dict> /    <key>name</key> /    <string>Маттиас Шонартс</string> /   </dict> /   <dict> /    <key>name</key> /    <string>Джон Ортис</string> /   </dict> /   <dict> /    <key>name</key> /    <string>Элизабет Родригес</string> /   </dict> /   <dict> /    <key>name</key> /    <string>Майкл Аронов</string> /   </dict> /   <dict> /    <key>name</key> /    <string>Морган Спектор</string> /   </dict> /   <dict> /    <key>name</key> /    <string>Майкл Эспер</string> /   </dict> /   <dict> /    <key>name</key> /    <string>Росс Бикелл</string> /   </dict> /   <dict> /    <key>name</key> /    <string>Сергей Чихачев</string> /   </dict> /  </array> /  <key>directors</key> /  <array> /   <dict> /    <key>name</key> /    <string>Михаэль Р. Роскам</string> /   </dict> /  </array> /  <key>producers</key> /  <array> /   <dict> /    <key>name</key> /    <string>Питер Чернин</string> /   </dict> /   <dict> /    <key>name</key> /    <string>Дилан Кларк</string> /   </dict> /   <dict> /    <key>name</key> /    <string>Майк Ларокка</string> /   </dict> /  </array> /  <key>screenwriters</key> /  <array> /   <dict> /    <key>name</key> /    <string>Деннис Лихейн</string> /   </dict> /  </array> /  <key>studio</key> /  <string>Fox Searchlight</string> / </dict> / </plist>
    Video #1
    ID                                       : 1
    Format                                   : AVC
    Format/Info                              : Advanced Video Codec
    Format profile                           : High@L4.0
    Format settings, CABAC                   : Yes
    Format settings, ReFrames                : 4 frames
    Codec ID                                 : avc1
    Codec ID/Info                            : Advanced Video Coding
    Duration                                 : 1h 46mn
    Bit rate mode                            : Variable
    Bit rate                                 : 8 000 Kbps
    Width                                    : 1 920 pixels
    Height                                   : 800 pixels
    Display aspect ratio                     : 2.40:1
    Frame rate mode                          : Variable
    Frame rate                               : 23.976 fps
    Minimum frame rate                       : 23.974 fps
    Maximum frame rate                       : 23.981 fps
    Color space                              : YUV
    Chroma subsampling                       : 4:2:0
    Bit depth                                : 8 bits
    Scan type                                : Progressive
    Bits/(Pixel*Frame)                       : 0.217
    Stream size                              : 5.96 GiB (86%)
    Writing library                          : x264 core 142 r2479 dd79a61
    Encoding settings                        : cabac=1 / ref=4 / deblock=1:0:0 / analyse=0x3:0x133 / me=umh / subme=10 / psy=1 / psy_rd=1.00:0.00 / mixed_ref=1 / me_range=32 / chroma_me=1 / trellis=2 / 8x8dct=1 / cqm=0 / deadzone=21,11 / fast_pskip=1 / chroma_qp_offset=-2 / threads=36 / lookahead_threads=4 / sliced_threads=0 / nr=0 / decimate=1 / interlaced=0 / bluray_compat=0 / constrained_intra=0 / bframes=4 / b_pyramid=2 / b_adapt=2 / b_bias=0 / direct=3 / weightb=1 / open_gop=0 / weightp=2 / keyint=240 / keyint_min=24 / scenecut=40 / intra_refresh=0 / rc_lookahead=40 / rc=2pass / mbtree=0 / bitrate=8000 / ratetol=1.0 / qcomp=0.60 / qpmin=0 / qpmax=69 / qpstep=4 / cplxblur=20.0 / qblur=0.5 / vbv_maxrate=25000 / vbv_bufsize=25000 / nal_hrd=none / filler=0 / ip_ratio=1.40 / pb_ratio=1.30 / aq=1:1.00
    Language                                 : English
    Encoded date                             : UTC 2015-01-01 12:18:48
    Tagged date                              : UTC 2015-01-01 12:18:58
    Color primaries                          : BT.709-5, BT.1361, IEC 61966-2-4, SMPTE RP177
    Transfer characteristics                 : BT.709-5, BT.1361
    Matrix coefficients                      : BT.709-5, BT.1361, IEC 61966-2-4 709, SMPTE RP177
    Video #2
    ID                                       : 9
    Format                                   : JPEG
    Codec ID                                 : jpeg
    Duration                                 : 1h 46mn
    Bit rate mode                            : Variable
    Bit rate                                 : 1 488 bps
    Width                                    : 640 pixels
    Height                                   : 266 pixels
    Display aspect ratio                     : 2.40:1
    Frame rate mode                          : Variable
    Frame rate                               : 0.005 fps
    Minimum frame rate                       : 0.003 fps
    Maximum frame rate                       : 0.013 fps
    Color space                              : YUV
    Chroma subsampling                       : 4:2:0
    Bit depth                                : 8 bits
    Compression mode                         : Lossy
    Bits/(Pixel*Frame)                       : 1.748
    Stream size                              : 1.14 MiB (0%)
    Language                                 : English
    Encoded date                             : UTC 2015-01-01 12:19:15
    Tagged date                              : UTC 2015-01-01 12:19:16
    Audio #1
    ID                                       : 2
    Format                                   : AAC
    Format/Info                              : Advanced Audio Codec
    Format profile                           : LC
    Codec ID                                 : 40
    Duration                                 : 1h 46mn
    Bit rate mode                            : Variable
    Bit rate                                 : 157 Kbps
    Maximum bit rate                         : 227 Kbps
    Channel(s)                               : 2 channels
    Channel positions                        : Front: L R
    Sampling rate                            : 48.0 KHz
    Compression mode                         : Lossy
    Stream size                              : 119 MiB (2%)
    Language                                 : Russian
    Encoded date                             : UTC 2015-01-01 12:18:48
    Tagged date                              : UTC 2015-01-01 12:19:01
    Audio #2
    ID                                       : 3
    Format                                   : AAC
    Format/Info                              : Advanced Audio Codec
    Format profile                           : LC
    Codec ID                                 : 40
    Duration                                 : 1h 46mn
    Bit rate mode                            : Variable
    Bit rate                                 : 157 Kbps
    Maximum bit rate                         : 237 Kbps
    Channel(s)                               : 2 channels
    Channel positions                        : Front: L R
    Sampling rate                            : 48.0 KHz
    Compression mode                         : Lossy
    Stream size                              : 120 MiB (2%)
    Language                                 : English
    Encoded date                             : UTC 2015-01-01 12:18:48
    Tagged date                              : UTC 2015-01-01 12:19:01
    Audio #3
    ID                                       : 4
    Format                                   : AC-3
    Format/Info                              : Audio Coding 3
    Mode extension                           : CM (complete main)
    Format settings, Endianness              : Big
    Codec ID                                 : ac-3
    Duration                                 : 1h 46mn
    Bit rate mode                            : Constant
    Bit rate                                 : 384 Kbps
    Channel(s)                               : 6 channels
    Channel positions                        : Front: L C R, Side: L R, LFE
    Sampling rate                            : 48.0 KHz
    Bit depth                                : 16 bits
    Compression mode                         : Lossy
    Stream size                              : 293 MiB (4%)
    Language                                 : Russian
    Encoded date                             : UTC 2015-01-01 12:18:48
    Tagged date                              : UTC 2015-01-01 12:18:59
    Audio #4
    ID                                       : 5
    Format                                   : AC-3
    Format/Info                              : Audio Coding 3
    Mode extension                           : CM (complete main)
    Format settings, Endianness              : Big
    Codec ID                                 : ac-3
    Duration                                 : 1h 46mn
    Bit rate mode                            : Constant
    Bit rate                                 : 640 Kbps
    Channel(s)                               : 6 channels
    Channel positions                        : Front: L C R, Side: L R, LFE
    Sampling rate                            : 48.0 KHz
    Bit depth                                : 16 bits
    Compression mode                         : Lossy
    Stream size                              : 489 MiB (7%)
    Language                                 : English
    Encoded date                             : UTC 2015-01-01 12:18:48
    Tagged date                              : UTC 2015-01-01 12:18:59
    Text #1
    ID                                       : 6
    Format                                   : Timed text
    Muxing mode                              : sbtl
    Codec ID                                 : tx3g
    Duration                                 : 1h 42mn
    Bit rate mode                            : Variable
    Bit rate                                 : 89 bps
    Stream size                              : 67.1 KiB (0%)
    Language                                 : Russian
    Encoded date                             : UTC 2015-01-01 12:18:48
    Tagged date                              : UTC 2015-01-01 12:18:48
    Text #2
    ID                                       : 7
    Format                                   : Timed text
    Muxing mode                              : sbtl
    Codec ID                                 : tx3g
    Duration                                 : 1h 40mn
    Bit rate mode                            : Variable
    Bit rate                                 : 62 bps
    Stream size                              : 46.0 KiB (0%)
    Language                                 : English
    Encoded date                             : UTC 2015-01-01 12:18:48
    Tagged date                              : UTC 2015-01-01 12:18:48
    Text #3
    ID                                       : 8
    Format                                   : Apple text
    Codec ID                                 : text
    Duration                                 : 1h 46mn
    Bit rate mode                            : Variable
    Bit rate                                 : 1 bps
    Stream size                              : 759 Bytes (0%)
    Language                                 : English
    Encoded date                             : UTC 2015-01-01 12:19:01
    Tagged date                              : UTC 2015-01-01 12:19:01
    Menu
    00:00:00.000                             : Chapter 1
    00:02:25.437                             : Chapter 2
    00:05:59.943                             : Chapter 3
    00:08:09.239                             : Chapter 4
    00:11:34.861                             : Chapter 5
    00:13:48.828                             : Chapter 6
    00:17:29.006                             : Chapter 7
    00:21:37.296                             : Chapter 8
    00:25:40.080                             : Chapter 9
    00:27:53.547                             : Chapter 10
    00:32:02.420                             : Chapter 11
    00:36:19.636                             : Chapter 12
    00:38:15.335                             : Chapter 13
    00:40:35.224                             : Chapter 14
    00:44:05.560                             : Chapter 15
    00:46:47.555                             : Chapter 16
    00:48:42.795                             : Chapter 17
    00:52:50.667                             : Chapter 18
    00:56:28.260                             : Chapter 19
    01:01:40.614                             : Chapter 20
    01:05:42.272                             : Chapter 21
    01:07:36.886                             : Chapter 22
    01:11:13.603                             : Chapter 23
    01:12:31.806                             : Chapter 24
    01:15:09.588                             : Chapter 25
    01:21:11.825                             : Chapter 26
    01:24:10.170                             : Chapter 27
    01:28:27.344                             : Chapter 28
    01:30:51.488                             : Chapter 29
    01:34:54.564                             : Chapter 30
    01:39:00.977                             : Chapter 31
    01:41:16.320                             : Chapter 32

    x264 лог

    x264 [info]: frame I:1271  Avg QP:15.03  size:284040
    x264 [info]: frame P:37650 Avg QP:16.64  size: 75651
    x264 [info]: frame B:114622 Avg QP:18.38  size: 27815
    x264 [info]: consecutive B-frames:  1.7%  3.1% 13.5% 25.4% 56.3%
    x264 [info]: mb I  I16..4: 12.0% 80.0%  8.0%
    x264 [info]: mb P  I16..4:  0.7% 10.7%  0.6%  P16..4: 38.6% 25.6% 16.4%  0.3%  0.1%    skip: 7.0%
    x264 [info]: mb B  I16..4:  0.1%  0.9%  0.0%  B16..8: 45.9% 10.4%  2.9%  direct: 6.0%  skip:33.9%  L0:43.2% L1:48.8% BI: 7.9%
    x264 [info]: 8x8 transform intra:87.7% inter:60.5%
    x264 [info]: direct mvs  spatial:98.5% temporal:1.5%
    x264 [info]: coded y,uvDC,uvAC intra: 95.4% 88.1% 74.1% inter: 30.9% 27.0% 7.1%
    x264 [info]: i16 v,h,dc,p: 23%  7% 20% 50%
    x264 [info]: i8 v,h,dc,ddl,ddr,vr,hd,vl,hu:  9%  7% 10% 11% 14% 14% 13% 12% 12%
    x264 [info]: i4 v,h,dc,ddl,ddr,vr,hd,vl,hu:  8%  6%  4% 11% 16% 16% 15% 12% 12%
    x264 [info]: i8c dc,h,v,p: 51% 16% 16% 17%
    x264 [info]: Weighted P-Frames: Y:1.5% UV:0.9%
    x264 [info]: ref P L0: 50.1%  9.5% 28.0% 10.6%  1.8%  0.0%
    x264 [info]: ref B L0: 81.4% 14.7%  4.0%
    x264 [info]: ref B L1: 89.2% 10.8%
    x264 [info]: kb/s:7991.89

    Скриншоты

    -

    Релиз подготовлен для просмотра на Apple TV, iPad, iPhone, iPod Touch.
    Для просмотра данного релиза на компьютере с ОС Windows рекомендуется использовать VLC media player
    Скачать .torrent

    Скачать торрент-файл бесплатно и на максимальной скорости!

    Как скачивать? · Что такое торрент? · Рейтинг и ограничения

    !ВНИМАНИЕ!
    Сайт не распространяет и не хранит электронные версии произведений, а занимается лишь лишь предоставлением доступа к создаваемому пользователями каталогу ссылок на торрент-файлы, которые содержат только списки хеш-сумм, убедительная просьба с жалобами обращаться напрямую к пользователю. Файлы для обмена на трекере предоставлены пользователями сайта, и администрация не несёт ответственности за их содержание. Просьба не заливать файлы, защищенные авторскими правами, а также файлы нелегального содержания!


    _________________
    [Профиль] [ЛС]
    Показать сообщения:    
    Ответить на тему

    Текущее время: Сегодня, в 09:04

    Часовой пояс: GMT + 2



    Вы не можете начинать темы
    Вы не можете отвечать на сообщения
    Вы не можете редактировать свои сообщения
    Вы не можете удалять свои сообщения
    Вы не можете голосовать в опросах
    Вы не можете прикреплять файлы к сообщениям
    Вы не можете скачивать файлы