BitTorrentTracker PerecTracker.org
BitTorrentTracker PerecTracker.org
    
Регистрация  ·  Вход
 
 · 
Забыли пароль?

  • Weekend / Уик-энд (Станислав Говорухин) [2013, Россия, драма, детектив, криминал, WEB-DL HD (720p)] Original

    Ответить на тему
     
    Автор Сообщение

    Flirldrerve

    Создавать темы 27-Окт-2015 05:19

           

    [Цитировать]

    Weekend / Уик-энд
    6.036 / 10
    -Год выпуска: 2013
    Страна: Россия
    Жанр: драма, детектив, криминал
    Продолжительность: 95 мин.
    Перевод: Не требуется
    Оригинальная аудиодорожка: Есть
    Cубтитры: Нет
    Режиссёр: Станислав Говорухин
    Сценарий: Станислав Говорухин
    Продюсер: Станислав Говорухин, Екатерина Маскина
    Оператор: Юрий Клименко
    Композитор: Артем Васильев
    Художник: Валентин Гидулянов
    В ролях: Максим Матвеев, Вячеслав Чепурченко, Виктор Сухоруков, Екатерина Гусева, Александр Домогаров, Татьяна Коновалова, Марина Орлова, Мария Тверитнева, Юлия Хлынина, Юлия Пересильд
    Мировая премьера: 16 октября 2014
    Премьера (РФ): 16 октября 2014, Люксор
    Релиз на DVD: 18 ноября 2014, CD Land
    Описание: Главное действующее лицо фильма - Игорь Лебедев - финансовый директор крупной корпорации. Он совершает убийство бухгалтера, который знал о его нечистых махинациях и пытался восстановить справедливость.-Качество исходника: WEB-DL 720p (HDClub)
    Качество: WEB-DL
    Тип: 720p
    Контейнер: m4v
    Видео: 1280x720 at 24.000 fps, MPEG-4 AVC, ~4000 kbps avg
    Аудио#1: Russian: 48 kHz, ААС, 2/0 (L,R), ~160.00 kbps avg
    Аудио#2: Russian: 48 kHz, AC3, 3/2 (L,C,R,l,r) + LFE ch, ~384.00 kbps avg-

    iTunes Meta Tags for country ru

    Name: Уик-энд
    Artist: Станислав Говорухин
    Genre: Drama
    Release Date: 2014-10-16T08:00:00Z
    Description: Главное действующее лицо фильма - Игорь Лебедев - финансовый директор крупной корпорации. Он совершает убийство бухгалтера, который знал о его нечистых махинациях и пытался восстановить справедливость.
    Long Description: Главное действующее лицо фильма - Игорь Лебедев - финансовый директор крупной корпорации. Он совершает убийство бухгалтера, который знал о его нечистых махинациях и пытался восстановить справедливость.
    Rating: 16+
    Studio: Киностудия Вертикаль
    Cast: Максим Матвеев, Вячеслав Чепурченко, Виктор Сухоруков, Екатерина Гусева, Александр Домогаров, Татьяна Коновалова, Марина Орлова, Мария Тверитнева, Юлия Хлынина, Юлия Пересильд
    Director: Станислав Говорухин
    Producers: Станислав Говорухин, Екатерина Маскина
    Screenwriters: Станислав Говорухин
    Copyright: © 2013 ООО Киностудия Вертикаль
    contentID: 928088789
    XID: Apple:vendor_id:2013-653685
    Sort Name: Уик-энд

    MediaInfo 720p Release

    General
    Complete name : Уик-энд (HD).m4v
    Format : MPEG-4
    Codec ID : M4V
    File size : 3.06 GiB
    Duration : 1h 36mn
    Overall bit rate mode : Variable
    Overall bit rate : 4 530 Kbps
    Movie name : Уик-энд
    Performer : Станислав Говорухин
    Genre : Drama
    ContentType : Short Film
    Description : Главное действующее лицо фильма - Игорь Лебедев - финансовый директор крупной корпорации. Он совершает убийство бухгалтера, который знал о его нечистых махинациях и пытался восстановить справедливость.
    Recorded date : UTC 2014-10-16 08:00:00
    Encoded date : UTC 2015-01-12 11:13:43
    Tagged date : UTC 2015-01-12 11:23:56
    Copyright : © 2013 ООО Киностудия Вертикаль
    Cover : Yes
    Rating : None
    Title/Sort : Уик-энд
    LongDescription : Главное действующее лицо фильма - Игорь Лебедев - финансовый директор крупной корпорации. Он совершает убийство бухгалтера, который знал о его нечистых махинациях и пытался восстановить справедливость.
    HDVideo : Yes
    AppleStoreCatalogID : 928088789
    Vendor : Apple:vendor_id:2013-653685
    ContentRating : ru-movie|16+|375|
    iTunMOVI : <?xml version="1.0" encoding="UTF-8"?> / <!DOCTYPE plist PUBLIC "-//Apple//DTD PLIST 1.0//EN" "http://anonym.to/?http://www.apple.com/DTDs/PropertyList-1.0.dtd"> / <plist version="1.0"> / <dict> /  <key>cast</key> /  <array> /   <dict> /    <key>name</key> /    <string>Максим Матвеев</string> /   </dict> /   <dict> /    <key>name</key> /    <string>Вячеслав Чепурченко</string> /   </dict> /   <dict> /    <key>name</key> /    <string>Виктор Сухоруков</string> /   </dict> /   <dict> /    <key>name</key> /    <string>Екатерина Гусева</string> /   </dict> /   <dict> /    <key>name</key> /    <string>Александр Домогаров</string> /   </dict> /   <dict> /    <key>name</key> /    <string>Татьяна Коновалова</string> /   </dict> /   <dict> /    <key>name</key> /    <string>Марина Орлова</string> /   </dict> /   <dict> /    <key>name</key> /    <string>Мария Тверитнева</string> /   </dict> /   <dict> /    <key>name</key> /    <string>Юлия Хлынина</string> /   </dict> /   <dict> /    <key>name</key> /    <string>Юлия Пересильд</string> /   </dict> /  </array> /  <key>directors</key> /  <array> /   <dict> /    <key>name</key> /    <string>Станислав Говорухин</string> /   </dict> /  </array> /  <key>producers</key> /  <array> /   <dict> /    <key>name</key> /    <string>Станислав Говорухин</string> /   </dict> /   <dict> /    <key>name</key> /    <string>Екатерина Маскина</string> /   </dict> /  </array> /  <key>screenwriters</key> /  <array> /   <dict> /    <key>name</key> /    <string>Станислав Говорухин</string> /   </dict> /  </array> /  <key>studio</key> /  <string>Киностудия Вертикаль</string> / </dict> / </plist>
    Video #1
    ID : 1
    Format : AVC
    Format/Info : Advanced Video Codec
    Format profile : High@L3.1
    Format settings, CABAC : No
    Format settings, ReFrames : 2 frames
    Format settings, GOP : M=2, N=87
    Codec ID : avc1
    Codec ID/Info : Advanced Video Coding
    Duration : 1h 36mn
    Bit rate : 3 972 Kbps
    Width : 1 280 pixels
    Height : 720 pixels
    Display aspect ratio : 16:9
    Frame rate mode : Variable
    Frame rate : 24.000 fps
    Minimum frame rate : 23.810 fps
    Maximum frame rate : 24.390 fps
    Color space : YUV
    Chroma subsampling : 4:2:0
    Bit depth : 8 bits
    Scan type : Progressive
    Bits/(Pixel*Frame) : 0.180
    Stream size : 2.69 GiB (88%)
    Language : Russian
    Encoded date : UTC 2015-01-12 11:13:43
    Tagged date : UTC 2015-01-12 11:21:54
    Color primaries : BT.709
    Transfer characteristics : BT.709
    Matrix coefficients : BT.709
    Video #2
    ID : 5
    Format : JPEG
    Codec ID : jpeg
    Duration : 1h 36mn
    Bit rate mode : Variable
    Bit rate : 1 008 bps
    Width : 640 pixels
    Height : 360 pixels
    Display aspect ratio : 16:9
    Frame rate mode : Variable
    Frame rate : 0.003 fps
    Minimum frame rate : 0.002 fps
    Maximum frame rate : 0.004 fps
    Color space : YUV
    Chroma subsampling : 4:2:0
    Bit depth : 8 bits
    Compression mode : Lossy
    Bits/(Pixel*Frame) : 1.458
    Stream size : 779 KiB (0%)
    Language : Russian
    Encoded date : UTC 2015-01-12 11:21:59
    Tagged date : UTC 2015-01-12 11:22:00
    Audio #1
    ID : 2
    Format : AAC
    Format/Info : Advanced Audio Codec
    Format profile : LC
    Codec ID : 40
    Duration : 1h 36mn
    Bit rate mode : Variable
    Bit rate : 165 Kbps
    Maximum bit rate : 256 Kbps
    Channel(s) : 2 channels
    Channel positions : Front: L R
    Sampling rate : 48.0 KHz
    Compression mode : Lossy
    Stream size : 114 MiB (4%)
    Language : Russian
    Encoded date : UTC 2015-01-12 11:13:43
    Tagged date : UTC 2015-01-12 11:15:41
    Audio #2
    ID : 3
    Format : AC-3
    Format/Info : Audio Coding 3
    Mode extension : CM (complete main)
    Format settings, Endianness : Big
    Codec ID : ac-3
    Duration : 1h 36mn
    Bit rate mode : Constant
    Bit rate : 384 Kbps
    Channel(s) : 6 channels
    Channel positions : Front: L C R, Side: L R, LFE
    Sampling rate : 48.0 KHz
    Bit depth : 16 bits
    Compression mode : Lossy
    Stream size : 266 MiB (8%)
    Language : Russian
    Encoded date : UTC 2015-01-12 11:13:43
    Tagged date : UTC 2015-01-12 11:21:54
    Menu #1
    00:00:00.000 : 1
    00:06:44.000 : 2
    00:10:57.000 : 3
    00:15:20.000 : 4
    00:20:02.000 : 5
    00:26:14.000 : 6
    00:30:49.000 : 7
    00:35:44.000 : 8
    00:41:52.000 : 9
    00:45:36.000 : 10
    00:49:53.000 : 11
    00:54:37.000 : 12
    01:02:21.000 : 13
    01:07:29.000 : 14
    01:12:06.000 : 15
    01:16:56.000 : 16
    01:22:40.000 : 17
    01:27:00.000 : 18
    01:31:11.000 : 19
    Menu #2
    ID : 4
    Codec ID : text
    Duration : 1h 36mn
    Language : Russian
    Encoded date : UTC 2015-01-12 11:21:55
    Tagged date : UTC 2015-01-12 11:21:55
    00:00:00.000 : 1
    00:06:44.000 : 2
    00:10:57.000 : 3
    00:15:20.000 : 4
    00:20:02.000 : 5
    00:26:14.000 : 6
    00:30:49.000 : 7
    00:35:44.000 : 8
    00:41:52.000 : 9
    00:45:36.000 : 10
    00:49:53.000 : 11
    00:54:37.000 : 12
    01:02:21.000 : 13
    01:07:29.000 : 14
    01:12:06.000 : 15
    01:16:56.000 : 16
    01:22:40.000 : 17
    01:27:00.000 : 18
    01:31:11.000 : 19
    Bit rate mode : VBR

    Скриншоты 720p Release

    -

    Релиз подготовлен для просмотра на Apple TV, iPad, iPhone, iPod Touch.
    Для просмотра данного релиза на компьютере с ОС Windows рекомендуется использовать VLC media player
    Скачать .torrent

    Скачать торрент-файл бесплатно и на максимальной скорости!

    Как скачивать? · Что такое торрент? · Рейтинг и ограничения

    !ВНИМАНИЕ!
    Сайт не распространяет и не хранит электронные версии произведений, а занимается лишь лишь предоставлением доступа к создаваемому пользователями каталогу ссылок на торрент-файлы, которые содержат только списки хеш-сумм, убедительная просьба с жалобами обращаться напрямую к пользователю. Файлы для обмена на трекере предоставлены пользователями сайта, и администрация не несёт ответственности за их содержание. Просьба не заливать файлы, защищенные авторскими правами, а также файлы нелегального содержания!


    _________________
    [Профиль] [ЛС]
    Показать сообщения:    
    Ответить на тему

    Текущее время: Сегодня, в 04:12

    Часовой пояс: GMT + 2



    Вы не можете начинать темы
    Вы не можете отвечать на сообщения
    Вы не можете редактировать свои сообщения
    Вы не можете удалять свои сообщения
    Вы не можете голосовать в опросах
    Вы не можете прикреплять файлы к сообщениям
    Вы не можете скачивать файлы