BitTorrentTracker PerecTracker.org
BitTorrentTracker PerecTracker.org
    
Регистрация  ·  Вход
 
 · 
Забыли пароль?

  • Исчезнувшая / Gone Girl (Дэвид Финчер) [2014, США, триллер, драма, детектив, BDRip HD (720p), SD] DUB, AVO, Original + SUB (rus, ukr, eng)

    Ответить на тему
     
    Автор Сообщение

    Flirldrerve

    Создавать темы 27-Окт-2015 05:19

           

    [Цитировать]

    Исчезнувшая / Gone Girl
    "Что имеем — не храним, потерявши — плачем"
    8.630 / 10
    -Год выпуска: 2014
    Страна: США
    Жанр: триллер, драма, детектив
    Продолжительность: 149 мин.
    Перевод: Профессиональный дублированный перевод и одноголосый закадровый авторский перевод
    Оригинальная аудиодорожка: Есть
    Cубтитры: Русские форсированные, русские полные, украинские форсированные, украинские полные, английские полные и английские полные SDH
    Режиссёр: Дэвид Финчер
    Сценарий: Гиллиан Флинн
    Продюсер: Сиан Чаффин, Джошуа Донен, Арнон Милчэн
    Оператор: Джефф Кроненвет
    Композитор: Трент Резнор, Аттикус Росс
    Художник: Дональд Грэхэм Берт, Сью Чан, Доун Свидерский
    Монтаж: Кирк Бакстер
    В ролях: Бен Аффлек, Розамунд Пайк, Кэрри Кун, Ким Диккенс, Нил Патрик Харрис, Тайлер Перри, Патрик Фьюджит, Бойд Холбрук, Мисси Пайл, Эмили Ратажковски, Скут МакНэйри
    Роли дублировали: Пётр Иващенко, Ирина Киреева, Лариса Некипелова, Татьяна Шитова, Василий Дахненко
    Бюджет: $61 000 000
    Сборы в США: $167 146 444
    Сборы в мире: + $198 200 000 = $365 346 444
    Сборы в России: $11 601 978
    Мировая премьера: 26 сентября 2014
    Премьера (РФ): 2 октября 2014, Двадцатый Век Фокс СНГ
    Релиз на Blu-Ray: 31 декабаря 2014, Двадцатый Век Фокс СНГ
    Релиз на DVD: 31 декабря 2014, Двадцатый Век Фокс СНГ
    Описание: Все было готово для празднования пятилетнего юбилея супружеской жизни, когда вдруг необъяснимо пропал один из виновников торжества. Остались следы борьбы в доме, кровь, которую явно пытались стереть, - и цепочка "ключей" в игре под названием "охота за сокровищами"; красивая, умная и невероятно изобретательная жена ежегодно устраивала ее для своего обожаемого мужа. И похоже, что эти "ключи" - размещенные ею тут и там странные записки и не менее странные безделушки - дают единственный шанс пролить свет на судьбу исчезнувшей. Вот только не придется ли "охотнику" в процессе поиска раскрыть миру и пару-тройку собственных малосимпатичных тайн?-Качество исходника: Blu-Ray 1080p (HDClub)
    Качество: BDRip
    Тип: 480p 720p
    Контейнер: m4v
    Видео: 640x356 анаморф 852x356 at 23.976 fps, MPEG-4 AVC, ~1400 kbps avg
    Видео: 1280x532 at 23.976 fps, MPEG-4 AVC, ~4500 kbps avg
    Аудио#1: Russian: 48 kHz, ААС, 2/0 (L,R), ~128.00 / 192.00 kbps avg |Дубляж, Blu-ray CEE|
    Аудио#2: Russian: 48 kHz, ААС, 2/0 (L,R), ~128.00 / 192.00 kbps avg |Одноголосый закадровый, А. Матвеев|
    Аудио#3: Ukrainian: 48 kHz, ААС, 2/0 (L,R), ~128.00 / 192.00 kbps avg |Дубляж, Blu-ray CEE|
    Аудио#4: English: 48 kHz, ААС, 2/0 (L,R), ~128.00 / 192.00 kbps avg
    Аудио#5: English: 48 kHz, ААС, 2/0 (L,R), ~128.00 kbps avg |Commentary with Director David Fincher|
    Аудио#6: Russian: 48 kHz, AC3, 3/2 (L,C,R,l,r) + LFE ch, ~640.00 kbps avg |Дубляж, Blu-ray CEE|
    Аудио#7: Ukrainian: 48 kHz, AC3, 3/2 (L,C,R,l,r) + LFE ch, ~448.00 kbps avg |Дубляж, Blu-ray CEE|
    Аудио#8: English: 48 kHz, AC3, 3/2 (L,C,R,l,r) + LFE ch, ~640.00 kbps avg
    Субтитры №1: Russian: |Форсированные|
    Субтитры №2: Ukrainian: |Форсированные|
    Субтитры №3: Russian: |Полные|
    Субтитры №4: Ukrainian: |Полные|
    Субтитры №5: English: |Полные, 1 вариант|
    Субтитры №6: English: |Полные, 2 вариант|
    Субтитры №7: English: |Полные, SDH|
    Субтитры №8: Russian: |Полные, комментарии с режиссером Дэвидом Финчером|-

    Знаете ли Вы, что...

  • Фильм снят по мотивам романа Гиллиан Флинн «Исчезнувшая» (Gone Girl, 2012).
  • Одна из сцен фильма происходит в Миссури, в заброшенном торговом центре, ставшем своего рода Меккой для бродяг. Эти сцены снимались в Лос-Анджелесе: наружные съемки проходили возле закрытого магазина Montgomery Ward, а интерьеры снимались в огромном центре Hawthorne Mall.
  • Бен Аффлек отложил работу над собственным фильмом ради того, чтобы поработать с Дэвидом Финчером. Аффлек сказал: «Он единственный режиссер из всех, что я знаю, который может выполнить чью угодно работу лучше тех людей, которые ей занимаются». Однажды на съемочной площадке Аффлек слегка изменил настройки камеры, поспорив с членом съемочной группы, что Финчер этого не заметит. Но когда начались съемки, Финчер сразу спросил – почему изображение выглядит немного тусклым.
  • Риз Уизерспун, Шарлиз Терон, Натали Портман, Эмили Блант, Руни Мара, Оливия Уайлд, Эбби Корниш и Джулианна Хаф рассматривались на роль Эми Данн.
  • Это первый полнометражный фильм, снятый полностью в разрешении 6k (6144 x 3160).
  • Несмотря на то что события фильма развиваются в Северном Картаже (штат Миссури), съемки проходили в Кейп-Джирардо (штат Миссури). Кастинг статистов прошел в Rose Theatre в Университете штата в Юго-Восточном Миссури, который также расположен в Кейп-Джирардо.
  • День рождения Бена Аффлека совпадает с днем рождения его персонажа Ника — 15 августа.
  • Автор романа-первоисточника Гиллиан Флинн написала несколько вариантов финала сценария фильма, чтобы сохранить интерес читателей и зрителей, а также чтобы избежать спойлеров.
  • В одном из эпизодов фильма Нил сравнивает Эми с Элизабет Беннет — главной героиней романа Джейн Остин «Гордость и предубеждение». Розамунд Пайк, сыгравшая роль Эми, также сыграла сестру Элизабет — Джейн Беннет в постановке 2005 года.
  • Готовясь к съемкам, Бен Аффлек разыскал нескольких мужчин, которые были обвинены в убийстве своих жен и осуждены, и побеседовал с ними. В частности, собеседником Аффлека стал Скотт Петерсон, ожидающий исполнения смертного приговора в калифорнийской тюрьме.
  • Ошибки в фильме
  • В одном из эпизодов, действие которого, согласно сюжету, разворачивается в 2010 году, герой Бена Аффлека играет в видеоигру. Он никак не мог играть в эту игру, т. к. она вышла только в 2011 году. Речь идет о «Battlefield 3».
    -

    iTunes Meta Tags for country ru

    Name: Исчезнувшая
    Artist: David Fincher
    Genre: Drama
    Release Date: 2014-09-26T08:00:00Z
    Description: День, который должен был стать праздником, обернулся кошмаром: пятая годовщина свадьбы ознаменовалась исчезновением Эми. Следы, улики, логика – всё указывает на вину ее мужа Ника. Но как-то слишком безупречно выстраивается сценарий преступления. Только найденный дневник Эми расставляет всё по своим местам, и злодейство приобретает совсем иной характер...
    Long Description: Все было готово для празднования пятилетнего юбилея супружеской жизни, когда вдруг необъяснимо пропал один из виновников торжества. Остались следы борьбы в доме, кровь, которую явно пытались стереть, - и цепочка "ключей" в игре под названием "охота за сокровищами"; красивая, умная и невероятно изобретательная жена ежегодно устраивала ее для своего обожаемого мужа. И похоже, что эти "ключи" - размещенные ею тут и там странные записки и не менее странные безделушки - дают единственный шанс пролить свет на судьбу исчезнувшей. Вот только не придется ли "охотнику" в процессе поиска раскрыть миру и пару-тройку собственных малосимпатичных тайн?
    Rating: 16+
    Studio: 20th Century Fox
    Cast: Бен Аффлек, Розамунд Пайк, Кэрри Кун, Ким Диккенс, Нил Патрик Харрис, Тайлер Перри, Патрик Фьюджит, Бойд Холбрук, Мисси Пайл, Эмили Ратажковски, Скут МакНэйри
    Director: Дэвид Финчер
    Producers: Сиан Чаффин, Джошуа Донен, Арнон Милчэн
    Screenwriters: Гиллиан Флинн
    Copyright: © 2014 Twentieth Century Fox Film Corporation. All rights reserved.
    contentID: 917932687
    XID: Apple:vendor_id:2014-692861
    Sort Name: Исчезнувшая

    iTunes Meta Tags for country us

    Name: Gone Girl
    Artist: David Fincher
    Genre: Drama
    Release Date: 2014-09-26T08:00:00Z
    Description: День, который должен был стать праздником, обернулся кошмаром: пятая годовщина свадьбы ознаменовалась исчезновением Эми. Следы, улики, логика – всё указывает на вину ее мужа Ника. Но как-то слишком безупречно выстраивается сценарий преступления. Только найденный дневник Эми расставляет всё по своим местам, и злодейство приобретает совсем иной характер...
    Long Description: Все было готово для празднования пятилетнего юбилея супружеской жизни, когда вдруг необъяснимо пропал один из виновников торжества. Остались следы борьбы в доме, кровь, которую явно пытались стереть, - и цепочка "ключей" в игре под названием "охота за сокровищами"; красивая, умная и невероятно изобретательная жена ежегодно устраивала ее для своего обожаемого мужа. И похоже, что эти "ключи" - размещенные ею тут и там странные записки и не менее странные безделушки - дают единственный шанс пролить свет на судьбу исчезнувшей. Вот только не придется ли "охотнику" в процессе поиска раскрыть миру и пару-тройку собственных малосимпатичных тайн?
    Rating: R
    Rating Annotation: Rated R for a scene of bloody violence, some strong sexual content/nudity, and language.
    Studio: 20th Century Fox
    Cast: Бен Аффлек, Розамунд Пайк, Кэрри Кун, Ким Диккенс, Нил Патрик Харрис, Тайлер Перри, Патрик Фьюджит, Бойд Холбрук, Мисси Пайл, Эмили Ратажковски, Скут МакНэйри
    Director: Дэвид Финчер
    Producers: Сиан Чаффин, Джошуа Донен, Арнон Милчэн
    Screenwriters: Гиллиан Флинн
    Copyright: © 2014 Twentieth Century Fox Film Corporation. All rights reserved.
    contentID: 917874539
    XID: Apple:vendor_id:2014-692861
    Sort Name: Gone Girl

    MediaInfo 480p Release

    General
    Complete name : Gone Girl.m4v
    Format : MPEG-4
    Codec ID : M4V
    File size : 2.15 GiB
    Duration : 2h 29mn
    Overall bit rate mode : Variable
    Overall bit rate : 2 067 Kbps
    Movie name : Gone Girl
    Performer : David Fincher
    Genre : Drama
    ContentType : Short Film
    Description : День, который должен был стать праздником, обернулся кошмаром: пятая годовщина свадьбы ознаменовалась исчезновением Эми. Следы, улики, логика – всё указывает на вину ее мужа Ника. Но как-то слишком безупречно выстраивается сценарий преступления. Только найденный дневник Эми расставляет всё по своим местам, и злодейство приобретает совсем иной характер...
    Recorded date : UTC 2014-09-26 08:00:00
    Encoded date : UTC 2015-01-14 10:02:55
    Tagged date : UTC 2015-01-14 10:37:04
    Copyright : © 2014 Twentieth Century Fox Film Corporation. All rights reserved.
    Cover : Yes
    Rating : None
    Title/Sort : Gone Girl
    LongDescription : Все было готово для празднования пятилетнего юбилея супружеской жизни, когда вдруг необъяснимо пропал один из виновников торжества. Остались следы борьбы в доме, кровь, которую явно пытались стереть, - и цепочка "ключей" в игре под названием "охота за сокровищами"; красивая, умная и невероятно изобретательная жена ежегодно устраивала ее для своего обожаемого мужа. И похоже, что эти "ключи" - размещенные ею тут и там странные записки и не менее странные безделушки - дают единственный шанс пролить свет на судьбу исчезнувшей. Вот только не придется ли "охотнику" в процессе поиска раскрыть миру и пару-тройку собственных малосимпатичных тайн?
    AppleStoreCatalogID : 917874539
    Vendor : Apple:vendor_id:2014-692861
    ContentRating : mpaa|R|400|Rated R for a scene of bloody violence, some strong sexual content/nudity, and language.
    iTunMOVI : <?xml version="1.0" encoding="UTF-8"?> / <!DOCTYPE plist PUBLIC "-//Apple//DTD PLIST 1.0//EN" "http://anonym.to/?http://www.apple.com/DTDs/PropertyList-1.0.dtd"> / <plist version="1.0"> / <dict> /  <key>cast</key> /  <array> /   <dict> /    <key>name</key> /    <string>Бен Аффлек</string> /   </dict> /   <dict> /    <key>name</key> /    <string>Розамунд Пайк</string> /   </dict> /   <dict> /    <key>name</key> /    <string>Кэрри Кун</string> /   </dict> /   <dict> /    <key>name</key> /    <string>Ким Диккенс</string> /   </dict> /   <dict> /    <key>name</key> /    <string>Нил Патрик Харрис</string> /   </dict> /   <dict> /    <key>name</key> /    <string>Тайлер Перри</string> /   </dict> /   <dict> /    <key>name</key> /    <string>Патрик Фьюджит</string> /   </dict> /   <dict> /    <key>name</key> /    <string>Бойд Холбрук</string> /   </dict> /   <dict> /    <key>name</key> /    <string>Мисси Пайл</string> /   </dict> /   <dict> /    <key>name</key> /    <string>Эмили Ратажковски</string> /   </dict> /   <dict> /    <key>name</key> /    <string>Скут МакНэйри</string> /   </dict> /  </array> /  <key>directors</key> /  <array> /   <dict> /    <key>name</key> /    <string>Дэвид Финчер</string> /   </dict> /  </array> /  <key>producers</key> /  <array> /   <dict> /    <key>name</key> /    <string>Сиан Чаффин</string> /   </dict> /   <dict> /    <key>name</key> /    <string>Джошуа Донен</string> /   </dict> /   <dict> /    <key>name</key> /    <string>Арнон Милчэн</string> /   </dict> /  </array> /  <key>screenwriters</key> /  <array> /   <dict> /    <key>name</key> /    <string>Гиллиан Флинн</string> /   </dict> /  </array> /  <key>studio</key> /  <string>20th Century Fox</string> / </dict> / </plist>
    Video #1
    ID : 1
    Format : AVC
    Format/Info : Advanced Video Codec
    Format profile : Baseline@L3.0
    Format settings, CABAC : No
    Format settings, ReFrames : 2 frames
    Codec ID : avc1
    Codec ID/Info : Advanced Video Coding
    Duration : 2h 29mn
    Bit rate : 1 400 Kbps
    Width : 640 pixels
    Height : 356 pixels
    Display aspect ratio : 2.40:1
    Frame rate mode : Variable
    Frame rate : 23.976 fps
    Minimum frame rate : 11.987 fps
    Maximum frame rate : 23.981 fps
    Color space : YUV
    Chroma subsampling : 4:2:0
    Bit depth : 8 bits
    Scan type : Progressive
    Bits/(Pixel*Frame) : 0.256
    Stream size : 1.45 GiB (68%)
    Writing library : x264 core 130 r2273 b3065e6
    Encoding settings : cabac=0 / ref=2 / deblock=1:0:0 / analyse=0x1:0x111 / me=umh / subme=6 / psy=1 / psy_rd=1.00:0.00 / mixed_ref=1 / me_range=16 / chroma_me=1 / trellis=0 / 8x8dct=0 / cqm=0 / deadzone=21,11 / fast_pskip=1 / chroma_qp_offset=-2 / threads=18 / lookahead_threads=2 / sliced_threads=0 / nr=0 / decimate=1 / interlaced=0 / bluray_compat=0 / constrained_intra=0 / bframes=0 / weightp=0 / keyint=240 / keyint_min=24 / scenecut=40 / intra_refresh=0 / rc_lookahead=40 / rc=2pass / mbtree=1 / bitrate=1400 / ratetol=1.0 / qcomp=0.60 / qpmin=0 / qpmax=69 / qpstep=4 / cplxblur=20.0 / qblur=0.5 / vbv_maxrate=5000 / vbv_bufsize=5000 / nal_hrd=none / ip_ratio=1.40 / aq=1:1.00
    Language : English
    Encoded date : UTC 2015-01-14 10:02:56
    Tagged date : UTC 2015-01-14 10:06:08
    Color primaries : BT.709
    Transfer characteristics : BT.709
    Matrix coefficients : BT.709
    Video #2
    ID : 16
    Format : JPEG
    Codec ID : jpeg
    Duration : 2h 29mn
    Bit rate mode : Variable
    Bit rate : 841 bps
    Width : 640 pixels
    Height : 267 pixels
    Display aspect ratio : 2.40:1
    Frame rate mode : Variable
    Frame rate : 0.004 fps
    Minimum frame rate : 0.002 fps
    Maximum frame rate : 0.021 fps
    Color space : YUV
    Chroma subsampling : 4:2:0
    Bit depth : 8 bits
    Compression mode : Lossy
    Bits/(Pixel*Frame) : 1.230
    Stream size : 1.00 MiB (0%)
    Language : English
    Encoded date : UTC 2015-01-14 10:34:18
    Tagged date : UTC 2015-01-14 10:34:18
    Audio #1
    ID : 2
    Format : AAC
    Format/Info : Advanced Audio Codec
    Format profile : LC
    Codec ID : 40
    Duration : 2h 29mn
    Bit rate mode : Variable
    Bit rate : 132 Kbps
    Maximum bit rate : 223 Kbps
    Channel(s) : 2 channels
    Channel positions : Front: L R
    Sampling rate : 48.0 KHz
    Compression mode : Lossy
    Stream size : 140 MiB (6%)
    Language : Russian
    Encoded date : UTC 2015-01-14 10:02:56
    Tagged date : UTC 2015-01-14 10:16:00
    Audio #2
    ID : 3
    Format : AAC
    Format/Info : Advanced Audio Codec
    Format profile : LC
    Codec ID : 40
    Duration : 2h 29mn
    Bit rate mode : Variable
    Bit rate : 132 Kbps
    Maximum bit rate : 229 Kbps
    Channel(s) : 2 channels
    Channel positions : Front: L R
    Sampling rate : 48.0 KHz
    Compression mode : Lossy
    Stream size : 140 MiB (6%)
    Language : Russian
    Encoded date : UTC 2015-01-14 10:02:56
    Tagged date : UTC 2015-01-14 10:16:08
    Audio #3
    ID : 4
    Format : AAC
    Format/Info : Advanced Audio Codec
    Format profile : LC
    Codec ID : 40
    Duration : 2h 29mn
    Bit rate mode : Variable
    Bit rate : 132 Kbps
    Maximum bit rate : 214 Kbps
    Channel(s) : 2 channels
    Channel positions : Front: L R
    Sampling rate : 48.0 KHz
    Compression mode : Lossy
    Stream size : 141 MiB (6%)
    Language : Ukrainian
    Encoded date : UTC 2015-01-14 10:02:56
    Tagged date : UTC 2015-01-14 10:16:08
    Audio #4
    ID : 5
    Format : AAC
    Format/Info : Advanced Audio Codec
    Format profile : LC
    Codec ID : 40
    Duration : 2h 29mn
    Bit rate mode : Variable
    Bit rate : 132 Kbps
    Maximum bit rate : 230 Kbps
    Channel(s) : 2 channels
    Channel positions : Front: L R
    Sampling rate : 48.0 KHz
    Compression mode : Lossy
    Stream size : 140 MiB (6%)
    Language : English
    Encoded date : UTC 2015-01-14 10:02:56
    Tagged date : UTC 2015-01-14 10:16:07
    Audio #5
    ID : 6
    Format : AAC
    Format/Info : Advanced Audio Codec
    Format profile : LC
    Codec ID : 40
    Duration : 2h 29mn
    Bit rate mode : Variable
    Bit rate : 132 Kbps
    Maximum bit rate : 223 Kbps
    Channel(s) : 2 channels
    Channel positions : Front: L R
    Sampling rate : 48.0 KHz
    Compression mode : Lossy
    Stream size : 139 MiB (6%)
    Language : English
    Encoded date : UTC 2015-01-14 10:02:56
    Tagged date : UTC 2015-01-14 10:16:08
    Text #1
    ID : 7
    Format : Timed Text
    Muxing mode : sbtl
    Codec ID : tx3g
    Duration : 2h 18mn
    Bit rate mode : Variable
    Bit rate : 2 bps
    Stream size : 2.15 KiB (0%)
    Language : Russian
    Encoded date : UTC 2015-01-14 10:29:32
    Tagged date : UTC 2015-01-14 10:29:32
    Text #2
    ID : 8
    Format : Timed Text
    Muxing mode : sbtl
    Codec ID : tx3g
    Duration : 2h 18mn
    Bit rate mode : Variable
    Bit rate : 2 bps
    Stream size : 2.34 KiB (0%)
    Language : Ukrainian
    Encoded date : UTC 2015-01-14 10:30:07
    Tagged date : UTC 2015-01-14 10:30:07
    Text #3
    ID : 9
    Format : Timed Text
    Muxing mode : sbtl
    Codec ID : tx3g
    Duration : 2h 24mn
    Bit rate mode : Variable
    Bit rate : 132 bps
    Stream size : 139 KiB (0%)
    Language : Russian
    Encoded date : UTC 2015-01-14 10:30:30
    Tagged date : UTC 2015-01-14 10:30:30
    Text #4
    ID : 10
    Format : Timed Text
    Muxing mode : sbtl
    Codec ID : tx3g
    Duration : 2h 24mn
    Bit rate mode : Variable
    Bit rate : 144 bps
    Stream size : 153 KiB (0%)
    Language : Ukrainian
    Encoded date : UTC 2015-01-14 10:30:49
    Tagged date : UTC 2015-01-14 10:30:49
    Text #5
    ID : 11
    Format : Timed Text
    Muxing mode : sbtl
    Codec ID : tx3g
    Duration : 2h 24mn
    Bit rate mode : Variable
    Bit rate : 82 bps
    Stream size : 87.0 KiB (0%)
    Language : English
    Encoded date : UTC 2015-01-14 10:31:08
    Tagged date : UTC 2015-01-14 10:31:08
    Text #6
    ID : 12
    Format : Timed Text
    Muxing mode : sbtl
    Codec ID : tx3g
    Duration : 2h 24mn
    Bit rate mode : Variable
    Bit rate : 91 bps
    Stream size : 96.8 KiB (0%)
    Language : English
    Encoded date : UTC 2015-01-14 10:31:21
    Tagged date : UTC 2015-01-14 10:31:21
    Text #7
    ID : 13
    Format : Timed Text
    Muxing mode : sbtl
    Codec ID : tx3g
    Duration : 2h 24mn
    Bit rate mode : Variable
    Bit rate : 97 bps
    Stream size : 103 KiB (0%)
    Language : English
    Encoded date : UTC 2015-01-14 10:31:32
    Tagged date : UTC 2015-01-14 10:31:33
    Text #8
    ID : 14
    Format : Timed Text
    Muxing mode : sbtl
    Codec ID : tx3g
    Duration : 2h 24mn
    Bit rate mode : Variable
    Bit rate : 169 bps
    Stream size : 179 KiB (0%)
    Language : Russian
    Encoded date : UTC 2015-01-14 10:31:53
    Tagged date : UTC 2015-01-14 10:31:53
    Menu #1
    00:00:00.000 : Cracking Her Lovely Skull
    00:03:27.958 : Crazy Stupid Happy
    00:06:57.834 : Protect Your Nuts
    00:08:19.541 : Empty House
    00:11:58.593 : Amazing Fucking Amy
    00:15:01.484 : Elimination Prints
    00:18:13.509 : Mr. Brown
    00:19:56.737 : Hard Work
    00:21:43.093 : Code for Bitch
    00:23:53.849 : One Day Gone
    00:28:34.880 : Tight Spot
    00:31:32.516 : Weak Spot
    00:34:39.077 : Two Days Gone
    00:40:51.199 : Strange New Sentence
    00:44:37.383 : Undone Husband
    00:46:57.815 : Bumworld
    00:49:19.707 : Picked Apart By Women/3 Days Gone
    00:54:13.333 : Vigil
    01:00:06.686 : Little Box of Hate
    01:03:16.209 : Showcase Showdown
    01:06:08.715 : Cool Girl
    01:12:56.998 : Goodies for Five
    01:15:13.008 : Queen of the Ozarks
    01:19:54.456 : Tanner Bolt
    01:21:56.120 : Annexation
    01:27:24.156 : Change of Plans
    01:28:12.537 : Old Flame Out
    01:33:28.561 : Bull Sharks
    01:39:34.510 : Plan C
    01:46:26.714 : Gilded Cage
    01:50:46.515 : Audience of One
    01:56:40.619 : Blood is Stronger than Fire
    01:59:06.097 : Predation
    02:02:23.127 : Red in Tooth and Claw
    02:05:35.069 : Reunion
    02:12:30.818 : The Pain Upstairs
    02:16:12.790 : Spider Sweetheart
    02:19:56.930 : Love Tests
    02:22:42.304 : Partners in Crime
    02:24:15.647 : What Will We Do?/End Credits
    Menu #2
    ID : 15
    Codec ID : text
    Duration : 2h 29mn
    Language : English
    Encoded date : UTC 2015-01-14 10:33:46
    Tagged date : UTC 2015-01-14 10:33:46
    00:00:00.000 : Cracking Her Lovely Skull
    00:03:27.958 : Crazy Stupid Happy
    00:06:57.834 : Protect Your Nuts
    00:08:19.541 : Empty House
    00:11:58.593 : Amazing Fucking Amy
    00:15:01.484 : Elimination Prints
    00:18:13.509 : Mr. Brown
    00:19:56.737 : Hard Work
    00:21:43.093 : Code for Bitch
    00:23:53.849 : One Day Gone
    00:28:34.880 : Tight Spot
    00:31:32.516 : Weak Spot
    00:34:39.077 : Two Days Gone
    00:40:51.199 : Strange New Sentence
    00:44:37.383 : Undone Husband
    00:46:57.815 : Bumworld
    00:49:19.707 : Picked Apart By Women/3 Days Gone
    00:54:13.333 : Vigil
    01:00:06.686 : Little Box of Hate
    01:03:16.209 : Showcase Showdown
    01:06:08.715 : Cool Girl
    01:12:56.998 : Goodies for Five
    01:15:13.008 : Queen of the Ozarks
    01:19:54.456 : Tanner Bolt
    01:21:56.120 : Annexation
    01:27:24.156 : Change of Plans
    01:28:12.537 : Old Flame Out
    01:33:28.561 : Bull Sharks
    01:39:34.510 : Plan C
    01:46:26.714 : Gilded Cage
    01:50:46.515 : Audience of One
    01:56:40.619 : Blood is Stronger than Fire
    01:59:06.097 : Predation
    02:02:23.127 : Red in Tooth and Claw
    02:05:35.069 : Reunion
    02:12:30.818 : The Pain Upstairs
    02:16:12.790 : Spider Sweetheart
    02:19:56.930 : Love Tests
    02:22:42.304 : Partners in Crime
    02:24:15.647 : What Will We Do?/End Credits
    Bit rate mode : VBR

    MediaInfo 720p Release

    General
    Complete name : Gone Girl (HD).m4v
    Format : MPEG-4
    Codec ID : M4V
    File size : 7.45 GiB
    Duration : 2h 29mn
    Overall bit rate mode : Variable
    Overall bit rate : 7 159 Kbps
    Movie name : Gone Girl
    Performer : David Fincher
    Genre : Drama
    ContentType : Short Film
    Description : День, который должен был стать праздником, обернулся кошмаром: пятая годовщина свадьбы ознаменовалась исчезновением Эми. Следы, улики, логика – всё указывает на вину ее мужа Ника. Но как-то слишком безупречно выстраивается сценарий преступления. Только найденный дневник Эми расставляет всё по своим местам, и злодейство приобретает совсем иной характер...
    Recorded date : UTC 2014-09-26 08:00:00
    Encoded date : UTC 2015-01-14 13:06:47
    Tagged date : UTC 2015-01-14 13:21:13
    Copyright : © 2014 Twentieth Century Fox Film Corporation. All rights reserved.
    Cover : Yes
    Rating : None
    Title/Sort : Gone Girl
    LongDescription : Все было готово для празднования пятилетнего юбилея супружеской жизни, когда вдруг необъяснимо пропал один из виновников торжества. Остались следы борьбы в доме, кровь, которую явно пытались стереть, - и цепочка "ключей" в игре под названием "охота за сокровищами"; красивая, умная и невероятно изобретательная жена ежегодно устраивала ее для своего обожаемого мужа. И похоже, что эти "ключи" - размещенные ею тут и там странные записки и не менее странные безделушки - дают единственный шанс пролить свет на судьбу исчезнувшей. Вот только не придется ли "охотнику" в процессе поиска раскрыть миру и пару-тройку собственных малосимпатичных тайн?
    HDVideo : Yes
    AppleStoreCatalogID : 917874539
    Vendor : Apple:vendor_id:2014-692861
    ContentRating : mpaa|R|400|Rated R for a scene of bloody violence, some strong sexual content/nudity, and language.
    iTunMOVI : <?xml version="1.0" encoding="UTF-8"?> / <!DOCTYPE plist PUBLIC "-//Apple//DTD PLIST 1.0//EN" "http://anonym.to/?http://www.apple.com/DTDs/PropertyList-1.0.dtd"> / <plist version="1.0"> / <dict> /  <key>cast</key> /  <array> /   <dict> /    <key>name</key> /    <string>Бен Аффлек</string> /   </dict> /   <dict> /    <key>name</key> /    <string>Розамунд Пайк</string> /   </dict> /   <dict> /    <key>name</key> /    <string>Кэрри Кун</string> /   </dict> /   <dict> /    <key>name</key> /    <string>Ким Диккенс</string> /   </dict> /   <dict> /    <key>name</key> /    <string>Нил Патрик Харрис</string> /   </dict> /   <dict> /    <key>name</key> /    <string>Тайлер Перри</string> /   </dict> /   <dict> /    <key>name</key> /    <string>Патрик Фьюджит</string> /   </dict> /   <dict> /    <key>name</key> /    <string>Бойд Холбрук</string> /   </dict> /   <dict> /    <key>name</key> /    <string>Мисси Пайл</string> /   </dict> /   <dict> /    <key>name</key> /    <string>Эмили Ратажковски</string> /   </dict> /   <dict> /    <key>name</key> /    <string>Скут МакНэйри</string> /   </dict> /  </array> /  <key>directors</key> /  <array> /   <dict> /    <key>name</key> /    <string>Дэвид Финчер</string> /   </dict> /  </array> /  <key>producers</key> /  <array> /   <dict> /    <key>name</key> /    <string>Сиан Чаффин</string> /   </dict> /   <dict> /    <key>name</key> /    <string>Джошуа Донен</string> /   </dict> /   <dict> /    <key>name</key> /    <string>Арнон Милчэн</string> /   </dict> /  </array> /  <key>screenwriters</key> /  <array> /   <dict> /    <key>name</key> /    <string>Гиллиан Флинн</string> /   </dict> /  </array> /  <key>studio</key> /  <string>20th Century Fox</string> / </dict> / </plist>
    Video #1
    ID : 1
    Format : AVC
    Format/Info : Advanced Video Codec
    Format profile : High@L3.1
    Format settings, CABAC : No
    Format settings, ReFrames : 3 frames
    Codec ID : avc1
    Codec ID/Info : Advanced Video Coding
    Duration : 2h 29mn
    Bit rate : 4 500 Kbps
    Width : 1 280 pixels
    Height : 532 pixels
    Display aspect ratio : 2.40:1
    Frame rate mode : Variable
    Frame rate : 23.976 fps
    Minimum frame rate : 23.968 fps
    Maximum frame rate : 23.981 fps
    Color space : YUV
    Chroma subsampling : 4:2:0
    Bit depth : 8 bits
    Scan type : Progressive
    Bits/(Pixel*Frame) : 0.276
    Stream size : 4.68 GiB (63%)
    Writing library : x264 core 130 r2273 b3065e6
    Encoding settings : cabac=0 / ref=3 / deblock=1:-2:-1 / analyse=0x3:0x113 / me=umh / subme=9 / psy=1 / psy_rd=0.90:0.15 / mixed_ref=1 / me_range=32 / chroma_me=1 / trellis=0 / 8x8dct=1 / cqm=0 / deadzone=6,6 / fast_pskip=0 / chroma_qp_offset=-2 / threads=18 / lookahead_threads=1 / sliced_threads=0 / nr=0 / decimate=0 / interlaced=0 / bluray_compat=0 / constrained_intra=0 / bframes=3 / b_pyramid=0 / b_adapt=2 / b_bias=0 / direct=1 / weightb=0 / open_gop=0 / weightp=0 / keyint=240 / keyint_min=24 / scenecut=40 / intra_refresh=0 / rc_lookahead=40 / rc=2pass / mbtree=1 / bitrate=4500 / ratetol=1.0 / qcomp=0.65 / qpmin=0 / qpmax=51 / qpstep=4 / cplxblur=20.0 / qblur=0.5 / vbv_maxrate=9500 / vbv_bufsize=9500 / nal_hrd=none / ip_ratio=1.40 / aq=1:1.10
    Language : English
    Encoded date : UTC 2015-01-14 13:06:47
    Tagged date : UTC 2015-01-14 13:15:11
    Color primaries : BT.709
    Transfer characteristics : BT.709
    Matrix coefficients : BT.709
    Video #2
    ID : 19
    Format : JPEG
    Codec ID : jpeg
    Duration : 2h 29mn
    Bit rate mode : Variable
    Bit rate : 873 bps
    Width : 640 pixels
    Height : 266 pixels
    Display aspect ratio : 2.40:1
    Frame rate mode : Variable
    Frame rate : 0.004 fps
    Minimum frame rate : 0.002 fps
    Maximum frame rate : 0.021 fps
    Color space : YUV
    Chroma subsampling : 4:2:0
    Bit depth : 8 bits
    Compression mode : Lossy
    Bits/(Pixel*Frame) : 1.282
    Stream size : 1.04 MiB (0%)
    Language : English
    Encoded date : UTC 2015-01-14 13:18:12
    Tagged date : UTC 2015-01-14 13:18:13
    Audio #1
    ID : 2
    Format : AAC
    Format/Info : Advanced Audio Codec
    Format profile : LC
    Codec ID : 40
    Duration : 2h 29mn
    Bit rate mode : Variable
    Bit rate : 197 Kbps
    Maximum bit rate : 331 Kbps
    Channel(s) : 2 channels
    Channel positions : Front: L R
    Sampling rate : 48.0 KHz
    Compression mode : Lossy
    Stream size : 210 MiB (3%)
    Language : Russian
    Encoded date : UTC 2015-01-14 13:06:47
    Tagged date : UTC 2015-01-14 13:17:59
    Audio #2
    ID : 3
    Format : AAC
    Format/Info : Advanced Audio Codec
    Format profile : LC
    Codec ID : 40
    Duration : 2h 29mn
    Bit rate mode : Variable
    Bit rate : 197 Kbps
    Maximum bit rate : 337 Kbps
    Channel(s) : 2 channels
    Channel positions : Front: L R
    Sampling rate : 48.0 KHz
    Compression mode : Lossy
    Stream size : 210 MiB (3%)
    Language : Russian
    Encoded date : UTC 2015-01-14 13:06:47
    Tagged date : UTC 2015-01-14 13:17:59
    Audio #3
    ID : 4
    Format : AAC
    Format/Info : Advanced Audio Codec
    Format profile : LC
    Codec ID : 40
    Duration : 2h 29mn
    Bit rate mode : Variable
    Bit rate : 197 Kbps
    Maximum bit rate : 313 Kbps
    Channel(s) : 2 channels
    Channel positions : Front: L R
    Sampling rate : 48.0 KHz
    Compression mode : Lossy
    Stream size : 210 MiB (3%)
    Language : Ukrainian
    Encoded date : UTC 2015-01-14 13:06:47
    Tagged date : UTC 2015-01-14 13:17:59
    Audio #4
    ID : 5
    Format : AAC
    Format/Info : Advanced Audio Codec
    Format profile : LC
    Codec ID : 40
    Duration : 2h 29mn
    Bit rate mode : Variable
    Bit rate : 197 Kbps
    Maximum bit rate : 331 Kbps
    Channel(s) : 2 channels
    Channel positions : Front: L R
    Sampling rate : 48.0 KHz
    Compression mode : Lossy
    Stream size : 210 MiB (3%)
    Language : English
    Encoded date : UTC 2015-01-14 13:06:47
    Tagged date : UTC 2015-01-14 13:17:59
    Audio #5
    ID : 6
    Format : AAC
    Format/Info : Advanced Audio Codec
    Format profile : LC
    Codec ID : 40
    Duration : 2h 29mn
    Bit rate mode : Variable
    Bit rate : 132 Kbps
    Maximum bit rate : 223 Kbps
    Channel(s) : 2 channels
    Channel positions : Front: L R
    Sampling rate : 48.0 KHz
    Compression mode : Lossy
    Stream size : 139 MiB (2%)
    Language : English
    Encoded date : UTC 2015-01-14 13:06:47
    Tagged date : UTC 2015-01-14 13:17:41
    Audio #6
    ID : 7
    Format : AC-3
    Format/Info : Audio Coding 3
    Mode extension : CM (complete main)
    Format settings, Endianness : Big
    Codec ID : ac-3
    Duration : 2h 29mn
    Bit rate mode : Constant
    Bit rate : 640 Kbps
    Channel(s) : 6 channels
    Channel positions : Front: L C R, Side: L R, LFE
    Sampling rate : 48.0 KHz
    Bit depth : 16 bits
    Compression mode : Lossy
    Stream size : 682 MiB (9%)
    Language : Russian
    Encoded date : UTC 2015-01-14 13:06:47
    Tagged date : UTC 2015-01-14 13:10:01
    Audio #7
    ID : 8
    Format : AC-3
    Format/Info : Audio Coding 3
    Mode extension : CM (complete main)
    Format settings, Endianness : Big
    Codec ID : ac-3
    Duration : 2h 29mn
    Bit rate mode : Constant
    Bit rate : 448 Kbps
    Channel(s) : 6 channels
    Channel positions : Front: L C R, Side: L R, LFE
    Sampling rate : 48.0 KHz
    Bit depth : 16 bits
    Compression mode : Lossy
    Stream size : 478 MiB (6%)
    Language : Ukrainian
    Encoded date : UTC 2015-01-14 13:06:47
    Tagged date : UTC 2015-01-14 13:09:44
    Audio #8
    ID : 9
    Format : AC-3
    Format/Info : Audio Coding 3
    Mode extension : CM (complete main)
    Format settings, Endianness : Big
    Codec ID : ac-3
    Duration : 2h 29mn
    Bit rate mode : Constant
    Bit rate : 640 Kbps
    Channel(s) : 6 channels
    Channel positions : Front: L C R, Side: L R, LFE
    Sampling rate : 48.0 KHz
    Bit depth : 16 bits
    Compression mode : Lossy
    Stream size : 682 MiB (9%)
    Language : English
    Encoded date : UTC 2015-01-14 13:06:47
    Tagged date : UTC 2015-01-14 13:10:01
    Text #1
    ID : 10
    Format : Timed Text
    Muxing mode : sbtl
    Codec ID : tx3g
    Duration : 2h 18mn
    Bit rate mode : Variable
    Bit rate : 2 bps
    Stream size : 2.15 KiB (0%)
    Language : Russian
    Encoded date : UTC 2015-01-14 13:06:47
    Tagged date : UTC 2015-01-14 13:06:47
    Text #2
    ID : 11
    Format : Timed Text
    Muxing mode : sbtl
    Codec ID : tx3g
    Duration : 2h 18mn
    Bit rate mode : Variable
    Bit rate : 2 bps
    Stream size : 2.34 KiB (0%)
    Language : Ukrainian
    Encoded date : UTC 2015-01-14 13:06:47
    Tagged date : UTC 2015-01-14 13:06:47
    Text #3
    ID : 12
    Format : Timed Text
    Muxing mode : sbtl
    Codec ID : tx3g
    Duration : 2h 24mn
    Bit rate mode : Variable
    Bit rate : 132 bps
    Stream size : 139 KiB (0%)
    Language : Russian
    Encoded date : UTC 2015-01-14 13:06:47
    Tagged date : UTC 2015-01-14 13:06:48
    Text #4
    ID : 13
    Format : Timed Text
    Muxing mode : sbtl
    Codec ID : tx3g
    Duration : 2h 24mn
    Bit rate mode : Variable
    Bit rate : 144 bps
    Stream size : 153 KiB (0%)
    Language : Ukrainian
    Encoded date : UTC 2015-01-14 13:06:47
    Tagged date : UTC 2015-01-14 13:06:48
    Text #5
    ID : 14
    Format : Timed Text
    Muxing mode : sbtl
    Codec ID : tx3g
    Duration : 2h 24mn
    Bit rate mode : Variable
    Bit rate : 82 bps
    Stream size : 87.0 KiB (0%)
    Language : English
    Encoded date : UTC 2015-01-14 13:06:47
    Tagged date : UTC 2015-01-14 13:06:48
    Text #6
    ID : 15
    Format : Timed Text
    Muxing mode : sbtl
    Codec ID : tx3g
    Duration : 2h 24mn
    Bit rate mode : Variable
    Bit rate : 91 bps
    Stream size : 96.8 KiB (0%)
    Language : English
    Encoded date : UTC 2015-01-14 13:06:47
    Tagged date : UTC 2015-01-14 13:06:48
    Text #7
    ID : 16
    Format : Timed Text
    Muxing mode : sbtl
    Codec ID : tx3g
    Duration : 2h 24mn
    Bit rate mode : Variable
    Bit rate : 97 bps
    Stream size : 103 KiB (0%)
    Language : English
    Encoded date : UTC 2015-01-14 13:06:47
    Tagged date : UTC 2015-01-14 13:06:48
    Text #8
    ID : 17
    Format : Timed Text
    Muxing mode : sbtl
    Codec ID : tx3g
    Duration : 2h 24mn
    Bit rate mode : Variable
    Bit rate : 169 bps
    Stream size : 179 KiB (0%)
    Language : Russian
    Encoded date : UTC 2015-01-14 13:06:47
    Tagged date : UTC 2015-01-14 13:06:48
    Menu #1
    00:00:00.000 : Cracking Her Lovely Skull
    00:03:27.958 : Crazy Stupid Happy
    00:06:57.834 : Protect Your Nuts
    00:08:19.541 : Empty House
    00:11:58.593 : Amazing Fucking Amy
    00:15:01.484 : Elimination Prints
    00:18:13.509 : Mr. Brown
    00:19:56.737 : Hard Work
    00:21:43.093 : Code for Bitch
    00:23:53.849 : One Day Gone
    00:28:34.880 : Tight Spot
    00:31:32.516 : Weak Spot
    00:34:39.077 : Two Days Gone
    00:40:51.199 : Strange New Sentence
    00:44:37.383 : Undone Husband
    00:46:57.815 : Bumworld
    00:49:19.707 : Picked Apart By Women/3 Days Gone
    00:54:13.333 : Vigil
    01:00:06.686 : Little Box of Hate
    01:03:16.209 : Showcase Showdown
    01:06:08.715 : Cool Girl
    01:12:56.998 : Goodies for Five
    01:15:13.008 : Queen of the Ozarks
    01:19:54.456 : Tanner Bolt
    01:21:56.120 : Annexation
    01:27:24.156 : Change of Plans
    01:28:12.537 : Old Flame Out
    01:33:28.561 : Bull Sharks
    01:39:34.510 : Plan C
    01:46:26.714 : Gilded Cage
    01:50:46.515 : Audience of One
    01:56:40.619 : Blood is Stronger than Fire
    01:59:06.097 : Predation
    02:02:23.127 : Red in Tooth and Claw
    02:05:35.069 : Reunion
    02:12:30.818 : The Pain Upstairs
    02:16:12.790 : Spider Sweetheart
    02:19:56.930 : Love Tests
    02:22:42.304 : Partners in Crime
    02:24:15.647 : What Will We Do?/End Credits
    Menu #2
    ID : 18
    Codec ID : text
    Duration : 2h 29mn
    Language : English
    Encoded date : UTC 2015-01-14 13:17:59
    Tagged date : UTC 2015-01-14 13:17:59
    00:00:00.000 : Cracking Her Lovely Skull
    00:03:27.958 : Crazy Stupid Happy
    00:06:57.834 : Protect Your Nuts
    00:08:19.541 : Empty House
    00:11:58.593 : Amazing Fucking Amy
    00:15:01.484 : Elimination Prints
    00:18:13.509 : Mr. Brown
    00:19:56.737 : Hard Work
    00:21:43.093 : Code for Bitch
    00:23:53.849 : One Day Gone
    00:28:34.880 : Tight Spot
    00:31:32.516 : Weak Spot
    00:34:39.077 : Two Days Gone
    00:40:51.199 : Strange New Sentence
    00:44:37.383 : Undone Husband
    00:46:57.815 : Bumworld
    00:49:19.707 : Picked Apart By Women/3 Days Gone
    00:54:13.333 : Vigil
    01:00:06.686 : Little Box of Hate
    01:03:16.209 : Showcase Showdown
    01:06:08.715 : Cool Girl
    01:12:56.998 : Goodies for Five
    01:15:13.008 : Queen of the Ozarks
    01:19:54.456 : Tanner Bolt
    01:21:56.120 : Annexation
    01:27:24.156 : Change of Plans
    01:28:12.537 : Old Flame Out
    01:33:28.561 : Bull Sharks
    01:39:34.510 : Plan C
    01:46:26.714 : Gilded Cage
    01:50:46.515 : Audience of One
    01:56:40.619 : Blood is Stronger than Fire
    01:59:06.097 : Predation
    02:02:23.127 : Red in Tooth and Claw
    02:05:35.069 : Reunion
    02:12:30.818 : The Pain Upstairs
    02:16:12.790 : Spider Sweetheart
    02:19:56.930 : Love Tests
    02:22:42.304 : Partners in Crime
    02:24:15.647 : What Will We Do?/End Credits
    Bit rate mode : VBR

    x264 лог 480p Release

    HandBrakeCLI -i "GONE_GIRL_HDCLUB/BDMV/STREAM/00500.m2ts" -t 1 -o Gone.Girl.480p.eng.m4v -f mp4 -I -O -w 640 -l 356 --crop 140:140:0:0 --custom-anamorphic --modulus 4 --pixel-aspect 852:640 -e x264 -b 1400 -2 -a none -x cabac=0:ref=2:me=umh:bframes=0:weightp=0:subq=6:8x8dct=0:trellis=0:vbv-maxrate=5000:vbv-bufsize=5000 --verbose=1
    x264 [info]: frame I:3078  Avg QP:11.26  size: 36641  PSNR Mean Y:51.58 U:54.08 V:55.82 Avg:52.13 Global:51.55
    x264 [info]: frame P:211314 Avg QP:13.63  size:  6852  PSNR Mean Y:49.36 U:50.50 V:51.74 Avg:49.84 Global:49.31
    x264 [info]: mb I  I16..4: 24.9%  0.0% 75.1%
    x264 [info]: mb P  I16..4:  0.8%  0.0%  2.2%  P16..4: 41.1% 22.2% 10.7%  0.0%  0.0%    skip:23.0%
    x264 [info]: coded y,uvDC,uvAC intra: 72.4% 85.6% 79.1% inter: 24.8% 22.7% 11.6%
    x264 [info]: i16 v,h,dc,p: 54% 13% 10% 23%
    x264 [info]: i4 v,h,dc,ddl,ddr,vr,hd,vl,hu: 42% 13% 13%  5%  6%  7%  5%  6%  4%
    x264 [info]: i8c dc,h,v,p: 49% 13% 30%  7%
    x264 [info]: ref P L0: 70.5% 29.5%
    x264 [info]: SSIM Mean Y:0.9930702 (21.593db)
    x264 [info]: PSNR Mean Y:49.392 U:50.550 V:51.802 Avg:49.869 Global:49.338 kb/s:1396.23

    x264 лог 720p Release

    HandBrakeCLI -i "GONE_GIRL_HDCLUB/BDMV/STREAM/00500.m2ts" -t 1 -o Gone.Girl.720p.eng.m4v -f mp4 -4  -O  -w 1280 -l 532 --crop 140:140:0:0 --modulus 4 -e x264 -b 4500 -2 -a none -x cabac=0:ref=3:me=umh:b-pyramid=none:b-adapt=2:weightb=0:trellis=0:weightp=0:vbv-maxrate=9500:vbv-bufsize=9500:subq=9:merange=32:deblock=-2,-1:qcomp=0.65:qpmin=0:qpmax=51:fast_pskip=0:aq-strength=1.1:no-dct-decimate=1:psy-rd=0.90,0.15:deadzone-inter=6:deadzone-intra=6:ip_ratio=1.35:pb_ratio=1.25 --verbose=1
    x264 [info]: frame I:2640  Avg QP:11.60  size:126028  PSNR Mean Y:51.14 U:51.84 V:52.66 Avg:51.46 Global:51.23
    x264 [info]: frame P:73154 Avg QP:14.46  size: 48562  PSNR Mean Y:49.56 U:50.06 V:51.54 Avg:49.89 Global:49.50
    x264 [info]: frame B:138598 Avg QP:16.25  size:  8210  PSNR Mean Y:48.63 U:49.26 V:51.36 Avg:49.03 Global:48.61
    x264 [info]: consecutive B-frames:  2.5% 16.7% 51.6% 29.2%
    x264 [info]: mb I  I16..4:  8.2% 65.4% 26.3%
    x264 [info]: mb P  I16..4:  1.6% 11.1%  2.6%  P16..4: 38.6% 27.3% 15.0%  0.0%  0.0%    skip: 3.9%
    x264 [info]: mb B  I16..4:  0.1%  0.8%  0.3%  B16..8: 22.9%  8.3%  1.6%  direct: 3.3%  skip:62.7%  L0:38.3% L1:41.2% BI:20.5%
    x264 [info]: 8x8 transform intra:70.6% inter:32.3%
    x264 [info]: coded y,uvDC,uvAC intra: 91.2% 91.1% 83.8% inter: 31.0% 25.3% 20.2%
    x264 [info]: i16 v,h,dc,p: 24%  9% 13% 54%
    x264 [info]: i8 v,h,dc,ddl,ddr,vr,hd,vl,hu: 14%  9% 16%  9% 10% 11% 10% 10% 10%
    x264 [info]: i4 v,h,dc,ddl,ddr,vr,hd,vl,hu: 25%  9%  6%  9% 12% 12% 10%  9%  7%
    x264 [info]: i8c dc,h,v,p: 58% 14% 18% 10%
    x264 [info]: ref P L0: 68.4% 19.4% 12.2%
    x264 [info]: ref B L0: 76.9% 23.1%
    x264 [info]: SSIM Mean Y:0.9906945 (20.313db)
    x264 [info]: PSNR Mean Y:48.979 U:49.567 V:51.438 Avg:49.354 Global:48.917 kb/s:4493.94

    Скриншоты 480p Release

    Скриншоты 720p Release

    Цитата:
    Цитата:

    • Сохранены оригинальные чаптеры как на BluRay.
    • Дорога №2 получена микшированием чистого голоса переводчика с центром декодированного DTS-HD MA оригинала.
    • Заказ перевода - будулайроманов, dikii. Перевод - MartinaG. Работа со звуком - Переводман. Присутствует ненормативная лексика!
    -

    Релиз подготовлен для просмотра на Apple TV, iPad, iPhone, iPod Touch.
    Для просмотра данного релиза на компьютере с ОС Windows рекомендуется использовать VLC media player
    Скачать .torrent

    Скачать торрент-файл бесплатно и на максимальной скорости!

    Как скачивать? · Что такое торрент? · Рейтинг и ограничения

    !ВНИМАНИЕ!
    Сайт не распространяет и не хранит электронные версии произведений, а занимается лишь лишь предоставлением доступа к создаваемому пользователями каталогу ссылок на торрент-файлы, которые содержат только списки хеш-сумм, убедительная просьба с жалобами обращаться напрямую к пользователю. Файлы для обмена на трекере предоставлены пользователями сайта, и администрация не несёт ответственности за их содержание. Просьба не заливать файлы, защищенные авторскими правами, а также файлы нелегального содержания!


  • _________________
    [Профиль] [ЛС]
    Показать сообщения:    
    Ответить на тему

    Текущее время: Сегодня, в 05:17

    Часовой пояс: GMT + 2



    Вы не можете начинать темы
    Вы не можете отвечать на сообщения
    Вы не можете редактировать свои сообщения
    Вы не можете удалять свои сообщения
    Вы не можете голосовать в опросах
    Вы не можете прикреплять файлы к сообщениям
    Вы не можете скачивать файлы