BitTorrentTracker PerecTracker.org
BitTorrentTracker PerecTracker.org
    
Регистрация  ·  Вход
 
 · 
Забыли пароль?

  • 13-й воин / The 13th Warrior (Джон МакТирнан, Майкл Крайтон) [1999, США, ужасы, фэнтези, боевик, триллер, детектив, приключения, BDRip HD (720p), SD] DUB, MVO, AVO, Original + SUB (rus, eng)

    Ответить на тему
     
    Автор Сообщение

    Flirldrerve

    Создавать темы 27-Окт-2015 05:19

           

    [Цитировать]

    13-й воин / The 13th Warrior
    "Prey for the living"
    7.547 / 10
    -Год выпуска: 1999
    Страна: США
    Жанр: ужасы, фэнтези, боевик, триллер, детектив, приключения
    Продолжительность: 102 мин.
    Перевод: Профессиональный дублированный перевод, Многоголосый закадровый перевод и Одноголосый автоский перевод
    Оригинальная аудиодорожка: Есть
    Cубтитры: Русские полные и английские полные
    Режиссёр: Джон МакТирнан, Майкл Крайтон
    Сценарий: Уильям Уишер мл., Уоррен Льюис, Майкл Крайтон
    Продюсер: Майкл Крайтон, Нед Дауд, Джон МакТирнан
    Оператор: Питер Мензиес мл.
    Композитор: Джерри Голдсмит
    Художник: Вульф Крёгер, Уильям Лакофф, Р. Ст. Джон Харрисон
    Монтаж: Джон Райт
    В ролях: Антонио Бандерас, Омар Шариф, Владимир Кулих, Дэннис Сторхой, Дэниэл Саузерн, Нил Маффин, Джон ДеСантис, Клайв Расселл, Миша Хауссерманн, Оливер Свейналл
    Роли дублировали: Александр Баргман, Александр Демьяненко, Николай Буров, Валерий Кухарешин, Артур Ваха
    Бюджет: $160 000 000
    Сборы в США: $32 698 899
    Сборы в мире: + $29 000 000 = $61 698 899
    Мировая премьера: 25 июня 1999
    Премьера (РФ): 2 сентября 1999, Каскад
    Релиз на DVD: 6 апреля 2010, Уолт Дисней Компани СНГ
    Описание: Ахмед ибн Фахдлан, утонченный аристократ и поэт, в наказание за любовь отправился посланником цивилизованного Востока на варварский Север, к диким и необузданным викингам. Эти храбрые воины готовились к походу против таинственного племени Пожирателей Трупов, опустошающего деревни и оставляющего после себя груду человеческих скелетов.
    По древнему поверью, только тринадцать воинов могут одолеть звероподобного врага. Но, чтобы пророчество сбылось, один из смельчаков должен быть чужестранцем... Волей счастливого случая или зловещего рока, бывший поэт, а ныне тринадцатый воин берет в руки оружие и отправляется туда, где умолкают даже неустрашимые викинги, чтобы случайно не назвать свой страх по имени.-Качество исходника: BD-Remux 1080p
    Качество: BDRip
    Тип: 480p 720p
    Контейнер: m4v
    Видео: 640x364 анаморф 852x364 at 23.976 fps, MPEG-4 AVC, ~1700 kbps avg
    Видео: 1280х544 at 23.976 fps, MPEG-4 AVC, ~5000 kbps avg
    Аудио#1: Russian: 48 kHz, ААС, 2/0 (L,R), ~128.00 / 160.00 kbps avg |Дубляж, ВидеоСервис|
    Аудио#2: Russian: 48 kHz, ААС, 2/0 (L,R), ~160.00 kbps avg |Многоголосый закадровый, Superbit |
    Аудио#3: Russian: 48 kHz, ААС, 2/0 (L,R), ~160.00 kbps avg |Одноголосый закадровый, А. Гаврилов|
    Аудио#4: Russian: 48 kHz, ААС, 2/0 (L,R), ~160.00 kbps avg |Одноголосый закадровый, Д. Пучков|
    Аудио#5: English: 48 kHz, ААС, 2/0 (L,R), ~128.00 / 160.00 kbps avg
    Аудио#6: Russian: 48 kHz, AC3, 3/2 (L,C,R,l,r) + LFE ch, ~384.00 kbps avg |Дубляж, ВидеоСервис|
    Аудио#7: English: 48 kHz, AC3, 3/2 (L,C,R,l,r) + LFE ch, ~384.00 kbps avg
    Субтитры №1: Russian: |Полные|
    Субтитры №2: English: |Полные|-

    из книги «3500 кинорецензий»


    Историко-приключенческий фильм с элементами мистики (Сергей Кудрявцев 6/10)
    Эта лента полтора года не выпускалась на экраны США — так что поневоле получилось, что следующая картина Джона МакТирнена «Афера Томаса Крауна» вышла в прокат даже на три недели раньше. И в последний уик-энд августа 1999 года они обе присутствовали в десятке лидеров. Но всё равно осталось неясным, что же заставило известного американского писателя, режиссёра и продюсера Майкла Крайтона столько времени препятствовать выпуску фильма «13-й воин», основанного на его, видимо, более философско-мистическом романе «Пожиратели мертвецов» (1976) о сражении средневековых воинов с неким племенем полулюдей-полуживотных. В представленной на суд зрителей версии, кажется, нет ничего из обещанных и вроде бы осуществлённых самим Крайтоном переделок ради насыщения действия особыми спецэффектами. Хотя звучит музыка другого композитора: не Грэма Ревелла, а Джерри Голдсмита, опытного мастера, который нередко способен вытянуть на необходимый художественный уровень не такой уж выигрышный отснятый материал.
    Правда, в случае с лентой МакТирнена никак не скажешь, что он не справился со своей работой. Но в то же время трудно настаивать и на том, что постановщик сотворил нечто необыкновенное или просто оригинальное: заранее рекламировавшиеся сложные съёмки при помощи ручной камеры Steadycam или пара кровавых моментов впечатляют, однако не более того. Что касается самой истории (а также сюжета и событий из столь варварского для современных людей прошлого — Скандинавии Х века), то опять же можно сказать, что данная картина вряд ли выдержит сравнение как с жестоким фантазийным эпосом «Конан-варвар» Джона Милиуса, так и с более реалистической сагой «Храброе сердце» Мела Гибсона.
    Несмотря на первоначальный значительный бюджет ($60 млн.), который, по сомнительным слухам, вырос аж до $165 млн., «13-й воин» не производит особого впечатления по своему историческому размаху и постановочным баталиям. Он, на удивление, кажется вполне добротным независимым кинопродуктом или же заставляет вспомнить сейчас выглядящие несколько наивными, но всё равно симпатичные исторические боевики 50-х годов, допустим, «Викинги» Ричарда Флайшера на схожую тему (кстати, одно из рабочих названий фильма Джона МакТирнена было как раз «Викинги»). А в какую-то минуту ловишь себе на ощущении, что «13-й воин» начинает явно напоминать такие шедевры Акиры Куросавы, как «Семь самураев» и «Трон в крови», что, может быть, даже и неплохо, ибо включает современную американскую ленту в достойный культурно-кинематографический ряд.
    1999

    -

    iTunes Meta Tags for country ru

    Name: 13-й воин
    Artist: John McTiernan
    Genre: Action & Adventure
    Release Date: 1999-06-25T08:00:00Z
    Description: Ахмед ибн Фахдлан, утонченный аристократ и поэт, в наказание за любовь отправился посланником цивилизованного Востока на варварский Север, к диким и необузданным викингам...
    Long Description: Ахмед ибн Фахдлан, утонченный аристократ и поэт, в наказание за любовь отправился посланником цивилизованного Востока на варварский Север, к диким и необузданным викингам. Эти храбрые воины готовились к походу против таинственного племени Пожирателей Трупов, опустошающего деревни и оставляющего после себя груду человеческих скелетов.
    По древнему поверью, только тринадцать воинов могут одолеть звероподобного врага. Но, чтобы пророчество сбылось, один из смельчаков должен быть чужестранцем... Волей счастливого случая или зловещего рока, бывший поэт, а ныне тринадцатый воин берет в руки оружие и отправляется туда, где умолкают даже неустрашимые викинги, чтобы случайно не назвать свой страх по имени.
    Rating: 16+
    Rating Annotation: Rated 16+ Для зрителей, достигших возраста 16 лет
    Studio: Touchstone Pictures
    Cast: Антонио Бандерас, Омар Шариф, Владимир Кулих, Дэннис Сторхой, Дэниэл Саузерн, Нил Маффин, Джон ДеСантис, Клайв Расселл, Миша Хауссерманн, Оливер Свейналл
    Director: Джон МакТирнан, Майкл Крайтон
    Producers: Майкл Крайтон, Нед Дауд, Джон МакТирнан
    Screenwriters: Уильям Уишер мл., Уоррен Льюис, Майкл Крайтон
    Copyright: © 1999 Touchstone Pictures
    contentID: 203525220
    XID: Apple:vendor_id:1999-10273
    Sort Name: 13-й воин

    iTunes Meta Tags for country us

    Name: The 13th Warrior
    Artist: John McTiernan
    Genre: Action & Adventure
    Release Date: 1999-06-25T08:00:00Z
    Description: Ахмед ибн Фахдлан, утонченный аристократ и поэт, в наказание за любовь отправился посланником цивилизованного Востока на варварский Север, к диким и необузданным викингам...
    Long Description: Ахмед ибн Фахдлан, утонченный аристократ и поэт, в наказание за любовь отправился посланником цивилизованного Востока на варварский Север, к диким и необузданным викингам. Эти храбрые воины готовились к походу против таинственного племени Пожирателей Трупов, опустошающего деревни и оставляющего после себя груду человеческих скелетов.
    По древнему поверью, только тринадцать воинов могут одолеть звероподобного врага. Но, чтобы пророчество сбылось, один из смельчаков должен быть чужестранцем... Волей счастливого случая или зловещего рока, бывший поэт, а ныне тринадцатый воин берет в руки оружие и отправляется туда, где умолкают даже неустрашимые викинги, чтобы случайно не назвать свой страх по имени.
    Rating: R
    Rating Annotation: Rated R For Bloody Battles and Carnage.
    Studio: Touchstone Pictures
    Cast: Антонио Бандерас, Омар Шариф, Владимир Кулих, Дэннис Сторхой, Дэниэл Саузерн, Нил Маффин, Джон ДеСантис, Клайв Расселл, Миша Хауссерманн, Оливер Свейналл
    Director: Джон МакТирнан, Майкл Крайтон
    Producers: Майкл Крайтон, Нед Дауд, Джон МакТирнан
    Screenwriters: Уильям Уишер мл., Уоррен Льюис, Майкл Крайтон
    Copyright: © 1999 Touchstone
    contentID: 203525220
    XID: Apple:vendor_id:1999-10273
    Sort Name: 13th Warrior

    MediaInfo 480p Release

    General
    Complete name : The 13th Warrior.m4v
    Format : MPEG-4
    Codec ID : M4V
    File size : 1.41 GiB
    Duration : 1h 42mn
    Overall bit rate mode : Variable
    Overall bit rate : 1 970 Kbps
    Movie name : The 13th Warrior
    Performer : John McTiernan
    Genre : Action & Adventure
    ContentType : Short Film
    Description : Ахмед ибн Фахдлан, утонченный аристократ и поэт, в наказание за любовь отправился посланником цивилизованного Востока на варварский Север, к диким и необузданным викингам.
    Recorded date : UTC 1999-06-25 07:00:00
    Encoded date : UTC 2012-10-19 10:12:44
    Tagged date : UTC 2012-10-19 17:37:14
    Copyright : © Buena Vista Home Entertainment, Inc.
    Cover : Yes
    Rating : None
    Title/Sort : 13th Warrior
    LongDescription : Ахмед ибн Фахдлан, утонченный аристократ и поэт, в наказание за любовь отправился посланником цивилизованного Востока на варварский Север, к диким и необузданным викингам. Эти храбрые воины готовились к походу против таинственного племени Пожирателей Трупов, опустошающего деревни и оставляющего после себя груду человеческих скелетов.По древнему поверью, только тринадцать воинов могут одолеть звероподобного врага. Но, чтобы пророчество сбылось, один из смельчаков должен быть чужестранцем… Волей счастливого случая или зловещего рока, бывший поэт, а ныне тринадцатый воин берет в руки оружие и отправляется туда, где умолкают даже неустрашимые викинги, чтобы случайно не назвать свой страх по имени.
    AppleStoreCatalogID : 203525220
    Vendor : Apple:vendor_id:1999-10273
    ContentRating : mpaa|R|400|
    iTunMOVI : <?xml version="1.0" encoding="UTF-8"?> / <!DOCTYPE plist PUBLIC "-//Apple//DTD PLIST 1.0//EN" "http://anonym.to/?http://www.apple.com/DTDs/PropertyList-1.0.dtd"> / <plist version="1.0"> / <dict> /  <key>cast</key> /  <array> /   <dict> /    <key>name</key> /    <string>Антонио Бандерас</string> /   </dict> /   <dict> /    <key>name</key> /    <string>Омар Шариф</string> /   </dict> /   <dict> /    <key>name</key> /    <string>Владимир Кулих</string> /   </dict> /   <dict> /    <key>name</key> /    <string>Дэннис Сторхой</string> /   </dict> /   <dict> /    <key>name</key> /    <string>Дэниэл Саузерн</string> /   </dict> /   <dict> /    <key>name</key> /    <string>Нил Маффин</string> /   </dict> /   <dict> /    <key>name</key> /    <string>Джон ДеСантис</string> /   </dict> /   <dict> /    <key>name</key> /    <string>Клайв Расселл</string> /   </dict> /   <dict> /    <key>name</key> /    <string>Миша Хауссерманн</string> /   </dict> /   <dict> /    <key>name</key> /    <string>Оливер Свейналл</string> /   </dict> /  </array> /  <key>directors</key> /  <array> /   <dict> /    <key>name</key> /    <string>Джон МакТирнан</string> /   </dict> /   <dict> /    <key>name</key> /    <string>Майкл Крайтон</string> /   </dict> /  </array> /  <key>producers</key> /  <array> /   <dict> /    <key>name</key> /    <string>Майкл Крайтон</string> /   </dict> /   <dict> /    <key>name</key> /    <string>Нед Дауд</string> /   </dict> /   <dict> /    <key>name</key> /    <string>Джон МакТирнан</string> /   </dict> /  </array> /  <key>screenwriters</key> /  <array> /   <dict> /    <key>name</key> /    <string>Уильям Уишер мл.</string> /   </dict> /   <dict> /    <key>name</key> /    <string>Уоррен Льюис</string> /   </dict> /   <dict> /    <key>name</key> /    <string>Майкл Крайтон</string> /   </dict> /  </array> /  <key>studio</key> /  <string>Touchstone Pictures</string> / </dict> / </plist>
    Video #1
    ID : 1
    Format : AVC
    Format/Info : Advanced Video Codec
    Format profile : Baseline@L3.0
    Format settings, CABAC : No
    Format settings, ReFrames : 2 frames
    Codec ID : avc1
    Codec ID/Info : Advanced Video Coding
    Duration : 1h 42mn
    Bit rate : 1 700 Kbps
    Width : 640 pixels
    Height : 364 pixels
    Display aspect ratio : 2.35:1
    Frame rate mode : Variable
    Frame rate : 23.976 fps
    Minimum frame rate : 23.974 fps
    Maximum frame rate : 23.981 fps
    Color space : YUV
    Chroma subsampling : 4:2:0
    Bit depth : 8 bits
    Scan type : Progressive
    Bits/(Pixel*Frame) : 0.304
    Stream size : 1.22 GiB (86%)
    Writing library : x264 core 112
    Encoding settings : cabac=0 / ref=2 / deblock=1:-3:-2 / analyse=0x1:0x131 / me=umh / subme=6 / psy=1 / psy_rd=0.00:0.00 / mixed_ref=1 / me_range=24 / chroma_me=1 / trellis=0 / 8x8dct=0 / cqm=0 / deadzone=21,11 / fast_pskip=0 / chroma_qp_offset=0 / threads=12 / sliced_threads=0 / nr=0 / decimate=1 / interlaced=0 / constrained_intra=0 / bframes=0 / weightp=0 / keyint=240 / keyint_min=23 / scenecut=40 / intra_refresh=0 / rc_lookahead=40 / rc=2pass / mbtree=1 / bitrate=1700 / ratetol=1.0 / qcomp=0.60 / qpmin=3 / qpmax=51 / qpstep=4 / cplxblur=20.0 / qblur=0.5 / ip_ratio=1.40 / aq=1:1.00
    Language : English
    Encoded date : UTC 2012-10-19 10:12:44
    Tagged date : UTC 2012-10-19 10:13:36
    Color primaries : BT.709
    Transfer characteristics : BT.709
    Matrix coefficients : BT.709
    Video #2
    ID : 7
    Format : JPEG
    Codec ID : jpeg
    Duration : 1h 42mn
    Bit rate mode : Variable
    Bit rate : 853 bps
    Width : 640 pixels
    Height : 273 pixels
    Display aspect ratio : 2.35:1
    Frame rate mode : Variable
    Frame rate : 0.003 fps
    Minimum frame rate : 0.001 fps
    Maximum frame rate : 0.009 fps
    Color space : YUV
    Chroma subsampling : 4:2:0
    Bit depth : 8 bits
    Compression mode : Lossy
    Bits/(Pixel*Frame) : 1.627
    Stream size : 625 KiB (0%)
    Language : English
    Encoded date : UTC 2012-10-19 10:13:47
    Tagged date : UTC 2012-10-19 10:13:47
    Audio #1
    ID : 2
    Format : AAC
    Format/Info : Advanced Audio Codec
    Format profile : LC
    Codec ID : 40
    Duration : 1h 42mn
    Bit rate mode : Variable
    Bit rate : 132 Kbps
    Maximum bit rate : 210 Kbps
    Channel(s) : 2 channels
    Channel positions : Front: L R
    Sampling rate : 48.0 KHz
    Compression mode : Lossy
    Stream size : 97.3 MiB (7%)
    Language : Russian
    Encoded date : UTC 2012-10-19 10:12:44
    Tagged date : UTC 2012-10-19 10:13:10
    Audio #2
    ID : 3
    Format : AAC
    Format/Info : Advanced Audio Codec
    Format profile : LC
    Codec ID : 40
    Duration : 1h 42mn
    Bit rate mode : Variable
    Bit rate : 132 Kbps
    Maximum bit rate : 206 Kbps
    Channel(s) : 2 channels
    Channel positions : Front: L R
    Sampling rate : 48.0 KHz
    Compression mode : Lossy
    Stream size : 96.7 MiB (7%)
    Language : English
    Encoded date : UTC 2012-10-19 10:12:44
    Tagged date : UTC 2012-10-19 10:13:40
    Text #1
    ID : 4
    Format : Timed Text
    Muxing mode : sbtl
    Codec ID : tx3g
    Duration : 1h 37mn
    Bit rate mode : Variable
    Bit rate : 38 bps
    Stream size : 27.3 KiB (0%)
    Language : Russian
    Encoded date : UTC 2012-10-19 10:12:44
    Tagged date : UTC 2012-10-19 10:13:41
    Text #2
    ID : 5
    Format : Timed Text
    Muxing mode : sbtl
    Codec ID : tx3g
    Duration : 1h 37mn
    Bit rate mode : Variable
    Bit rate : 33 bps
    Stream size : 23.8 KiB (0%)
    Language : English
    Encoded date : UTC 2012-10-19 10:12:44
    Tagged date : UTC 2012-10-19 10:13:41
    Menu #1
    00:00:00.000 : Chapter 1
    00:03:38.092 : Chapter 2
    00:07:36.164 : Chapter 3
    00:13:36.357 : Chapter 4
    00:15:21.962 : Chapter 5
    00:20:41.865 : Chapter 6
    00:26:38.972 : Chapter 7
    00:32:55.264 : Chapter 8
    00:36:32.356 : Chapter 9
    00:41:07.386 : Chapter 10
    00:45:57.546 : Chapter 11
    00:51:25.707 : Chapter 12
    00:56:19.042 : Chapter 13
    01:05:02.523 : Chapter 14
    01:08:27.520 : Chapter 15
    01:21:07.863 : Chapter 16
    01:24:52.629 : Chapter 17
    01:36:39.001 : Chapter 18
    Menu #2
    ID : 6
    Codec ID : text
    Duration : 1h 42mn
    Language : English
    Encoded date : UTC 2012-10-19 10:13:41
    Tagged date : UTC 2012-10-19 10:13:41
    00:00:00.000 : Chapter 1
    00:03:38.092 : Chapter 2
    00:07:36.164 : Chapter 3
    00:13:36.357 : Chapter 4
    00:15:21.962 : Chapter 5
    00:20:41.865 : Chapter 6
    00:26:38.972 : Chapter 7
    00:32:55.264 : Chapter 8
    00:36:32.356 : Chapter 9
    00:41:07.386 : Chapter 10
    00:45:57.546 : Chapter 11
    00:51:25.707 : Chapter 12
    00:56:19.042 : Chapter 13
    01:05:02.523 : Chapter 14
    01:08:27.520 : Chapter 15
    01:21:07.863 : Chapter 16
    01:24:52.629 : Chapter 17
    01:36:39.001 : Chapter 18
    Bit rate mode : VBR

    MediaInfo 720p Release

    General
    Complete name : The 13th Warrior (HD).m4v
    Format : MPEG-4
    Codec ID : M4V
    File size : 4.74 GiB
    Duration : 1h 42mn
    Overall bit rate mode : Variable
    Overall bit rate : 6 607 Kbps
    Movie name : The 13th Warrior
    Performer : John McTiernan
    Genre : Action & Adventure
    ContentType : Short Film
    Description : Ахмед ибн Фахдлан, утонченный аристократ и поэт, в наказание за любовь отправился посланником цивилизованного Востока на варварский Север, к диким и необузданным викингам.
    Recorded date : UTC 1999-06-25 07:00:00
    Encoded date : UTC 2012-10-19 03:43:36
    Tagged date : UTC 2012-10-19 10:49:56
    Copyright : © Buena Vista Home Entertainment, Inc.
    Cover : Yes
    Rating : None
    Title/Sort : 13th Warrior
    LongDescription : Ахмед ибн Фахдлан, утонченный аристократ и поэт, в наказание за любовь отправился посланником цивилизованного Востока на варварский Север, к диким и необузданным викингам. Эти храбрые воины готовились к походу против таинственного племени Пожирателей Трупов, опустошающего деревни и оставляющего после себя груду человеческих скелетов.По древнему поверью, только тринадцать воинов могут одолеть звероподобного врага. Но, чтобы пророчество сбылось, один из смельчаков должен быть чужестранцем… Волей счастливого случая или зловещего рока, бывший поэт, а ныне тринадцатый воин берет в руки оружие и отправляется туда, где умолкают даже неустрашимые викинги, чтобы случайно не назвать свой страх по имени.
    HDVideo : Yes
    AppleStoreCatalogID : 203525220
    Vendor : Apple:vendor_id:1999-10273
    ContentRating : mpaa|R|400|
    iTunMOVI : <?xml version="1.0" encoding="UTF-8"?> / <!DOCTYPE plist PUBLIC "-//Apple//DTD PLIST 1.0//EN" "http://anonym.to/?http://www.apple.com/DTDs/PropertyList-1.0.dtd"> / <plist version="1.0"> / <dict> /  <key>cast</key> /  <array> /   <dict> /    <key>name</key> /    <string>Антонио Бандерас</string> /   </dict> /   <dict> /    <key>name</key> /    <string>Омар Шариф</string> /   </dict> /   <dict> /    <key>name</key> /    <string>Владимир Кулих</string> /   </dict> /   <dict> /    <key>name</key> /    <string>Дэннис Сторхой</string> /   </dict> /   <dict> /    <key>name</key> /    <string>Дэниэл Саузерн</string> /   </dict> /   <dict> /    <key>name</key> /    <string>Нил Маффин</string> /   </dict> /   <dict> /    <key>name</key> /    <string>Джон ДеСантис</string> /   </dict> /   <dict> /    <key>name</key> /    <string>Клайв Расселл</string> /   </dict> /   <dict> /    <key>name</key> /    <string>Миша Хауссерманн</string> /   </dict> /   <dict> /    <key>name</key> /    <string>Оливер Свейналл</string> /   </dict> /  </array> /  <key>directors</key> /  <array> /   <dict> /    <key>name</key> /    <string>Джон МакТирнан</string> /   </dict> /   <dict> /    <key>name</key> /    <string>Майкл Крайтон</string> /   </dict> /  </array> /  <key>producers</key> /  <array> /   <dict> /    <key>name</key> /    <string>Майкл Крайтон</string> /   </dict> /   <dict> /    <key>name</key> /    <string>Нед Дауд</string> /   </dict> /   <dict> /    <key>name</key> /    <string>Джон МакТирнан</string> /   </dict> /  </array> /  <key>screenwriters</key> /  <array> /   <dict> /    <key>name</key> /    <string>Уильям Уишер мл.</string> /   </dict> /   <dict> /    <key>name</key> /    <string>Уоррен Льюис</string> /   </dict> /   <dict> /    <key>name</key> /    <string>Майкл Крайтон</string> /   </dict> /  </array> /  <key>studio</key> /  <string>Touchstone Pictures</string> / </dict> / </plist>
    Video #1
    ID : 1
    Format : AVC
    Format/Info : Advanced Video Codec
    Format profile : High@L3.1
    Format settings, CABAC : No
    Format settings, ReFrames : 3 frames
    Codec ID : avc1
    Codec ID/Info : Advanced Video Coding
    Duration : 1h 42mn
    Bit rate : 5 000 Kbps
    Width : 1 280 pixels
    Height : 544 pixels
    Display aspect ratio : 2.35:1
    Frame rate mode : Variable
    Frame rate : 23.976 fps
    Minimum frame rate : 23.974 fps
    Maximum frame rate : 23.981 fps
    Color space : YUV
    Chroma subsampling : 4:2:0
    Bit depth : 8 bits
    Scan type : Progressive
    Bits/(Pixel*Frame) : 0.299
    Stream size : 3.59 GiB (76%)
    Writing library : x264 core 112
    Encoding settings : cabac=0 / ref=3 / deblock=1:-3:-2 / analyse=0x3:0x113 / me=umh / subme=9 / psy=1 / psy_rd=0.95:0.00 / mixed_ref=1 / me_range=32 / chroma_me=1 / trellis=0 / 8x8dct=1 / cqm=0 / deadzone=21,11 / fast_pskip=1 / chroma_qp_offset=-2 / threads=12 / sliced_threads=0 / nr=0 / decimate=1 / interlaced=0 / constrained_intra=0 / bframes=8 / b_pyramid=0 / b_adapt=1 / b_bias=0 / direct=1 / weightb=0 / open_gop=0 / weightp=0 / keyint=240 / keyint_min=23 / scenecut=40 / intra_refresh=0 / rc_lookahead=40 / rc=2pass / mbtree=1 / bitrate=5000 / ratetol=1.0 / qcomp=0.60 / qpmin=3 / qpmax=51 / qpstep=4 / cplxblur=20.0 / qblur=0.5 / vbv_maxrate=9500 / vbv_bufsize=9500 / ip_ratio=1.40 / aq=1:0.80 / nal_hrd=none
    Language : English
    Encoded date : UTC 2012-10-19 03:43:37
    Tagged date : UTC 2012-10-19 03:54:20
    Color primaries : BT.709
    Transfer characteristics : BT.709
    Matrix coefficients : BT.709
    Video #2
    ID : 12
    Format : JPEG
    Codec ID : jpeg
    Duration : 1h 42mn
    Bit rate mode : Variable
    Bit rate : 932 bps
    Width : 640 pixels
    Height : 272 pixels
    Display aspect ratio : 2.35:1
    Frame rate mode : Variable
    Frame rate : 0.003 fps
    Minimum frame rate : 0.001 fps
    Maximum frame rate : 0.009 fps
    Color space : YUV
    Chroma subsampling : 4:2:0
    Bit depth : 8 bits
    Compression mode : Lossy
    Bits/(Pixel*Frame) : 1.785
    Stream size : 682 KiB (0%)
    Language : English
    Encoded date : UTC 2012-10-19 03:54:38
    Tagged date : UTC 2012-10-19 03:54:39
    Audio #1
    ID : 2
    Format : AAC
    Format/Info : Advanced Audio Codec
    Format profile : LC
    Codec ID : 40
    Duration : 1h 42mn
    Bit rate mode : Variable
    Bit rate : 165 Kbps
    Maximum bit rate : 251 Kbps
    Channel(s) : 2 channels
    Channel positions : Front: L R
    Sampling rate : 48.0 KHz
    Compression mode : Lossy
    Stream size : 122 MiB (3%)
    Language : Russian
    Encoded date : UTC 2012-10-19 03:43:36
    Tagged date : UTC 2012-10-19 03:45:04
    Audio #2
    ID : 3
    Format : AAC
    Format/Info : Advanced Audio Codec
    Format profile : LC
    Codec ID : 40
    Duration : 1h 42mn
    Bit rate mode : Variable
    Bit rate : 164 Kbps
    Maximum bit rate : 238 Kbps
    Channel(s) : 2 channels
    Channel positions : Front: L R
    Sampling rate : 48.0 KHz
    Compression mode : Lossy
    Stream size : 121 MiB (2%)
    Language : Russian
    Encoded date : UTC 2012-10-19 03:43:37
    Tagged date : UTC 2012-10-19 03:46:09
    Audio #3
    ID : 4
    Format : AAC
    Format/Info : Advanced Audio Codec
    Format profile : LC
    Codec ID : 40
    Duration : 1h 42mn
    Bit rate mode : Variable
    Bit rate : 165 Kbps
    Maximum bit rate : 243 Kbps
    Channel(s) : 2 channels
    Channel positions : Front: L R
    Sampling rate : 48.0 KHz
    Compression mode : Lossy
    Stream size : 121 MiB (2%)
    Language : Russian
    Encoded date : UTC 2012-10-19 03:43:37
    Tagged date : UTC 2012-10-19 03:47:12
    Audio #4
    ID : 5
    Format : AAC
    Format/Info : Advanced Audio Codec
    Format profile : LC
    Codec ID : 40
    Duration : 1h 42mn
    Bit rate mode : Variable
    Bit rate : 165 Kbps
    Maximum bit rate : 245 Kbps
    Channel(s) : 2 channels
    Channel positions : Front: L R
    Sampling rate : 48.0 KHz
    Compression mode : Lossy
    Stream size : 121 MiB (2%)
    Language : Russian
    Encoded date : UTC 2012-10-19 03:43:37
    Tagged date : UTC 2012-10-19 03:48:16
    Audio #5
    ID : 6
    Format : AAC
    Format/Info : Advanced Audio Codec
    Format profile : LC
    Codec ID : 40
    Duration : 1h 42mn
    Bit rate mode : Variable
    Bit rate : 164 Kbps
    Maximum bit rate : 244 Kbps
    Channel(s) : 2 channels
    Channel positions : Front: L R
    Sampling rate : 48.0 KHz
    Compression mode : Lossy
    Stream size : 121 MiB (2%)
    Language : English
    Encoded date : UTC 2012-10-19 03:43:37
    Tagged date : UTC 2012-10-19 03:49:27
    Audio #6
    ID : 7
    Format : AC-3
    Format/Info : Audio Coding 3
    Mode extension : CM (complete main)
    Format settings, Endianness : Big
    Codec ID : ac-3
    Duration : 1h 42mn
    Bit rate mode : Constant
    Bit rate : 384 Kbps
    Channel(s) : 6 channels
    Channel positions : Front: L C R, Side: L R, LFE
    Sampling rate : 48.0 KHz
    Bit depth : 16 bits
    Compression mode : Lossy
    Stream size : 282 MiB (6%)
    Language : Russian
    Encoded date : UTC 2012-10-19 03:43:37
    Tagged date : UTC 2012-10-19 03:51:03
    Audio #7
    ID : 8
    Format : AC-3
    Format/Info : Audio Coding 3
    Mode extension : CM (complete main)
    Format settings, Endianness : Big
    Codec ID : ac-3
    Duration : 1h 42mn
    Bit rate mode : Constant
    Bit rate : 384 Kbps
    Channel(s) : 6 channels
    Channel positions : Front: L C R, Side: L R, LFE
    Sampling rate : 48.0 KHz
    Bit depth : 16 bits
    Compression mode : Lossy
    Stream size : 282 MiB (6%)
    Language : English
    Encoded date : UTC 2012-10-19 03:43:37
    Tagged date : UTC 2012-10-19 03:52:24
    Text #1
    ID : 9
    Format : Timed Text
    Muxing mode : sbtl
    Codec ID : tx3g
    Duration : 1h 37mn
    Bit rate mode : Variable
    Bit rate : 38 bps
    Stream size : 27.3 KiB (0%)
    Language : Russian
    Encoded date : UTC 2012-10-19 03:43:37
    Tagged date : UTC 2012-10-19 03:52:25
    Text #2
    ID : 10
    Format : Timed Text
    Muxing mode : sbtl
    Codec ID : tx3g
    Duration : 1h 37mn
    Bit rate mode : Variable
    Bit rate : 33 bps
    Stream size : 23.8 KiB (0%)
    Language : English
    Encoded date : UTC 2012-10-19 03:43:37
    Tagged date : UTC 2012-10-19 03:52:25
    Menu #1
    00:00:00.000 : Chapter 1
    00:03:38.092 : Chapter 2
    00:07:36.164 : Chapter 3
    00:13:36.357 : Chapter 4
    00:15:21.962 : Chapter 5
    00:20:41.865 : Chapter 6
    00:26:38.972 : Chapter 7
    00:32:55.264 : Chapter 8
    00:36:32.356 : Chapter 9
    00:41:07.386 : Chapter 10
    00:45:57.546 : Chapter 11
    00:51:25.707 : Chapter 12
    00:56:19.042 : Chapter 13
    01:05:02.523 : Chapter 14
    01:08:27.520 : Chapter 15
    01:21:07.863 : Chapter 16
    01:24:52.629 : Chapter 17
    01:36:39.001 : Chapter 18
    Menu #2
    ID : 11
    Codec ID : text
    Duration : 1h 42mn
    Language : English
    Encoded date : UTC 2012-10-19 03:54:20
    Tagged date : UTC 2012-10-19 03:54:20
    00:00:00.000 : Chapter 1
    00:03:38.092 : Chapter 2
    00:07:36.164 : Chapter 3
    00:13:36.357 : Chapter 4
    00:15:21.962 : Chapter 5
    00:20:41.865 : Chapter 6
    00:26:38.972 : Chapter 7
    00:32:55.264 : Chapter 8
    00:36:32.356 : Chapter 9
    00:41:07.386 : Chapter 10
    00:45:57.546 : Chapter 11
    00:51:25.707 : Chapter 12
    00:56:19.042 : Chapter 13
    01:05:02.523 : Chapter 14
    01:08:27.520 : Chapter 15
    01:21:07.863 : Chapter 16
    01:24:52.629 : Chapter 17
    01:36:39.001 : Chapter 18
    Bit rate mode : VBR

    x264 лог 480p Release

    x264 [info]: frame I:7452  Avg QP:16.81  size: 15752  PSNR Mean Y:47.08 U:50.63 V:51.68 Avg:47.98 Global:47.57
    x264 [info]: frame P:140388 Avg QP:18.74  size:  8497  PSNR Mean Y:44.15 U:48.27 V:48.86 Avg:45.12 Global:44.70
    x264 [info]: mb I  I16..4: 54.1%  0.0% 45.9%
    x264 [info]: mb P  I16..4:  9.3%  0.0%  8.2%  P16..4: 48.2% 24.9%  0.3%  0.0%  0.5%    skip: 8.7%
    x264 [info]: coded y,uvDC,uvAC intra: 68.4% 56.1% 21.3% inter: 35.1% 18.8% 1.6%
    x264 [info]: i16 v,h,dc,p: 29% 15% 35% 21%
    x264 [info]: i4 v,h,dc,ddl,ddr,vr,hd,vl,hu: 25% 11% 26%  6%  7%  9%  5%  7%  4%
    x264 [info]: i8c dc,h,v,p: 56% 15% 23%  6%
    x264 [info]: ref P L0: 70.1% 29.9%
    x264 [info]: SSIM Mean Y:0.9777654 (16.530db)
    x264 [info]: PSNR Mean Y:44.293 U:48.386 V:49.002 Avg:45.264 Global:44.811 kb/s:1699.86

    x264 лог 720p Release

    x264 [info]: frame I:2129  Avg QP:17.87  size: 63444  PSNR Mean Y:46.59 U:50.33 V:50.94 Avg:47.53 Global:47.32
    x264 [info]: frame P:108938 Avg QP:19.10  size: 29989  PSNR Mean Y:44.51 U:49.26 V:50.16 Avg:45.61 Global:45.29
    x264 [info]: frame B:36773 Avg QP:21.23  size: 12278  PSNR Mean Y:43.22 U:48.31 V:49.58 Avg:44.39 Global:43.97
    x264 [info]: consecutive B-frames: 55.6% 30.3%  6.9%  5.2%  1.7%  0.3%  0.0%  0.0%  0.1%
    x264 [info]: mb I  I16..4:  6.3% 68.9% 24.8%
    x264 [info]: mb P  I16..4:  0.9%  8.2%  2.0%  P16..4: 46.1% 26.1% 10.8%  0.0%  0.0%    skip: 5.9%
    x264 [info]: mb B  I16..4:  0.0%  0.8%  0.3%  B16..8: 47.6% 12.7%  2.2%  direct: 7.1%  skip:29.3%  L0:37.5% L1:49.5% BI:13.0%
    x264 [info]: 8x8 transform intra:73.0% inter:49.9%
    x264 [info]: coded y,uvDC,uvAC intra: 89.9% 68.1% 34.5% inter: 37.5% 25.3% 2.2%
    x264 [info]: i16 v,h,dc,p: 37% 13% 10% 40%
    x264 [info]: i8 v,h,dc,ddl,ddr,vr,hd,vl,hu:  6%  5%  5% 13% 18% 16% 15% 11% 11%
    x264 [info]: i4 v,h,dc,ddl,ddr,vr,hd,vl,hu:  7%  6%  3% 13% 19% 17% 15% 11% 10%
    x264 [info]: i8c dc,h,v,p: 52% 17% 20% 11%
    x264 [info]: ref P L0: 61.4% 22.3% 16.4%
    x264 [info]: ref B L0: 82.2% 17.8%
    x264 [info]: SSIM Mean Y:0.9726343 (15.628db)
    x264 [info]: PSNR Mean Y:44.216 U:49.037 V:50.026 Avg:45.330 Global:44.942 kb/s:4999.56

    Скриншоты 480p Release


    Скриншоты 720p Release


    Цитата:
    Цитата:

    • Раздача раньше была у нас в разделе и делал ее Веселый Молодчик. Сейчас пробуем ее восстановить.
    • Версии 1080p у себя не держу, поэтому тут только 720p и бонусом 480p.
    • Я немного пересобрал структуру файлов, поэтому хеш со старой раздачей не совпадет вообще.
    -

    Релиз подготовлен для просмотра на Apple TV, iPad, iPhone, iPod Touch.
    Для просмотра данного релиза на компьютере с ОС Windows рекомендуется использовать VLC media player
    Скачать .torrent

    Скачать торрент-файл бесплатно и на максимальной скорости!

    Как скачивать? · Что такое торрент? · Рейтинг и ограничения

    !ВНИМАНИЕ!
    Сайт не распространяет и не хранит электронные версии произведений, а занимается лишь лишь предоставлением доступа к создаваемому пользователями каталогу ссылок на торрент-файлы, которые содержат только списки хеш-сумм, убедительная просьба с жалобами обращаться напрямую к пользователю. Файлы для обмена на трекере предоставлены пользователями сайта, и администрация не несёт ответственности за их содержание. Просьба не заливать файлы, защищенные авторскими правами, а также файлы нелегального содержания!


    _________________
    [Профиль] [ЛС]
    Показать сообщения:    
    Ответить на тему

    Текущее время: Сегодня, в 18:09

    Часовой пояс: GMT + 2



    Вы не можете начинать темы
    Вы не можете отвечать на сообщения
    Вы не можете редактировать свои сообщения
    Вы не можете удалять свои сообщения
    Вы не можете голосовать в опросах
    Вы не можете прикреплять файлы к сообщениям
    Вы не можете скачивать файлы