BitTorrentTracker PerecTracker.org
BitTorrentTracker PerecTracker.org
    
Регистрация  ·  Вход
 
 · 
Забыли пароль?

  • Ганнибал: Восхождение / Hannibal Rising (Питер Веббер) [2006 г, триллер, драма, криминал, BDRip 720p HD] DUB, MVO, AVO, Original + SUB (rus, eng)

    Ответить на тему
     
    Автор Сообщение

    Columb

    Создавать темы 27-Июл-2013 10:26

           

    [Цитировать]

    Ганнибал: Восхождение / Hannibal Rising«Всё началось с желания отомстить»-Год выпуска: 2006
    Страна: Великобритания, Чехия, Франция, Италия
    Жанр: триллер, драма, криминал
    Продолжительность: 02:10:32
    Перевод: Профессиональный дублированный, многоголосый закадровый, двухголосый закадровый и одноголосый авторский
    Субтитры: Русские и английские
    Режиссер: Питер Веббер
    Сценарий: Томас Харрис
    Продюсер: Тарак Бен Аммар, Дино Де Лаурентис, Марта Де Лаурентис
    Оператор: Бен Дэвис
    Композитор: Илан Эшкери, Сигэру Умэбваяси
    В ролях: Аарон Томас, Гаспар Ульель, Гун Ли, Хелена Лиа Тачовска, Ричард Лиф, Доминик Уэст, Рис Иванс, Мишель Вэйд, Ричард Брэйк, Мартин Хьюб-Бюджет: $50 000 000
    Сборы в США: $27 670 986
    Сборы в мире: + $54 498 898 = $82 169 884
    Сборы в России: $4 822 355
    DVD в США: $18 913 819
    Мировая премьера: 7 февраля 2007
    Премьера (РФ): 8 февраля 2007, «Парадиз»
    Релиз на DVD: 17 февраля 2009, «Парадиз Медиа»-Описание: Первая глава жизни самого знаменитого и хитроумного маньяка всех времен… Ему было шесть, когда на его глазах жестоко убили его семью. В двадцать, бежав во Францию, а затем в США, он получил блестящее образование психиатра. Впереди его ждала жизнь, полная привилегий. Но жажда мести за убийство семьи только разгоралась в нем…-Исходник: BD-Remux
    Контейнер: M4V
    Видео кодек:AVC
    Аудио кодек: AAC, AC3
    Видео HD Release: 1280x546 at 23.976 fps, MPEG-4 AVC, ~6500 kbps avg
    Аудио №1: Stereo RUS (160 kbps) / Многоголосый закадровый, Киномания
    Аудио №2: Stereo RUS (160 kbps) / Дубляж, Парадиз
    Аудио №3: Stereo RUS (160 kbps) / Одноголосый закадровый, С.Рябов
    Аудио №5: Stereo ENG (160 kbps) / Оригинал
    Аудио №7: AC-3 RUS (448 kbps) / Многоголосый закадровый, Киномания
    Аудио №7: AC-3 RUS (640 kbps) / Дубляж, Парадиз
    Аудио №8: AC-3 ENG (640 kbps) / Оригинал
    Субтитры №1: Russian
    Субтитры №2: English-

    Знаете ли Вы, что...

    Фильм снят по мотивам романа Томаса Харриса «Ганнибал: Восхождение» (Hannibal: Rising, 2007).
    Со съемочной площадки были украдены бутафорская отрубленная голова и резиновый пенис.
    На роль молодого Ганнибала Лектера пробовались многие молодые актеры, среди которых были: Хейден Кристенсен, Маколей Калкин, Хью Дэнси, Руперт Френд, Доминик Купер, Том Старридж и Том Пэйн.
    В качестве композитора фильма рассматривался Томас Ньюман.
    На протяжении фильма убивают 25 человек.
    Когда Ганнибал Лектер вводит себе тиопентал натрия, он играет знаменитые «Гольберг-вариации» Иоганна Себастьяна Баха — это та самая музыка, которая звучала в эпизоде побега Лектера в фильме «Молчание ягнят» (1991). Причем в этом фильме звучит запись исполнения пианиста Гленна Гулда 1955 года, в то время как в других фильмах о Ганнибале Лектере
    использовалась запись исполнения того же Гленна Гулда, но 1981 года.
    Актер Стивен Уолтерс (Зигмас Милко) в реальной жизни страдает клаустрофобией.
    На роль солдата, который съедает младшую сестру Ганнибала, режиссер Питер Веббер хотел пригласить шведского актера Микаэля Персбрандта, но оказалось, что тот уже занят в новом проекте и снимается в Швеции.
    -

    iTunes MetaTag

    Sort Name: Hannibal Rising
    XID: Apple:vendor_id:2006-50948
    contentID: 328825476
    Copyright: © 2006 Delta (Young Hannibal) Ltd.
    Screenwriters: Томас Харрис
    Producers: Тарак Бен Аммар, Дино Де Лаурентис, Марта Де Лаурентис
    Director: Питер Веббер
    Cast: Аарон Томас, Гаспар Ульель, Гун Ли, Хелена Лиа Тачовска, Ричард Лиф, Доминик Уэст, Рис Иванс, Мишель Вэйд, Ричард Брэйк, Мартин Хьюб
    Studio: The Weinstein Company
    Rating: 5
    Long Description: Первая глава жизни самого знаменитого и хитроумного маньяка всех времен… Ему было шесть, когда на его глазах жестоко убили его семью. В двадцать, бежав во Францию, а затем в США, он получил блестящее образование психиатра. Впереди его ждала жизнь, полная привилегий. Но жажда мести за убийство семьи только разгоралась в нем…
    Description: Первая глава жизни самого знаменитого и хитроумного маньяка всех времен… Ему было шесть, когда на его глазах жестоко убили его семью. В двадцать, бежав во Францию, а затем в США, он получил блестящее образование психиатра. Впереди его ждала жизнь, полная привилегий. Но жажда мести за убийство семьи только разгоралась в нем…
    Release Date: 2007-02-07T07:00:00Z
    Genre: Thriller
    Artist: Peter Webber
    Name: Hannibal Rising

    MediaInfo 720p Release

    General
    Complete name : /Volumes/iTunes/Movies/Hannibal Rising/Hannibal Rising (HD).m4v
    Format : MPEG-4
    Codec ID : M4V
    File size : 8.11 GiB
    Duration : 2h 10mn
    Overall bit rate mode : Variable
    Overall bit rate : 8 891 Kbps
    Movie name : Hannibal Rising
    Performer : Peter Webber
    Genre : Thriller
    Recorded date : UTC 2007-02-07 07:00:00
    Encoded date : UTC 2013-07-04 05:14:24
    Tagged date : UTC 2013-07-04 05:21:01
    Copyright : © 2006 Delta (Young Hannibal) Ltd.
    Cover : Yes
    sonm : Hannibal Rising
    desc : Первая глава жизни самого знаменитого и хитроумного маньяка всех времен… Ему было шесть, когда на его глазах жестоко убили его семью. В двадцать, бежав во Францию, а затем в США, он получил блестящее образование психиатра. Впереди его ждала жизнь, полная привилегий. Но жажда мести за убийство семьи только разгоралась в нем…
    ldes : Первая глава жизни самого знаменитого и хитроумного маньяка всех времен… Ему было шесть, когда на его глазах жестоко убили его семью. В двадцать, бежав во Францию, а затем в США, он получил блестящее образование психиатра. Впереди его ждала жизнь, полная привилегий. Но жажда мести за убийство семьи только разгоралась в нем…
    hdvd : 1
    stik : 9
    rtng : 0
    cnID : 328825476
    xid : Apple:vendor_id:2006-50948
    iTunEXTC : mpaa|R|400|
    iTunMOVI : <?xml version="1.0" encoding="UTF-8"?> / <!DOCTYPE plist PUBLIC "-//Apple//DTD PLIST 1.0//EN" "http://anonym.to/?http://anonym.to/?http://www.apple.com/DTDs/PropertyList-1.0.dtd"> / <plist version="1.0"> / <dict> / <key>cast</key> / <array> / <dict> / <key>name</key> / <string>Аарон Томас</string> / </dict> / <dict> / <key>name</key> / <string>Гаспар Ульель</string> / </dict> / <dict> / <key>name</key> / <string>Гун Ли</string> / </dict> / <dict> / <key>name</key> / <string>Хелена Лиа Тачовска</string> / </dict> / <dict> / <key>name</key> / <string>Ричард Лиф</string> / </dict> / <dict> / <key>name</key> / <string>Доминик Уэст</string> / </dict> / <dict> / <key>name</key> / <string>Рис Иванс</string> / </dict> / <dict> / <key>name</key> / <string>Мишель Вэйд</string> / </dict> / <dict> / <key>name</key> / <string>Ричард Брэйк</string> / </dict> / <dict> / <key>name</key> / <string>Мартин Хьюб</string> / </dict> / </array> / <key>directors</key> / <array> / <dict> / <key>name</key> / <string>Питер Веббер</string> / </dict> / </array> / <key>producers</key> / <array> / <dict> / <key>name</key> / <string>Тарак Бен Аммар</string> / </dict> / <dict> / <key>name</key> / <string>Дино Де Лаурентис</string> / </dict> / <dict> / <key>name</key> / <string>Марта Де Лаурентис</string> / </dict> / </array> / <key>screenwriters</key> / <array> / <dict> / <key>name</key> / <string>Томас Харрис</string> / </dict> / </array> / <key>studio</key> / <string>The Weinstein Company</string> / </dict> / </plist>
    Video #1
    ID : 1
    Format : AVC
    Format/Info : Advanced Video Codec
    Format profile : High@L3.1
    Format settings, CABAC : No
    Format settings, ReFrames : 3 frames
    Codec ID : avc1
    Codec ID/Info : Advanced Video Coding
    Duration : 2h 10mn
    Bit rate mode : Variable
    Bit rate : 6 500 Kbps
    Width : 1 280 pixels
    Height : 546 pixels
    Display aspect ratio : 2.35:1
    Frame rate mode : Variable
    Frame rate : 23.976 fps
    Minimum frame rate : 23.810 fps
    Maximum frame rate : 24.390 fps
    Color space : YUV
    Chroma subsampling : 4:2:0
    Bit depth : 8 bits
    Scan type : Progressive
    Bits/(Pixel*Frame) : 0.388
    Stream size : 5.92 GiB (73%)
    Writing library : x264 core 130 r2273 b3065e6
    Encoding settings : cabac=0 / ref=3 / deblock=1:1:-3 / analyse=0x3:0x113 / me=umh / subme=9 / psy=1 / psy_rd=0.90:0.00 / mixed_ref=1 / me_range=32 / chroma_me=1 / trellis=0 / 8x8dct=1 / cqm=0 / deadzone=21,11 / fast_pskip=1 / chroma_qp_offset=-2 / threads=6 / lookahead_threads=1 / sliced_threads=0 / nr=0 / decimate=1 / interlaced=0 / bluray_compat=0 / constrained_intra=0 / bframes=3 / b_pyramid=0 / b_adapt=2 / b_bias=0 / direct=1 / weightb=0 / open_gop=0 / weightp=0 / keyint=240 / keyint_min=24 / scenecut=40 / intra_refresh=0 / rc_lookahead=40 / rc=2pass / mbtree=1 / bitrate=6500 / ratetol=1.0 / qcomp=0.60 / qpmin=0 / qpmax=69 / qpstep=4 / cplxblur=20.0 / qblur=0.5 / vbv_maxrate=9500 / vbv_bufsize=9500 / nal_hrd=none / ip_ratio=1.40 / aq=1:1.00
    Language : English
    Encoded date : UTC 2013-07-04 05:14:24
    Tagged date : UTC 2013-07-04 05:17:58
    Color primaries : BT.709
    Transfer characteristics : BT.709
    Matrix coefficients : BT.709
    Video #2
    ID : 12
    Format : JPEG
    Codec ID : jpeg
    Duration : 2h 10mn
    Bit rate mode : Variable
    Bit rate : 306 bps
    Width : 640 pixels
    Height : 273 pixels
    Display aspect ratio : 2.35:1
    Frame rate mode : Constant
    Frame rate : 0.001 fps
    Color space : YUV
    Chroma subsampling : 4:2:0
    Bit depth : 8 bits
    Compression mode : Lossy
    Bits/(Pixel*Frame) : 1.751
    Stream size : 524 KiB (0%)
    Language : English
    Encoded date : UTC 2013-07-04 05:19:15
    Tagged date : UTC 2013-07-04 05:19:16
    Audio #1
    ID : 2
    Format : AAC
    Format/Info : Advanced Audio Codec
    Format profile : LC
    Codec ID : 40
    Duration : 2h 10mn
    Bit rate mode : Variable
    Bit rate : 164 Kbps
    Maximum bit rate : 252 Kbps
    Channel(s) : 2 channels
    Channel positions : Front: L R
    Sampling rate : 48.0 KHz
    Compression mode : Lossy
    Delay relative to video : 42ms
    Stream size : 154 MiB (2%)
    Language : Russian
    Encoded date : UTC 2013-07-04 05:14:24
    Tagged date : UTC 2013-07-04 05:14:34
    Audio #2
    ID : 3
    Format : AAC
    Format/Info : Advanced Audio Codec
    Format profile : LC
    Codec ID : 40
    Duration : 2h 10mn
    Bit rate mode : Variable
    Bit rate : 165 Kbps
    Maximum bit rate : 269 Kbps
    Channel(s) : 2 channels
    Channel positions : Front: L R
    Sampling rate : 48.0 KHz
    Compression mode : Lossy
    Delay relative to video : 42ms
    Stream size : 154 MiB (2%)
    Language : Russian
    Encoded date : UTC 2013-07-04 05:14:24
    Tagged date : UTC 2013-07-04 05:18:07
    Audio #3
    ID : 4
    Format : AAC
    Format/Info : Advanced Audio Codec
    Format profile : LC
    Codec ID : 40
    Duration : 2h 10mn
    Bit rate mode : Variable
    Bit rate : 164 Kbps
    Maximum bit rate : 265 Kbps
    Channel(s) : 2 channels
    Channel positions : Front: L R
    Sampling rate : 48.0 KHz
    Compression mode : Lossy
    Delay relative to video : 42ms
    Stream size : 154 MiB (2%)
    Language : Russian
    Encoded date : UTC 2013-07-04 05:14:24
    Tagged date : UTC 2013-07-04 05:18:15
    Audio #4
    ID : 5
    Format : AAC
    Format/Info : Advanced Audio Codec
    Format profile : LC
    Codec ID : 40
    Duration : 2h 10mn
    Bit rate mode : Variable
    Bit rate : 165 Kbps
    Maximum bit rate : 268 Kbps
    Channel(s) : 2 channels
    Channel positions : Front: L R
    Sampling rate : 48.0 KHz
    Compression mode : Lossy
    Delay relative to video : 42ms
    Stream size : 154 MiB (2%)
    Language : English
    Encoded date : UTC 2013-07-04 05:14:24
    Tagged date : UTC 2013-07-04 05:18:24
    Audio #5
    ID : 6
    Format : AC-3
    Format/Info : Audio Coding 3
    Mode extension : CM (complete main)
    Format settings, Endianness : Big
    Codec ID : ac-3
    Duration : 2h 10mn
    Bit rate mode : Constant
    Bit rate : 448 Kbps
    Channel(s) : 6 channels
    Channel positions : Front: L C R, Side: L R, LFE
    Sampling rate : 48.0 KHz
    Bit depth : 16 bits
    Compression mode : Lossy
    Delay relative to video : 42ms
    Stream size : 418 MiB (5%)
    Language : Russian
    Encoded date : UTC 2013-07-04 05:14:24
    Tagged date : UTC 2013-07-04 05:18:36
    Audio #6
    ID : 7
    Format : AC-3
    Format/Info : Audio Coding 3
    Mode extension : CM (complete main)
    Format settings, Endianness : Big
    Codec ID : ac-3
    Duration : 2h 10mn
    Bit rate mode : Constant
    Bit rate : 640 Kbps
    Channel(s) : 6 channels
    Channel positions : Front: L C R, Side: L R, LFE
    Sampling rate : 48.0 KHz
    Bit depth : 16 bits
    Compression mode : Lossy
    Delay relative to video : 42ms
    Stream size : 598 MiB (7%)
    Language : Russian
    Encoded date : UTC 2013-07-04 05:14:24
    Tagged date : UTC 2013-07-04 05:18:52
    Audio #7
    ID : 8
    Format : AC-3
    Format/Info : Audio Coding 3
    Mode extension : CM (complete main)
    Format settings, Endianness : Big
    Codec ID : ac-3
    Duration : 2h 10mn
    Bit rate mode : Constant
    Bit rate : 640 Kbps
    Channel(s) : 6 channels
    Channel positions : Front: L C R, Side: L R, LFE
    Sampling rate : 48.0 KHz
    Bit depth : 16 bits
    Compression mode : Lossy
    Delay relative to video : 42ms
    Stream size : 598 MiB (7%)
    Language : English
    Encoded date : UTC 2013-07-04 05:14:24
    Tagged date : UTC 2013-07-04 05:19:09
    Text #1
    ID : 9
    Format : Timed Text
    Muxing mode : sbtl
    Codec ID : tx3g
    Duration : 2h 4mn
    Bit rate mode : Variable
    Bit rate : 47 bps
    Delay relative to video : 42ms
    Stream size : 42.8 KiB (0%)
    Language : Russian
    Encoded date : UTC 2013-07-04 05:14:24
    Tagged date : UTC 2013-07-04 05:19:09
    Text #2
    ID : 10
    Format : Timed Text
    Muxing mode : sbtl
    Codec ID : tx3g
    Duration : 2h 2mn
    Bit rate mode : Variable
    Bit rate : 39 bps
    Delay relative to video : 42ms
    Stream size : 34.8 KiB (0%)
    Language : English
    Encoded date : UTC 2013-07-04 05:14:24
    Tagged date : UTC 2013-07-04 05:19:09
    Menu #1
    00:00:00.000 : 1
    00:10:06.022 : 2
    00:18:08.379 : 3
    00:26:01.143 : 4
    00:36:12.170 : 5
    00:45:09.248 : 6
    00:55:03.675 : 7
    01:04:39.501 : 8
    01:12:14.455 : 9
    01:24:41.868 : 10
    01:32:32.422 : 11
    01:42:58.631 : 12
    01:50:09.728 : 13
    02:02:39.435 : 14
    Menu #2
    ID : 11
    Codec ID : text
    Duration : 2h 10mn
    Language : English
    Encoded date : UTC 2013-07-04 05:19:09
    Tagged date : UTC 2013-07-04 05:19:09
    Bit rate mode : VBR
    00:00:00.000 : 1
    00:10:06.022 : 2
    00:18:08.379 : 3
    00:26:01.143 : 4
    00:36:12.170 : 5
    00:45:09.248 : 6
    00:55:03.675 : 7
    01:04:39.501 : 8
    01:12:14.455 : 9
    01:24:41.868 : 10
    01:32:32.422 : 11
    01:42:58.631 : 12
    01:50:09.728 : 13
    02:02:39.435 : 14

    x264 log 720p Release

    x264 [info]: frame I:2268 Avg QP:12.30 size:143794 PSNR Mean Y:49.80 U:54.07 V:54.32 Avg:50.81 Global:50.04
    x264 [info]: frame P:59552 Avg QP:14.70 size: 54709 PSNR Mean Y:47.42 U:52.03 V:52.32 Avg:48.47 Global:47.39
    x264 [info]: frame B:125979 Avg QP:16.75 size: 21999 PSNR Mean Y:46.15 U:51.73 V:52.37 Avg:47.35 Global:46.22
    x264 [info]: consecutive B-frames: 2.6% 14.8% 27.6% 55.0%
    x264 [info]: mb I I16..4: 13.3% 58.6% 28.1%
    x264 [info]: mb P I16..4: 1.6% 14.0% 4.3% P16..4: 27.4% 28.6% 12.8% 0.0% 0.0% skip:11.3%
    x264 [info]: mb B I16..4: 0.3% 3.8% 0.9% B16..8: 35.9% 18.7% 4.0% direct: 7.7% skip:28.8% L0:37.5% L1:44.7% BI:17.8%
    x264 [info]: 8x8 transform intra:70.7% inter:41.1%
    x264 [info]: coded y,uvDC,uvAC intra: 91.1% 68.3% 51.8% inter: 38.7% 13.5% 3.7%
    x264 [info]: i16 v,h,dc,p: 50% 9% 11% 31%
    x264 [info]: i8 v,h,dc,ddl,ddr,vr,hd,vl,hu: 11% 8% 12% 10% 13% 13% 12% 11% 10%
    x264 [info]: i4 v,h,dc,ddl,ddr,vr,hd,vl,hu: 22% 6% 6% 10% 14% 13% 11% 10% 8%
    x264 [info]: i8c dc,h,v,p: 58% 16% 18% 8%
    x264 [info]: ref P L0: 69.4% 18.9% 11.6%
    x264 [info]: ref B L0: 82.4% 17.6%
    x264 [info]: SSIM Mean Y:0.9842721 (18.033db)
    x264 [info]: PSNR Mean Y:46.596 U:51.852 V:52.375 Avg:47.748 Global:46.591 kb/s:6491.25

    Скриншоты 720p Release

    Скачать .torrent

    Скачать торрент-файл бесплатно и на максимальной скорости!

    Как скачивать? · Что такое торрент? · Рейтинг и ограничения

    !ВНИМАНИЕ!
    Сайт не распространяет и не хранит электронные версии произведений, а занимается лишь лишь предоставлением доступа к создаваемому пользователями каталогу ссылок на торрент-файлы, которые содержат только списки хеш-сумм, убедительная просьба с жалобами обращаться напрямую к пользователю. Файлы для обмена на трекере предоставлены пользователями сайта, и администрация не несёт ответственности за их содержание. Просьба не заливать файлы, защищенные авторскими правами, а также файлы нелегального содержания!

    [Профиль] [ЛС]
    Показать сообщения:    
    Ответить на тему

    Текущее время: Сегодня, в 02:36

    Часовой пояс: GMT + 2



    Вы не можете начинать темы
    Вы не можете отвечать на сообщения
    Вы не можете редактировать свои сообщения
    Вы не можете удалять свои сообщения
    Вы не можете голосовать в опросах
    Вы не можете прикреплять файлы к сообщениям
    Вы не можете скачивать файлы