BitTorrentTracker PerecTracker.org
BitTorrentTracker PerecTracker.org
    
Регистрация  ·  Вход
 
 · 
Забыли пароль?

  • Шпион / Spy (Пол Фиг / Paul Feig ) [2015, США, Боевик, комедия, криминал, WEB-DL, HD (720p)] DUB + Original + sub (rus, ukr, eng)

    Ответить на тему
     
    Автор Сообщение

    Flirldrerve

    Создавать темы 27-Окт-2015 05:19

           

    [Цитировать]

    Шпион / Spy
    «Одна из пижонов. Одна из шпионов»
    7.329 / 10 7.30 / 10
    -Год выпуска: 2015
    Страна: США
    Жанр: Боевик, комедия, криминал
    Продолжительность: 02:00:11
    Перевод: Дублированный (iTunes)
    Оригинальная аудиодорожка: Есть
    Cубтитры: Русские форсированные, Русские, Украинские, Английские форсированные, Английские
    Режиссёр: Пол Фиг
    Сценарий: Пол Фиг
    Продюсер: Питер Чернин, Пол Фиг, Джесси Хендерсон
    Оператор: Роберт Д. Йоумен
    Композитор: Теодор Шапиро
    Художник: Джеффресон Сэйдж, Том Браун, Бенце Эрдейи
    Монтаж: Меллисса Брезертон, Брент Уайт
    В ролях: Мелисса МакКарти, Джейсон Стэйтем, Джуд Лоу, Роуз Бирн, Миранда Харт, Бобби Каннавале, Морена Баккарин, Питер Серафинович, Эллисон Дженни, Ричард Брэйк
    Бюджет: $65 000 000
    Сборы в США: $110 385 757
    Сборы в мире: + $125 390 013 = $235 775 770
    Сборы в России: $7 946 957
    Мировая премьера: 15 марта 2015
    Премьера (РФ): 4 июня 2015, «Двадцатый Век Фокс СНГ»
    Описание: Сьюзан Купер всю свою жизнь мечтала стать секретным агентом и даже устроилась работать в ЦРУ. Однако, дальше сотрудника самой низкой ступени ей так и не удалось продвинуться. Понимая, что осуществить свою мечту практически невозможно, она все-таки продолжает надеяться на лучшее и с нетерпением ожидает своего шанса. И вскоре судьба дарит ей такую возможность. Лучший агент проваливает секретное задание, в ходе которого он должен был выяснить местонахождение ядерной бомбы, но, совершенно случайно, застрелил единственного человека, владеющего этой информацией.-Качество исходника: WEB-DL 720p
    Качество: WEB-DL
    Тип: HD (720p)
    Контейнер: M4V
    Видео: H.264, 1280x534, 2.40:1, 4 046 Kbps, 23.976 fps
    Аудио 1: Русский/Дублированный (iTunes), AAC / 2.0 / 156 Kbps / 48.0 KHz
    Аудио 2: Английский/Оригинальная дорожка , AAC / 2.0 / 154 Kbps / 48.0 KHz
    Аудио 3: Русский/Дублированный (iTunes), AC-3 / 5.1 / 384 Kbps / 48.0 KHz
    Субтитры 1: Русские форсированные
    Субтитры 2: Русские полные
    Субтитры 3: Украинские полные
    Субтитры 4: Английские форсированные
    Субтитры 5: Английские полные
    -

    iTunes Meta Tags

    Sort Name: Шпион
    XID: Apple:vendor_id:2015-782792
    contentID: 993957444
    Copyright: © 2015 Twentieth Century Fox Film Corporation. All rights reserved.
    Screenwriters: Пол Фиг
    Producers: Питер Чернин, Пол Фиг, Джесси Хендерсон
    Director: Пол Фиг
    Cast: Мелисса МакКарти, Джейсон Стэйтем, Джуд Лоу, Роуз Бирн, Миранда Харт, Бобби Каннавале, Морена Баккарин, Раад Рави, Джессика Чаффин, Сэм Ричардсон, Марианна Шульц, Юрий Деркач, Василий Дахненко, Елена Шульман, Дарья Фролова
    Studio: 20th Century Fox Film
    Rating: 4
    Long Description: Сьюзан Купер всю свою жизнь мечтала стать секретным агентом и даже устроилась работать в ЦРУ. Однако, дальше сотрудника самой низкой ступени ей так и не удалось продвинуться. Понимая, что осуществить свою мечту практически невозможно, она все-таки продолжает надеяться на лучшее и с нетерпением ожидает своего шанса. И вскоре судьба дарит ей такую возможность. Лучший агент проваливает секретное задание, в ходе которого он должен был выяснить местонахождение ядерной бомбы, но, совершенно случайно, застрелил единственного человека, владеющего этой информацией.
    Через некоторое время службе разведки становится известно, что Рейна Боянова знает, где находится бомба, но она также знает в лицо всех секретных агентов ЦРУ. Теперь у руководства не остается другого выбора, как воспользоваться услугами Сьюзан Купер, но сможет ли она справиться со столь сложной миссией?..
    Description: Сьюзан Купер всю свою жизнь мечтала стать секретным агентом и даже устроилась работать в ЦРУ. Однако, дальше сотрудника самой низкой ступени ей так и не удалось продвинуться. Понимая, что осуществить свою мечту практически невозможно, она все-таки продолжает надеяться на лучшее и с нетерпением ожидает своего шанса.
    Release Date: 2015-03-15T08:00:00Z
    Genre: Комедии
    Artist: Paul Feig
    Name: Шпион

    MediaInfo

    General
    Complete name                            : /Users/imac/HandBrake/Spy.WEB.DL.720p.m4v
    Format                                   : MPEG-4
    Codec ID                                 : M4V
    File size                                : 3.99 GiB
    Duration                                 : 2h 0mn
    Overall bit rate mode                    : Variable
    Overall bit rate                         : 4 748 Kbps
    Movie name                               : Шпион
    Performer                                : Paul Feig
    Genre                                    : Комедии
    Recorded date                            : UTC 2015-03-15 08:00:00
    Encoded date                             : UTC 2015-09-04 10:46:43
    Tagged date                              : UTC 2015-09-04 10:48:45
    Copyright                                : © 2015 Twentieth Century Fox Film Corporation. All rights reserved.
    Cover                                    : Yes
    sonm                                     : Шпион
    desc                                     : Сьюзан Купер всю свою жизнь мечтала стать секретным агентом и даже устроилась работать в ЦРУ. Однако, дальше сотрудника самой низкой ступени ей так и не удалось продвинуться. Понимая, что осуществить свою мечту практически невозможно, она все-таки продолжает надеяться на лучшее и с нетерпением ожидает своего шанса.
    ldes                                     : Сьюзан Купер всю свою жизнь мечтала стать секретным агентом и даже устроилась работать в ЦРУ. Однако, дальше сотрудника самой низкой ступени ей так и не удалось продвинуться. Понимая, что осуществить свою мечту практически невозможно, она все-таки продолжает надеяться на лучшее и с нетерпением ожидает своего шанса. И вскоре судьба дарит ей такую возможность. Лучший агент проваливает секретное задание, в ходе которого он должен был выяснить местонахождение ядерной бомбы, но, совершенно случайно, застрелил единственного человека, владеющего этой информацией. / Через некоторое время службе разведки становится известно, что Рейна Боянова знает, где находится бомба, но она также знает в лицо всех секретных агентов ЦРУ. Теперь у руководства не остается другого выбора, как воспользоваться услугами Сьюзан Купер, но сможет ли она справиться со столь сложной миссией?..
    hdvd                                     : 1
    stik                                     : 9
    rtng                                     : 0
    cnID                                     : 993957444
    xid                                      : Apple:vendor_id:2015-782792
    iTunEXTC                                 : ru-movie|16+|375|
    iTunMOVI                                 : <?xml version=\"1.0\" encoding=\"UTF-8\"?> / <!DOCTYPE plist PUBLIC \"-//Apple//DTD PLIST 1.0//EN\" \"http://anonym.to/?http://www.apple.com/DTDs/PropertyList-1.0.dtd\"> / <plist version=\"1.0\"> / <dict> /  <key>cast</key> /  <array> /   <dict> /    <key>name</key> /    <string>Мелисса МакКарти</string> /   </dict> /   <dict> /    <key>name</key> /    <string>Джейсон Стэйтем</string> /   </dict> /   <dict> /    <key>name</key> /    <string>Джуд Лоу</string> /   </dict> /   <dict> /    <key>name</key> /    <string>Роуз Бирн</string> /   </dict> /   <dict> /    <key>name</key> /    <string>Миранда Харт</string> /   </dict> /   <dict> /    <key>name</key> /    <string>Бобби Каннавале</string> /   </dict> /   <dict> /    <key>name</key> /    <string>Морена Баккарин</string> /   </dict> /   <dict> /    <key>name</key> /    <string>Раад Рави</string> /   </dict> /   <dict> /    <key>name</key> /    <string>Джессика Чаффин</string> /   </dict> /   <dict> /    <key>name</key> /    <string>Сэм Ричардсон</string> /   </dict> /   <dict> /    <key>name</key> /    <string>Марианна Шульц</string> /   </dict> /   <dict> /    <key>name</key> /    <string>Юрий Деркач</string> /   </dict> /   <dict> /    <key>name</key> /    <string>Василий Дахненко</string> /   </dict> /   <dict> /    <key>name</key> /    <string>Елена Шульман</string> /   </dict> /   <dict> /    <key>name</key> /    <string>Дарья Фролова</string> /   </dict> /  </array> /  <key>directors</key> /  <array> /   <dict> /    <key>name</key> /    <string>Пол Фиг</string> /   </dict> /  </array> /  <key>producers</key> /  <array> /   <dict> /    <key>name</key> /    <string>Питер Чернин</string> /   </dict> /   <dict> /    <key>name</key> /    <string>Пол Фиг</string> /   </dict> /   <dict> /    <key>name</key> /    <string>Джесси Хендерсон</string> /   </dict> /  </array> /  <key>screenwriters</key> /  <array> /   <dict> /    <key>name</key> /    <string>Пол Фиг</string> /   </dict> /  </array> /  <key>studio</key> /  <string>20th Century Fox Film</string> / </dict> / </plist>
    Video #1
    ID                                       : 1
    Format                                   : AVC
    Format/Info                              : Advanced Video Codec
    Format profile                           : Main@L3.1
    Format settings, CABAC                   : No
    Format settings, ReFrames                : 2 frames
    Codec ID                                 : avc1
    Codec ID/Info                            : Advanced Video Coding
    Duration                                 : 2h 0mn
    Bit rate mode                            : Variable
    Bit rate                                 : 4 046 Kbps
    Width                                    : 1 280 pixels
    Height                                   : 534 pixels
    Display aspect ratio                     : 2.40:1
    Frame rate mode                          : Constant
    Frame rate                               : 23.976 fps
    Color space                              : YUV
    Chroma subsampling                       : 4:2:0
    Bit depth                                : 8 bits
    Scan type                                : Progressive
    Bits/(Pixel*Frame)                       : 0.247
    Stream size                              : 3.40 GiB (85%)
    Language                                 : English
    Encoded date                             : UTC 2015-09-04 10:46:43
    Tagged date                              : UTC 2015-09-04 10:46:53
    Color primaries                          : BT.709-5, BT.1361, IEC 61966-2-4, SMPTE RP177
    Transfer characteristics                 : BT.709-5, BT.1361
    Matrix coefficients                      : BT.709-5, BT.1361, IEC 61966-2-4 709, SMPTE RP177
    Video #2
    ID                                       : 11
    Format                                   : JPEG
    Codec ID                                 : jpeg
    Duration                                 : 2h 0mn
    Bit rate mode                            : Variable
    Bit rate                                 : 1 313 bps
    Width                                    : 640 pixels
    Height                                   : 267 pixels
    Display aspect ratio                     : 2.40:1
    Frame rate mode                          : Variable
    Frame rate                               : 0.004 fps
    Minimum frame rate                       : 0.003 fps
    Maximum frame rate                       : 0.011 fps
    Color space                              : YUV
    Chroma subsampling                       : 4:2:0
    Bit depth                                : 8 bits
    Compression mode                         : Lossy
    Bits/(Pixel*Frame)                       : 1.921
    Stream size                              : 1.25 MiB (0%)
    Language                                 : English
    Encoded date                             : UTC 2015-09-04 10:47:36
    Tagged date                              : UTC 2015-09-04 10:47:37
    Audio #1
    ID                                       : 2
    Format                                   : AAC
    Format/Info                              : Advanced Audio Codec
    Format profile                           : LC
    Codec ID                                 : 40
    Duration                                 : 1h 59mn
    Bit rate mode                            : Variable
    Bit rate                                 : 156 Kbps
    Maximum bit rate                         : 230 Kbps
    Channel(s)                               : 2 channels
    Channel positions                        : Front: L R
    Sampling rate                            : 48.0 KHz
    Compression mode                         : Lossy
    Stream size                              : 134 MiB (3%)
    Language                                 : Russian
    Encoded date                             : UTC 2015-09-04 10:46:43
    Tagged date                              : UTC 2015-09-04 10:47:29
    Audio #2
    ID                                       : 3
    Format                                   : AAC
    Format/Info                              : Advanced Audio Codec
    Format profile                           : LC
    Codec ID                                 : 40
    Duration                                 : 1h 59mn
    Bit rate mode                            : Variable
    Bit rate                                 : 154 Kbps
    Maximum bit rate                         : 247 Kbps
    Channel(s)                               : 2 channels
    Channel positions                        : Front: L R
    Sampling rate                            : 48.0 KHz
    Compression mode                         : Lossy
    Stream size                              : 133 MiB (3%)
    Language                                 : English
    Encoded date                             : UTC 2015-09-04 10:46:43
    Tagged date                              : UTC 2015-09-04 10:47:29
    Audio #3
    ID                                       : 4
    Format                                   : AC-3
    Format/Info                              : Audio Coding 3
    Mode extension                           : CM (complete main)
    Format settings, Endianness              : Big
    Codec ID                                 : ac-3
    Duration                                 : 1h 59mn
    Bit rate mode                            : Constant
    Bit rate                                 : 384 Kbps
    Channel(s)                               : 6 channels
    Channel positions                        : Front: L C R, Side: L R, LFE
    Sampling rate                            : 48.0 KHz
    Bit depth                                : 16 bits
    Compression mode                         : Lossy
    Stream size                              : 330 MiB (8%)
    Language                                 : Russian
    Encoded date                             : UTC 2015-09-04 10:46:43
    Tagged date                              : UTC 2015-09-04 10:47:29
    Text #1
    ID                                       : 5
    Format                                   : Timed text
    Muxing mode                              : sbtl
    Codec ID                                 : tx3g
    Duration                                 : 1h 59mn
    Bit rate mode                            : Variable
    Bit rate                                 : 1 bps
    Stream size                              : 571 Bytes (0%)
    Language                                 : Russian
    Encoded date                             : UTC 2015-09-04 10:46:43
    Tagged date                              : UTC 2015-09-04 10:47:14
    Text #2
    ID                                       : 6
    Format                                   : Timed text
    Muxing mode                              : sbtl
    Codec ID                                 : tx3g
    Duration                                 : 1h 59mn
    Bit rate mode                            : Variable
    Bit rate                                 : 133 bps
    Stream size                              : 117 KiB (0%)
    Language                                 : Russian
    Encoded date                             : UTC 2015-09-04 10:46:43
    Tagged date                              : UTC 2015-09-04 10:47:29
    Text #3
    ID                                       : 7
    Format                                   : Timed text
    Muxing mode                              : sbtl
    Codec ID                                 : tx3g
    Duration                                 : 1h 59mn
    Bit rate mode                            : Variable
    Bit rate                                 : 142 bps
    Stream size                              : 125 KiB (0%)
    Language                                 : Ukrainian
    Encoded date                             : UTC 2015-09-04 10:46:43
    Tagged date                              : UTC 2015-09-04 10:47:29
    Text #4
    ID                                       : 8
    Format                                   : Timed text
    Muxing mode                              : sbtl
    Codec ID                                 : tx3g
    Duration                                 : 36mn 39s
    Bit rate mode                            : Variable
    Bit rate                                 : 1 bps
    Stream size                              : 181 Bytes (0%)
    Language                                 : English
    Encoded date                             : UTC 2015-09-04 10:46:43
    Tagged date                              : UTC 2015-09-04 10:47:03
    Text #5
    ID                                       : 9
    Format                                   : Timed text
    Muxing mode                              : sbtl
    Codec ID                                 : tx3g
    Duration                                 : 1h 59mn
    Bit rate mode                            : Variable
    Bit rate                                 : 91 bps
    Stream size                              : 79.9 KiB (0%)
    Language                                 : English
    Encoded date                             : UTC 2015-09-04 10:46:43
    Tagged date                              : UTC 2015-09-04 10:47:29
    Text #6
    ID                                       : 10
    Format                                   : Apple text
    Codec ID                                 : text
    Duration                                 : 2h 0mn
    Bit rate mode                            : Variable
    Bit rate                                 : 1 bps
    Stream size                              : 503 Bytes (0%)
    Language                                 : English
    Encoded date                             : UTC 2015-09-04 10:47:29
    Tagged date                              : UTC 2015-09-04 10:47:29
    Menu
    00:00:00.000                             : 1
    00:03:36.000                             : 2
    00:07:43.000                             : 3
    00:10:06.000                             : 4
    00:13:13.000                             : 5
    00:14:45.000                             : 6
    00:17:54.000                             : 7
    00:20:25.000                             : 8
    00:24:31.000                             : 9
    00:27:42.000                             : 10
    00:30:46.000                             : 11
    00:35:43.000                             : 12
    00:41:37.000                             : 13
    00:43:52.000                             : 14
    00:46:35.000                             : 15
    00:51:06.000                             : 16
    00:54:08.000                             : 17
    00:59:14.000                             : 18
    01:03:14.000                             : 19
    01:05:15.000                             : 20
    01:10:41.000                             : 21
    01:16:12.000                             : 22
    01:20:14.000                             : 23
    01:24:41.000                             : 24
    01:28:03.000                             : 25
    01:31:18.000                             : 26
    01:35:48.000                             : 27
    01:40:38.000                             : 28
    01:45:24.000                             : 29
    01:49:19.000                             : 30
    01:52:07.000                             : 31
    01:54:37.000                             : 32

    Скриншоты

    -

    Релиз подготовлен для просмотра на Apple TV, iPad, iPhone, iPod Touch.
    Для просмотра данного релиза на компьютере с ОС Windows рекомендуется использовать VLC media player
    Скачать .torrent

    Скачать торрент-файл бесплатно и на максимальной скорости!

    Как скачивать? · Что такое торрент? · Рейтинг и ограничения

    !ВНИМАНИЕ!
    Сайт не распространяет и не хранит электронные версии произведений, а занимается лишь лишь предоставлением доступа к создаваемому пользователями каталогу ссылок на торрент-файлы, которые содержат только списки хеш-сумм, убедительная просьба с жалобами обращаться напрямую к пользователю. Файлы для обмена на трекере предоставлены пользователями сайта, и администрация не несёт ответственности за их содержание. Просьба не заливать файлы, защищенные авторскими правами, а также файлы нелегального содержания!


    _________________
    [Профиль] [ЛС]
    Показать сообщения:    
    Ответить на тему

    Текущее время: Сегодня, в 18:07

    Часовой пояс: GMT + 2



    Вы не можете начинать темы
    Вы не можете отвечать на сообщения
    Вы не можете редактировать свои сообщения
    Вы не можете удалять свои сообщения
    Вы не можете голосовать в опросах
    Вы не можете прикреплять файлы к сообщениям
    Вы не можете скачивать файлы