BitTorrentTracker PerecTracker.org
BitTorrentTracker PerecTracker.org
    
Регистрация  ·  Вход
 
 · 
Забыли пароль?

  • Разборки в маленьком Токио / Showdown in Little Tokyo (Марк Л. Лестер) [1991, США, боевик, триллер, комедия, криминал, BDRip HD (720p), SD (480p)] DUB, MVO, DVO, AVO, Original + SUB (rus, eng))

    Ответить на тему
     
    Автор Сообщение

    Flirldrerve

    Создавать темы 27-Окт-2015 05:19

           

    [Цитировать]

    Разборки в маленьком Токио / Showdown in Little Tokyo
    "Один - воин. Второй - мудрец. Двое полицейских из Лос-Анджелеса, преследующие японских наркобаронов. Ногами вперёд"
    7.159 / 10
    -Год выпуска: 1991
    Страна: США
    Жанр: боевик, триллер, комедия, криминал
    Продолжительность: 79 мин.
    Перевод: Профессиональный дублированный перевод, многоголосый закадровый перевод, двухголосый закадровый перевод и одноголосый закадровый авторский перевод
    Оригинальная аудиодорожка: Есть
    Cубтитры: Русские полные, английские форсированные, английские полные и английские полные SDH
    Режиссёр: Марк Л. Лестер
    Сценарий: Стивен Глэнц, Калиоп Брэттлстрит
    Продюсер: Мартин Э. Каан, Марк Л. Лестер, Джон С. Бродерик
    Оператор: Марк Ирвин
    Композитор: Дэвид Майкл Фрэнк
    Художник: Крэйг Стернс, Билл Ри, Робин Уильямс
    Монтаж: Майкл Элиот, Роберт А. Ферретти, Стивен Кемпер
    В ролях: Дольф Лундгрен, Брэндон Ли, Кэри-Хироюки Тагава, Тиа Каррере, Тоширо Обата, Филип Тан, Родни Кагеяма, Эрни Лайвли, Рене Гриффин, Рейд Асато
    Роли дублировали: Владимир Антоник, Вадим Курков, Сергей Быстрицкий, Владимир Конкин, Всеволод Абдулов
    Бюджет: $7 500 000
    Сборы в США: $2 275 557
    Мировая премьера: 23 августа 1991
    Релиз на DVD: 25 октября 2001, Мост-Видео
    Описание: Они - лос-анджелесские полицейские, которые перемежают удары с попаданием в газетные заголовки, во время Разборки в маленьком Токио. Герой Дольфа Лундгрена - мускулистый американский самурай, сведущий в восточных традициях. Герой Брэндона Ли - "деревенский увалень", которому предстоит немало драк. Им двоим придется круто на войне против японской наркомафии Лос-Анджелеса.-Качество исходника: BD-Remux 1080p (HDClub)
    Качество: BDRip
    Тип: 480p 720p
    Контейнер: m4v
    Видео: 640x480 анаморф 852x480 at 23.976 fps, MPEG-4 AVC, ~1800 kbps avg
    Видео: 1280x720 at 23.976 fps, MPEG-4 AVC, ~7000 kbps avg
    Аудио#1: Russian: 48 kHz, ААС, 2/0 (L,R), ~128.00 / 192.00 kbps avg |Дубляж, R5|
    Аудио#2: Russian: 48 kHz, ААС, 2/0 (L,R), ~128.00 / 192.00 kbps avg |Дубляж, Варус Видео|
    Аудио#3: Russian: 48 kHz, ААС, 2/0 (L,R), ~128.00 / 192.00 kbps avg |Многоголосый закадровый, ВГТРК|
    Аудио#4: Russian: 48 kHz, ААС, 2/0 (L,R), ~128.00 / 192.00 kbps avg |Двухголосый закадровый, НТВ|
    Аудио#5: Russian: 48 kHz, ААС, 2/0 (L,R), ~128.00 / 192.00 kbps avg |Одноголосый закадровый, А. Гаврилов|
    Аудио#6: Russian: 48 kHz, ААС, 2/0 (L,R), ~128.00 / 192.00 kbps avg |Одноголосый закадровый, Л. Володарский|
    Аудио#7: Russian: 48 kHz, ААС, 2/0 (L,R), ~128.00 / 192.00 kbps avg |Одноголосый закадровый, М. Чадов|
    Аудио#8: Russian: 48 kHz, ААС, 2/0 (L,R), ~128.00 / 192.00 kbps avg |Одноголосый закадровый, С. Кузнецов|
    Аудио#9: Russian: 48 kHz, ААС, 2/0 (L,R), ~128.00 / 192.00 kbps avg |Одноголосый закадровый, С. Зереницын|
    Аудио#10: Ukrainian: 48 kHz, ААС, 2/0 (L,R), ~128.00 / 192.00 kbps avg |Многоголосый закадровый,ICTV|
    Аудио#11: Ukrainian: 48 kHz, ААС, 2/0 (L,R), ~128.00 / 192.00 kbps avg |Многоголосый закадровый,Интер|
    Аудио#12: English: 48 kHz, ААС, 2/0 (L,R), ~128.00 / 192.00 kbps avg
    Субтитры №1: English: |Форсированные|
    Субтитры №2: Russian: |Полные|
    Субтитры №3: English: |Полные|
    Субтитры №4: English: |Полные, SDH|-

    Знаете ли Вы, что...

  • Оригинальный сценарий состоял из 104-х страниц и включал в себя удалённые затем продюсерами сцены (например, сцена, где Кеннер и Мурата после драки в сауне преследуют одного из якудза, попадая в торговый центр). Уже в процессе съёмок сценарий решили урезать, оставив только 95 страниц.
  • Опасаясь, что фильм получит рейтинг NC-17, режиссёр Марк Л. Лестер сократил некоторые особо откровенные или жестокие сцены:
  • Вырезан один из моментов в сцене у бассейна, где показывается девушка с обнажённой грудью;
  • Некоторые моменты из сцены убийства танцовщицы (Эджелы) были вырезаны: убран эпизод, где Ёсида наносит дополнительный удар мечом. Удалён был и момент в самом конце сцены, где её отрубленная голова падает на пол;
  • В сцене драки в сауне был сокращён момент убийства толстого якудза: было показано, как Кеннер, вонзив нож ему в живот, поворачивает его в разные стороны;
  • Полностью была вырезана сцена изнасилования Минако, посчитавшаяся зрителями на тест-просмотрах слишком жестокой.
  • В итоге, фильм хоть и получил рейтинг R, но в США он выходил с возрастным ограничением «18+».
    -

    iTunes Meta Tags for country us

    Name: Showdown in Little Tokyo (1991)
    Artist: Mark L. Lester
    Genre: Action & Adventure
    Release Date: 1991-08-23T08:00:00Z
    Description: Они - лос-анджелесские полицейские, которые перемежают удары с попаданием в газетные заголовки, во время Разборки в маленьком Токио. Герой Дольфа Лундгрена - мускулистый американский самурай, сведущий в восточных традициях. Герой Брэндона Ли - "деревенский увалень", которому предстоит немало драк. Им двоим придется круто на войне против японской наркомафии Лос-Анджелеса.
    Long Description: Они - лос-анджелесские полицейские, которые перемежают удары с попаданием в газетные заголовки, во время Разборки в маленьком Токио. Герой Дольфа Лундгрена - мускулистый американский самурай, сведущий в восточных традициях. Герой Брэндона Ли - "деревенский увалень", которому предстоит немало драк. Им двоим придется круто на войне против японской наркомафии Лос-Анджелеса.
    Rating: R
    Studio: Warner Bros.
    Cast: Дольф Лундгрен, Брэндон Ли, Кэри-Хироюки Тагава, Тиа Каррере, Тоширо Обата, Филип Тан, Родни Кагеяма, Эрни Лайвли, Рене Гриффин, Рейд Асато
    Director: Марк Л. Лестер
    Producers: Мартин Э. Каан, Марк Л. Лестер, Джон С. Бродерик
    Screenwriters: Стивен Глэнц, Калиоп Брэттлстрит
    Copyright: © 1991 Warner Bros. All Rights Reserved
    contentID: 724023958
    XID: Apple:vendor_id:1991-5472
    Sort Name: Showdown in Little Tokyo (1991)

    MediaInfo 480p Release

    General
    Complete name : Showdown in Little Tokyo (1991).m4v
    Format : MPEG-4
    Codec ID : M4V
    File size : 1.79 GiB
    Duration : 1h 18mn
    Overall bit rate mode : Variable
    Overall bit rate : 3 262 Kbps
    Movie name : Showdown in Little Tokyo (1991)
    Performer : Mark L. Lester
    Director : Марк Л. Лестер
    Actor : Дольф Лундгрен / Брэндон Ли / Кэри-Хироюки Тагава / Тиа Каррере / Тоширо Обата / Филип Тан / Родни Кагеяма / Эрни Лайвли / Рене Гриффин / Рейд Асато
    Screenplay by : Стивен Глэнц / Калиоп Брэттлстрит
    Producer : Мартин Э. Каан / Марк Л. Лестер / Джон С. Бродерик
    Production studio : Warner Bros.
    Genre : Action & Adventure
    ContentType : Short Film
    Description : Они - лос-анджелесские полицейские, которые перемежают удары с попаданием в газетные заголовки, во время Разборки в маленьком Токио. Герой Дольфа Лундгрена - мускулистый американский самурай, сведущий в восточных традициях. Герой Брэндона Ли - "деревенский увалень", которому предстоит немало драк. Им двоим придется круто на войне против японской наркомафии Лос-Анджелеса.
    Recorded date : UTC 1991-08-23 08:00:00
    Encoded date : UTC 2015-09-07 13:42:09
    Tagged date : UTC 2015-09-07 14:02:00
    Copyright : © 1991 Warner Bros. All Rights Reserved
    Cover : Yes
    Rating : None
    Title/Sort : Showdown in Little Tokyo
    LongDescription : Они - лос-анджелесские полицейские, которые перемежают удары с попаданием в газетные заголовки, во время Разборки в маленьком Токио. Герой Дольфа Лундгрена - мускулистый американский самурай, сведущий в восточных традициях. Герой Брэндона Ли - "деревенский увалень", которому предстоит немало драк. Им двоим придется круто на войне против японской наркомафии Лос-Анджелеса.
    AppleStoreCatalogID : 724023958
    Vendor : Apple:vendor_id:1991-5472
    ContentRating : mpaa|R|400|
    Video #1
    ID : 1
    Format : AVC
    Format/Info : Advanced Video Codec
    Format profile : Baseline@L3
    Format settings, CABAC : No
    Format settings, ReFrames : 2 frames
    Codec ID : avc1
    Codec ID/Info : Advanced Video Coding
    Duration : 1h 18mn
    Bit rate : 1 800 Kbps
    Width : 640 pixels
    Height : 480 pixels
    Display aspect ratio : 16:9
    Frame rate mode : Variable
    Frame rate : 23.976 fps
    Minimum frame rate : 11.987 fps
    Maximum frame rate : 23.981 fps
    Color space : YUV
    Chroma subsampling : 4:2:0
    Bit depth : 8 bits
    Scan type : Progressive
    Bits/(Pixel*Frame) : 0.244
    Stream size : 1 008 MiB (55%)
    Title : Main Program
    Writing library : x264 core 130 r2273 b3065e6
    Encoding settings : cabac=0 / ref=2 / deblock=1:0:0 / analyse=0x1:0x111 / me=umh / subme=6 / psy=1 / psy_rd=1.00:0.00 / mixed_ref=1 / me_range=16 / chroma_me=1 / trellis=0 / 8x8dct=0 / cqm=0 / deadzone=21,11 / fast_pskip=1 / chroma_qp_offset=-2 / threads=18 / lookahead_threads=3 / sliced_threads=0 / nr=0 / decimate=1 / interlaced=0 / bluray_compat=0 / constrained_intra=0 / bframes=0 / weightp=0 / keyint=240 / keyint_min=24 / scenecut=40 / intra_refresh=0 / rc_lookahead=40 / rc=2pass / mbtree=1 / bitrate=1800 / ratetol=1.0 / qcomp=0.60 / qpmin=0 / qpmax=69 / qpstep=4 / cplxblur=20.0 / qblur=0.5 / vbv_maxrate=5000 / vbv_bufsize=5000 / nal_hrd=none / ip_ratio=1.40 / aq=1:1.00
    Language : English
    Encoded date : UTC 2015-09-07 13:42:09
    Tagged date : UTC 2015-09-07 13:42:13
    Color range : Limited
    Color primaries : BT.709
    Transfer characteristics : BT.709
    Matrix coefficients : BT.709
    Video #2
    ID : 19
    Format : JPEG
    Codec ID : jpeg
    Duration : 1h 18mn
    Bit rate mode : Variable
    Bit rate : 1 794 bps
    Width : 640 pixels
    Height : 360 pixels
    Display aspect ratio : 16:9
    Frame rate mode : Variable
    Frame rate : 0.005 fps
    Minimum frame rate : 0.002 fps
    Maximum frame rate : 0.012 fps
    Color space : YUV
    Chroma subsampling : 4:2:0
    Bit depth : 8 bits
    Compression mode : Lossy
    Bits/(Pixel*Frame) : 1.557
    Stream size : 963 KiB (0%)
    Title : Chapter Images
    Language : English
    Encoded date : UTC 2015-09-07 13:54:00
    Tagged date : UTC 2015-09-07 13:54:00
    Audio #1
    ID : 2
    Format : AAC
    Format/Info : Advanced Audio Codec
    Format profile : LC
    Codec ID : 40
    Duration : 1h 18mn
    Bit rate mode : Variable
    Bit rate : 132 Kbps
    Maximum bit rate : 202 Kbps
    Channel(s) : 2 channels
    Channel positions : Front: L R
    Sampling rate : 48.0 KHz
    Compression mode : Lossy
    Stream size : 73.8 MiB (4%)
    Title : Russian DUB R5 Stereo
    Language : Russian
    Encoded date : UTC 2015-09-07 13:42:09
    Tagged date : UTC 2015-09-07 13:42:19
    Audio #2
    ID : 3
    Format : AAC
    Format/Info : Advanced Audio Codec
    Format profile : LC
    Codec ID : 40
    Duration : 1h 18mn
    Bit rate mode : Variable
    Bit rate : 120 Kbps
    Maximum bit rate : 187 Kbps
    Channel(s) : 2 channels
    Channel positions : Front: L R
    Sampling rate : 48.0 KHz
    Compression mode : Lossy
    Stream size : 67.5 MiB (4%)
    Title : Russian DUB Varus Video Stereo
    Language : Russian
    Encoded date : UTC 2015-09-07 13:42:09
    Tagged date : UTC 2015-09-07 13:42:19
    Audio #3
    ID : 4
    Format : AAC
    Format/Info : Advanced Audio Codec
    Format profile : LC
    Codec ID : 40
    Duration : 1h 18mn
    Bit rate mode : Variable
    Bit rate : 111 Kbps
    Maximum bit rate : 189 Kbps
    Channel(s) : 2 channels
    Channel positions : Front: L R
    Sampling rate : 48.0 KHz
    Compression mode : Lossy
    Stream size : 62.0 MiB (3%)
    Title : Russian MVO VGTRK Stereo
    Language : Russian
    Encoded date : UTC 2015-09-07 13:42:09
    Tagged date : UTC 2015-09-07 13:42:19
    Audio #4
    ID : 5
    Format : AAC
    Format/Info : Advanced Audio Codec
    Format profile : LC
    Codec ID : 40
    Duration : 1h 18mn
    Bit rate mode : Variable
    Bit rate : 107 Kbps
    Maximum bit rate : 195 Kbps
    Channel(s) : 2 channels
    Channel positions : Front: L R
    Sampling rate : 48.0 KHz
    Compression mode : Lossy
    Stream size : 60.1 MiB (3%)
    Title : Russian DVO HTB Stereo
    Language : Russian
    Encoded date : UTC 2015-09-07 13:42:09
    Tagged date : UTC 2015-09-07 13:42:19
    Audio #5
    ID : 6
    Format : AAC
    Format/Info : Advanced Audio Codec
    Format profile : LC
    Codec ID : 40
    Duration : 1h 18mn
    Bit rate mode : Variable
    Bit rate : 132 Kbps
    Maximum bit rate : 216 Kbps
    Channel(s) : 2 channels
    Channel positions : Front: L R
    Sampling rate : 48.0 KHz
    Compression mode : Lossy
    Stream size : 74.5 MiB (4%)
    Title : Russian AVO A.Gavrilov Stereo
    Language : Russian
    Encoded date : UTC 2015-09-07 13:42:09
    Tagged date : UTC 2015-09-07 13:42:19
    Audio #6
    ID : 7
    Format : AAC
    Format/Info : Advanced Audio Codec
    Format profile : LC
    Codec ID : 40
    Duration : 1h 18mn
    Bit rate mode : Variable
    Bit rate : 132 Kbps
    Maximum bit rate : 216 Kbps
    Channel(s) : 2 channels
    Channel positions : Front: L R
    Sampling rate : 48.0 KHz
    Compression mode : Lossy
    Stream size : 74.4 MiB (4%)
    Title : Russian AVO L.Volodarsky Stereo
    Language : Russian
    Encoded date : UTC 2015-09-07 13:42:09
    Tagged date : UTC 2015-09-07 13:42:19
    Audio #7
    ID : 8
    Format : AAC
    Format/Info : Advanced Audio Codec
    Format profile : LC
    Codec ID : 40
    Duration : 1h 18mn
    Bit rate mode : Variable
    Bit rate : 132 Kbps
    Maximum bit rate : 197 Kbps
    Channel(s) : 2 channels
    Channel positions : Front: L R
    Sampling rate : 48.0 KHz
    Compression mode : Lossy
    Stream size : 73.7 MiB (4%)
    Title : Russian AVO M.Chadov Stereo
    Language : Russian
    Encoded date : UTC 2015-09-07 13:42:09
    Tagged date : UTC 2015-09-07 13:42:19
    Audio #8
    ID : 9
    Format : AAC
    Format/Info : Advanced Audio Codec
    Format profile : LC
    Codec ID : 40
    Duration : 1h 18mn
    Bit rate mode : Variable
    Bit rate : 115 Kbps
    Maximum bit rate : 154 Kbps
    Channel(s) : 2 channels
    Channel positions : Front: L R
    Sampling rate : 48.0 KHz
    Compression mode : Lossy
    Stream size : 64.5 MiB (4%)
    Title : Russian AVO S.Kuznetsov Stereo
    Language : Russian
    Encoded date : UTC 2015-09-07 13:42:09
    Tagged date : UTC 2015-09-07 13:42:19
    Audio #9
    ID : 10
    Format : AAC
    Format/Info : Advanced Audio Codec
    Format profile : LC
    Codec ID : 40
    Duration : 1h 18mn
    Bit rate mode : Variable
    Bit rate : 106 Kbps
    Maximum bit rate : 200 Kbps
    Channel(s) : 2 channels
    Channel positions : Front: L R
    Sampling rate : 48.0 KHz
    Compression mode : Lossy
    Stream size : 59.3 MiB (3%)
    Title : Russian AVO S.Zerenisin Stereo
    Language : Russian
    Encoded date : UTC 2015-09-07 13:42:09
    Tagged date : UTC 2015-09-07 13:42:19
    Audio #10
    ID : 11
    Format : AAC
    Format/Info : Advanced Audio Codec
    Format profile : LC
    Codec ID : 40
    Duration : 1h 18mn
    Bit rate mode : Variable
    Bit rate : 106 Kbps
    Maximum bit rate : 206 Kbps
    Channel(s) : 2 channels
    Channel positions : Front: L R
    Sampling rate : 48.0 KHz
    Compression mode : Lossy
    Stream size : 59.4 MiB (3%)
    Title : Ukrainian MVO ICTV Stereo
    Language : Ukrainian
    Encoded date : UTC 2015-09-07 13:42:09
    Tagged date : UTC 2015-09-07 13:42:19
    Audio #11
    ID : 12
    Format : AAC
    Format/Info : Advanced Audio Codec
    Format profile : LC
    Codec ID : 40
    Duration : 1h 18mn
    Bit rate mode : Variable
    Bit rate : 112 Kbps
    Maximum bit rate : 201 Kbps
    Channel(s) : 2 channels
    Channel positions : Front: L R
    Sampling rate : 48.0 KHz
    Compression mode : Lossy
    Stream size : 62.5 MiB (3%)
    Title : Ukrainian MVO Inter Stereo
    Language : Ukrainian
    Encoded date : UTC 2015-09-07 13:42:09
    Tagged date : UTC 2015-09-07 13:42:19
    Audio #12
    ID : 13
    Format : AAC
    Format/Info : Advanced Audio Codec
    Format profile : LC
    Codec ID : 40
    Duration : 1h 18mn
    Bit rate mode : Variable
    Bit rate : 132 Kbps
    Maximum bit rate : 216 Kbps
    Channel(s) : 2 channels
    Channel positions : Front: L R
    Sampling rate : 48.0 KHz
    Compression mode : Lossy
    Stream size : 74.6 MiB (4%)
    Title : English Stereo
    Language : English
    Encoded date : UTC 2015-09-07 13:42:09
    Tagged date : UTC 2015-09-07 13:42:19
    Text #1
    ID : 14
    Format : Timed Text
    Muxing mode : sbtl
    Codec ID : tx3g
    Duration : 1h 1mn
    Bit rate mode : Variable
    Bit rate : 1 bps
    Stream size : 589 Bytes (0%)
    Title : English Forced Subtitle
    Language : English
    Encoded date : UTC 2015-09-07 13:53:55
    Tagged date : UTC 2015-09-07 13:53:55
    Text #2
    ID : 15
    Format : Timed Text
    Muxing mode : sbtl
    Codec ID : tx3g
    Duration : 1h 15mn
    Bit rate mode : Variable
    Bit rate : 56 bps
    Stream size : 30.8 KiB (0%)
    Title : Russian Subtitle
    Language : Russian
    Encoded date : UTC 2015-09-07 13:53:55
    Tagged date : UTC 2015-09-07 13:53:55
    Text #3
    ID : 16
    Format : Timed Text
    Muxing mode : sbtl
    Codec ID : tx3g
    Duration : 1h 15mn
    Bit rate mode : Variable
    Bit rate : 35 bps
    Stream size : 19.4 KiB (0%)
    Title : English Subtitle
    Language : English
    Encoded date : UTC 2015-09-07 13:53:55
    Tagged date : UTC 2015-09-07 13:53:55
    Text #4
    ID : 17
    Format : Timed Text
    Muxing mode : sbtl
    Codec ID : tx3g
    Duration : 1h 15mn
    Bit rate mode : Variable
    Bit rate : 41 bps
    Stream size : 22.5 KiB (0%)
    Title : English SDH Subtitle
    Language : English
    Encoded date : UTC 2015-09-07 13:53:55
    Tagged date : UTC 2015-09-07 13:53:55
    Menu #1
    00:00:00.000 : Credits over tattoos.
    00:02:33.027 : Kenner takes in the fights.
    00:05:41.132 : Matsuno's you new partner.
    00:09:56.762 : Headquarters; suspect lost.
    00:12:54.273 : Yoshida doles out death.
    00:17:36.263 : The Bonsai Club.
    00:20:15.297 : "This is not the way."
    00:24:49.154 : Pointed barganing.
    00:30:00.632 : Beauty possessed -- and rescued by Kenner.
    00:33:36.556 : "Bring me the head of the blond cop."
    00:39:01.505 : Bathhouse brawl.
    00:41:37.912 : Kenner's house.
    00:48:23.233 : From hot tub to bedroom.
    00:50:04.751 : Under siege.
    00:53:21.907 : Mastering the Master of Pain.
    00:56:44.067 : Heavy metal suhi.
    00:59:01.037 : Storming the brewery.
    01:02:26.075 : Sato gets distilled.
    01:06:58.639 : Inferno.
    01:09:47.850 : Showdown in Little Tokyo.
    01:11:10.975 : Community relations.
    01:15:19.306 : End Credits.
    Menu #2
    ID : 18
    Codec ID : text
    Duration : 1h 18mn
    Title : Chapter Titles
    Language : English
    Encoded date : UTC 2015-09-07 13:53:55
    Tagged date : UTC 2015-09-07 13:53:55
    00:00:00.000 : Credits over tattoos.
    00:02:33.027 : Kenner takes in the fights.
    00:05:41.132 : Matsuno's you new partner.
    00:09:56.762 : Headquarters; suspect lost.
    00:12:54.273 : Yoshida doles out death.
    00:17:36.263 : The Bonsai Club.
    00:20:15.297 : "This is not the way."
    00:24:49.154 : Pointed barganing.
    00:30:00.632 : Beauty possessed -- and rescued by Kenner.
    00:33:36.556 : "Bring me the head of the blond cop."
    00:39:01.505 : Bathhouse brawl.
    00:41:37.912 : Kenner's house.
    00:48:23.233 : From hot tub to bedroom.
    00:50:04.751 : Under siege.
    00:53:21.907 : Mastering the Master of Pain.
    00:56:44.067 : Heavy metal suhi.
    00:59:01.037 : Storming the brewery.
    01:02:26.075 : Sato gets distilled.
    01:06:58.639 : Inferno.
    01:09:47.850 : Showdown in Little Tokyo.
    01:11:10.975 : Community relations.
    01:15:19.306 : End Credits.
    Bit rate mode : VBR

    MediaInfo 720p Release

    General
    Complete name : Showdown in Little Tokyo (1991) (HD).m4v
    Format : MPEG-4
    Codec ID : M4V
    File size : 4.98 GiB
    Duration : 1h 18mn
    Overall bit rate mode : Variable
    Overall bit rate : 9 101 Kbps
    Movie name : Showdown in Little Tokyo (1991)
    Performer : Mark L. Lester
    Director : Марк Л. Лестер
    Actor : Дольф Лундгрен / Брэндон Ли / Кэри-Хироюки Тагава / Тиа Каррере / Тоширо Обата / Филип Тан / Родни Кагеяма / Эрни Лайвли / Рене Гриффин / Рейд Асато
    Screenplay by : Стивен Глэнц / Калиоп Брэттлстрит
    Producer : Мартин Э. Каан / Марк Л. Лестер / Джон С. Бродерик
    Production studio : Warner Bros.
    Genre : Action & Adventure
    ContentType : Short Film
    Description : Они - лос-анджелесские полицейские, которые перемежают удары с попаданием в газетные заголовки, во время Разборки в маленьком Токио. Герой Дольфа Лундгрена - мускулистый американский самурай, сведущий в восточных традициях. Герой Брэндона Ли - "деревенский увалень", которому предстоит немало драк. Им двоим придется круто на войне против японской наркомафии Лос-Анджелеса.
    Recorded date : UTC 1991-08-23 08:00:00
    Encoded date : UTC 2015-09-07 13:37:30
    Tagged date : UTC 2015-09-07 14:01:38
    Copyright : © 1991 Warner Bros. All Rights Reserved
    Cover : Yes
    Rating : None
    Title/Sort : Showdown in Little Tokyo
    LongDescription : Они - лос-анджелесские полицейские, которые перемежают удары с попаданием в газетные заголовки, во время Разборки в маленьком Токио. Герой Дольфа Лундгрена - мускулистый американский самурай, сведущий в восточных традициях. Герой Брэндона Ли - "деревенский увалень", которому предстоит немало драк. Им двоим придется круто на войне против японской наркомафии Лос-Анджелеса.
    HDVideo : Yes
    AppleStoreCatalogID : 724023958
    Vendor : Apple:vendor_id:1991-5472
    ContentRating : mpaa|R|400|
    Video #1
    ID : 1
    Format : AVC
    Format/Info : Advanced Video Codec
    Format profile : High@L3.1
    Format settings, CABAC : No
    Format settings, ReFrames : 3 frames
    Codec ID : avc1
    Codec ID/Info : Advanced Video Coding
    Duration : 1h 18mn
    Source duration : 1h 18mn
    Bit rate : 7 000 Kbps
    Width : 1 280 pixels
    Height : 720 pixels
    Display aspect ratio : 16:9
    Frame rate mode : Variable
    Frame rate : 23.976 fps
    Minimum frame rate : 23.974 fps
    Maximum frame rate : 23.981 fps
    Color space : YUV
    Chroma subsampling : 4:2:0
    Bit depth : 8 bits
    Scan type : Progressive
    Bits/(Pixel*Frame) : 0.317
    Stream size : 3.81 GiB (77%)
    Source stream size : 3.81 GiB (77%)
    Title : Main Program
    Writing library : x264 core 130 r2273 b3065e6
    Encoding settings : cabac=0 / ref=3 / deblock=1:-3:-2 / analyse=0x3:0x113 / me=umh / subme=9 / psy=1 / psy_rd=0.90:0.25 / mixed_ref=1 / me_range=32 / chroma_me=1 / trellis=0 / 8x8dct=1 / cqm=0 / deadzone=6,6 / fast_pskip=0 / chroma_qp_offset=-2 / threads=18 / lookahead_threads=1 / sliced_threads=0 / nr=0 / decimate=0 / interlaced=0 / bluray_compat=0 / constrained_intra=0 / bframes=3 / b_pyramid=0 / b_adapt=2 / b_bias=0 / direct=1 / weightb=0 / open_gop=0 / weightp=0 / keyint=240 / keyint_min=24 / scenecut=40 / intra_refresh=0 / rc_lookahead=40 / rc=2pass / mbtree=1 / bitrate=7000 / ratetol=1.0 / qcomp=0.80 / qpmin=0 / qpmax=69 / qpstep=4 / cplxblur=20.0 / qblur=0.5 / vbv_maxrate=9500 / vbv_bufsize=9500 / nal_hrd=none / ip_ratio=1.10 / aq=1:0.50
    Language : English
    Encoded date : UTC 2015-09-07 13:37:30
    Tagged date : UTC 2015-09-07 13:37:42
    Color range : Limited
    Color primaries : BT.709
    Transfer characteristics : BT.709
    Matrix coefficients : BT.709
    Video #2
    ID : 19
    Format : JPEG
    Codec ID : jpeg
    Duration : 1h 18mn
    Bit rate mode : Variable
    Bit rate : 2 005 bps
    Width : 640 pixels
    Height : 360 pixels
    Display aspect ratio : 16:9
    Frame rate mode : Variable
    Frame rate : 0.005 fps
    Minimum frame rate : 0.002 fps
    Maximum frame rate : 0.012 fps
    Color space : YUV
    Chroma subsampling : 4:2:0
    Bit depth : 8 bits
    Compression mode : Lossy
    Bits/(Pixel*Frame) : 1.740
    Stream size : 1.05 MiB (0%)
    Title : Chapter Images
    Language : English
    Encoded date : UTC 2015-09-07 13:53:30
    Tagged date : UTC 2015-09-07 13:53:31
    Audio #1
    ID : 2
    Format : AAC
    Format/Info : Advanced Audio Codec
    Format profile : LC
    Codec ID : 40
    Duration : 1h 18mn
    Bit rate mode : Variable
    Bit rate : 197 Kbps
    Maximum bit rate : 300 Kbps
    Channel(s) : 2 channels
    Channel positions : Front: L R
    Sampling rate : 48.0 KHz
    Compression mode : Lossy
    Stream size : 110 MiB (2%)
    Title : Russian DUB R5 Stereo
    Language : Russian
    Encoded date : UTC 2015-09-07 13:37:30
    Tagged date : UTC 2015-09-07 13:37:49
    Audio #2
    ID : 3
    Format : AAC
    Format/Info : Advanced Audio Codec
    Format profile : LC
    Codec ID : 40
    Duration : 1h 18mn
    Bit rate mode : Variable
    Bit rate : 174 Kbps
    Maximum bit rate : 277 Kbps
    Channel(s) : 2 channels
    Channel positions : Front: L R
    Sampling rate : 48.0 KHz
    Compression mode : Lossy
    Stream size : 97.8 MiB (2%)
    Title : Russian DUB Varus Video Stereo
    Language : Russian
    Encoded date : UTC 2015-09-07 13:37:30
    Tagged date : UTC 2015-09-07 13:37:49
    Audio #3
    ID : 4
    Format : AAC
    Format/Info : Advanced Audio Codec
    Format profile : LC
    Codec ID : 40
    Duration : 1h 18mn
    Bit rate mode : Variable
    Bit rate : 154 Kbps
    Maximum bit rate : 283 Kbps
    Channel(s) : 2 channels
    Channel positions : Front: L R
    Sampling rate : 48.0 KHz
    Compression mode : Lossy
    Stream size : 86.1 MiB (2%)
    Title : Russian MVO VGTRK Stereo
    Language : Russian
    Encoded date : UTC 2015-09-07 13:37:30
    Tagged date : UTC 2015-09-07 13:37:49
    Audio #4
    ID : 5
    Format : AAC
    Format/Info : Advanced Audio Codec
    Format profile : LC
    Codec ID : 40
    Duration : 1h 18mn
    Bit rate mode : Variable
    Bit rate : 152 Kbps
    Maximum bit rate : 282 Kbps
    Channel(s) : 2 channels
    Channel positions : Front: L R
    Sampling rate : 48.0 KHz
    Compression mode : Lossy
    Stream size : 85.3 MiB (2%)
    Title : Russian DVO HTB Stereo
    Language : Russian
    Encoded date : UTC 2015-09-07 13:37:30
    Tagged date : UTC 2015-09-07 13:37:49
    Audio #5
    ID : 6
    Format : AAC
    Format/Info : Advanced Audio Codec
    Format profile : LC
    Codec ID : 40
    Duration : 1h 18mn
    Bit rate mode : Variable
    Bit rate : 198 Kbps
    Maximum bit rate : 296 Kbps
    Channel(s) : 2 channels
    Channel positions : Front: L R
    Sampling rate : 48.0 KHz
    Compression mode : Lossy
    Stream size : 111 MiB (2%)
    Title : Russian AVO A.Gavrilov Stereo
    Language : Russian
    Encoded date : UTC 2015-09-07 13:37:30
    Tagged date : UTC 2015-09-07 13:37:49
    Audio #6
    ID : 7
    Format : AAC
    Format/Info : Advanced Audio Codec
    Format profile : LC
    Codec ID : 40
    Duration : 1h 18mn
    Bit rate mode : Variable
    Bit rate : 198 Kbps
    Maximum bit rate : 288 Kbps
    Channel(s) : 2 channels
    Channel positions : Front: L R
    Sampling rate : 48.0 KHz
    Compression mode : Lossy
    Stream size : 111 MiB (2%)
    Title : Russian AVO L.Volodarsky Stereo
    Language : Russian
    Encoded date : UTC 2015-09-07 13:37:30
    Tagged date : UTC 2015-09-07 13:37:49
    Audio #7
    ID : 8
    Format : AAC
    Format/Info : Advanced Audio Codec
    Format profile : LC
    Codec ID : 40
    Duration : 1h 18mn
    Bit rate mode : Variable
    Bit rate : 197 Kbps
    Maximum bit rate : 287 Kbps
    Channel(s) : 2 channels
    Channel positions : Front: L R
    Sampling rate : 48.0 KHz
    Compression mode : Lossy
    Stream size : 110 MiB (2%)
    Title : Russian AVO M.Chadov Stereo
    Language : Russian
    Encoded date : UTC 2015-09-07 13:37:30
    Tagged date : UTC 2015-09-07 13:37:49
    Audio #8
    ID : 9
    Format : AAC
    Format/Info : Advanced Audio Codec
    Format profile : LC
    Codec ID : 40
    Duration : 1h 18mn
    Bit rate mode : Variable
    Bit rate : 172 Kbps
    Maximum bit rate : 225 Kbps
    Channel(s) : 2 channels
    Channel positions : Front: L R
    Sampling rate : 48.0 KHz
    Compression mode : Lossy
    Stream size : 96.3 MiB (2%)
    Title : Russian AVO S.Kuznetsov Stereo
    Language : Russian
    Encoded date : UTC 2015-09-07 13:37:30
    Tagged date : UTC 2015-09-07 13:37:49
    Audio #9
    ID : 10
    Format : AAC
    Format/Info : Advanced Audio Codec
    Format profile : LC
    Codec ID : 40
    Duration : 1h 18mn
    Bit rate mode : Variable
    Bit rate : 153 Kbps
    Maximum bit rate : 282 Kbps
    Channel(s) : 2 channels
    Channel positions : Front: L R
    Sampling rate : 48.0 KHz
    Compression mode : Lossy
    Stream size : 85.9 MiB (2%)
    Title : Russian AVO S.Zerenisin Stereo
    Language : Russian
    Encoded date : UTC 2015-09-07 13:37:30
    Tagged date : UTC 2015-09-07 13:37:49
    Audio #10
    ID : 11
    Format : AAC
    Format/Info : Advanced Audio Codec
    Format profile : LC
    Codec ID : 40
    Duration : 1h 18mn
    Bit rate mode : Variable
    Bit rate : 152 Kbps
    Maximum bit rate : 298 Kbps
    Channel(s) : 2 channels
    Channel positions : Front: L R
    Sampling rate : 48.0 KHz
    Compression mode : Lossy
    Stream size : 84.9 MiB (2%)
    Title : Ukrainian MVO ICTV Stereo
    Language : Ukrainian
    Encoded date : UTC 2015-09-07 13:37:30
    Tagged date : UTC 2015-09-07 13:37:49
    Audio #11
    ID : 12
    Format : AAC
    Format/Info : Advanced Audio Codec
    Format profile : LC
    Codec ID : 40
    Duration : 1h 18mn
    Bit rate mode : Variable
    Bit rate : 156 Kbps
    Maximum bit rate : 298 Kbps
    Channel(s) : 2 channels
    Channel positions : Front: L R
    Sampling rate : 48.0 KHz
    Compression mode : Lossy
    Stream size : 87.3 MiB (2%)
    Title : Ukrainian MVO Inter Stereo
    Language : Ukrainian
    Encoded date : UTC 2015-09-07 13:37:30
    Tagged date : UTC 2015-09-07 13:37:49
    Audio #12
    ID : 13
    Format : AAC
    Format/Info : Advanced Audio Codec
    Format profile : LC
    Codec ID : 40
    Duration : 1h 18mn
    Bit rate mode : Variable
    Bit rate : 199 Kbps
    Maximum bit rate : 281 Kbps
    Channel(s) : 2 channels
    Channel positions : Front: L R
    Sampling rate : 48.0 KHz
    Compression mode : Lossy
    Stream size : 112 MiB (2%)
    Title : English Stereo
    Language : English
    Encoded date : UTC 2015-09-07 13:37:30
    Tagged date : UTC 2015-09-07 13:37:49
    Text #1
    ID : 14
    Format : Timed Text
    Muxing mode : sbtl
    Codec ID : tx3g
    Duration : 1h 1mn
    Bit rate mode : Variable
    Bit rate : 1 bps
    Stream size : 589 Bytes (0%)
    Title : English Forced Subtitle
    Language : English
    Encoded date : UTC 2015-09-07 13:53:22
    Tagged date : UTC 2015-09-07 13:53:22
    Text #2
    ID : 15
    Format : Timed Text
    Muxing mode : sbtl
    Codec ID : tx3g
    Duration : 1h 15mn
    Bit rate mode : Variable
    Bit rate : 56 bps
    Stream size : 30.8 KiB (0%)
    Title : Russian Subtitle
    Language : Russian
    Encoded date : UTC 2015-09-07 13:53:22
    Tagged date : UTC 2015-09-07 13:53:22
    Text #3
    ID : 16
    Format : Timed Text
    Muxing mode : sbtl
    Codec ID : tx3g
    Duration : 1h 15mn
    Bit rate mode : Variable
    Bit rate : 35 bps
    Stream size : 19.4 KiB (0%)
    Title : English Subtitle
    Language : English
    Encoded date : UTC 2015-09-07 13:53:22
    Tagged date : UTC 2015-09-07 13:53:22
    Text #4
    ID : 17
    Format : Timed Text
    Muxing mode : sbtl
    Codec ID : tx3g
    Duration : 1h 15mn
    Bit rate mode : Variable
    Bit rate : 41 bps
    Stream size : 22.5 KiB (0%)
    Title : English SDH Subtitle
    Language : English
    Encoded date : UTC 2015-09-07 13:53:22
    Tagged date : UTC 2015-09-07 13:53:22
    Menu #1
    00:00:00.000 : Credits over tattoos.
    00:02:33.027 : Kenner takes in the fights.
    00:05:41.132 : Matsuno's you new partner.
    00:09:56.762 : Headquarters; suspect lost.
    00:12:54.273 : Yoshida doles out death.
    00:17:36.263 : The Bonsai Club.
    00:20:15.297 : "This is not the way."
    00:24:49.154 : Pointed barganing.
    00:30:00.632 : Beauty possessed -- and rescued by Kenner.
    00:33:36.556 : "Bring me the head of the blond cop."
    00:39:01.505 : Bathhouse brawl.
    00:41:37.912 : Kenner's house.
    00:48:23.233 : From hot tub to bedroom.
    00:50:04.751 : Under siege.
    00:53:21.907 : Mastering the Master of Pain.
    00:56:44.067 : Heavy metal suhi.
    00:59:01.037 : Storming the brewery.
    01:02:26.075 : Sato gets distilled.
    01:06:58.639 : Inferno.
    01:09:47.850 : Showdown in Little Tokyo.
    01:11:10.975 : Community relations.
    01:15:19.306 : End Credits.
    Menu #2
    ID : 18
    Codec ID : text
    Duration : 1h 18mn
    Title : Chapter Titles
    Language : English
    Encoded date : UTC 2015-09-07 13:53:22
    Tagged date : UTC 2015-09-07 13:53:22
    00:00:00.000 : Credits over tattoos.
    00:02:33.027 : Kenner takes in the fights.
    00:05:41.132 : Matsuno's you new partner.
    00:09:56.762 : Headquarters; suspect lost.
    00:12:54.273 : Yoshida doles out death.
    00:17:36.263 : The Bonsai Club.
    00:20:15.297 : "This is not the way."
    00:24:49.154 : Pointed barganing.
    00:30:00.632 : Beauty possessed -- and rescued by Kenner.
    00:33:36.556 : "Bring me the head of the blond cop."
    00:39:01.505 : Bathhouse brawl.
    00:41:37.912 : Kenner's house.
    00:48:23.233 : From hot tub to bedroom.
    00:50:04.751 : Under siege.
    00:53:21.907 : Mastering the Master of Pain.
    00:56:44.067 : Heavy metal suhi.
    00:59:01.037 : Storming the brewery.
    01:02:26.075 : Sato gets distilled.
    01:06:58.639 : Inferno.
    01:09:47.850 : Showdown in Little Tokyo.
    01:11:10.975 : Community relations.
    01:15:19.306 : End Credits.
    Bit rate mode : VBR

    x264 лог 480p Release

    HandBrakeCLI -i "/SHOWDOWN_IN_LITTLE_TOKYO_REMUX_HDCLUB/BDMV/STREAM/00000.m2ts" -t 1 -c 1 -o "Showdown.in.Little.Tokyo.480p.eng.m4v" -f mp4 -I -O -w 640 -l 480 --crop 0:0:0:0 --custom-anamorphic --modulus 16 --pixel-aspect 852:640 -e x264 -b 1800 -2 -a none -x cabac=0:ref=2:me=umh:bframes=0:weightp=0:subq=6:8x8dct=0:trellis=0:vbv-maxrate=5000:vbv-bufsize=5000 --verbose=1
    x264 [info]: frame I:3615  Avg QP:19.86  size: 31600  PSNR Mean Y:43.48 U:47.10 V:48.52 Avg:44.46 Global:43.81
    x264 [info]: frame P:109089 Avg QP:21.13  size:  8644  PSNR Mean Y:42.45 U:46.26 V:47.19 Avg:43.43 Global:42.60
    x264 [info]: mb I  I16..4: 20.0%  0.0% 80.0%
    x264 [info]: mb P  I16..4:  0.9%  0.0%  3.3%  P16..4: 50.3% 21.1%  8.6%  0.0%  0.0%    skip:15.9%
    x264 [info]: coded y,uvDC,uvAC intra: 84.9% 77.8% 52.4% inter: 30.1% 25.8% 3.5%
    x264 [info]: i16 v,h,dc,p: 32% 13% 12% 43%
    x264 [info]: i4 v,h,dc,ddl,ddr,vr,hd,vl,hu: 23% 12% 21%  8%  8%  9%  6%  8%  5%
    x264 [info]: i8c dc,h,v,p: 52% 15% 24%  9%
    x264 [info]: ref P L0: 71.4% 28.6%
    x264 [info]: SSIM Mean Y:0.9657964 (14.659db)
    x264 [info]: PSNR Mean Y:42.482 U:46.284 V:47.229 Avg:43.459 Global:42.637 kb/s:1799.10

    x264 лог 720p Release

    HandBrakeCLI -i "/SHOWDOWN_IN_LITTLE_TOKYO_REMUX_HDCLUB/BDMV/STREAM/00000.m2ts" -t 1 -c 1 -o "Showdown.in.Little.Tokyo.720p.eng.m4v" -f mp4 -4 -O -w 1280 -l 720 --crop 0:0:0:0 --modulus 2 -e x264 -b 7000 -2 -a none -x cabac=0:ref=3:me=umh:b-pyramid=none:b-adapt=2:weightb=0:trellis=0:weightp=0:vbv-maxrate=9500:vbv-bufsize=9500:subq=9:merange=32:deblock=-3,-2:qcomp=0.80:qpmin=0:qpmax=69:fast_pskip=0:aq-strength=0.5:no-dct-decimate=1:psy-rd=0.90,0.25:ipratio=1.1:pbratio=1.1:deadzone-inter=6:deadzone-intra=6 --verbose=1
    x264 [info]: frame I:1389  Avg QP:22.15  size: 87759  PSNR Mean Y:43.29 U:45.67 V:47.39 Avg:44.08 Global:43.57
    x264 [info]: frame P:35849 Avg QP:22.73  size: 51323  PSNR Mean Y:43.44 U:46.53 V:48.03 Avg:44.33 Global:43.55
    x264 [info]: frame B:75466 Avg QP:23.81  size: 28282  PSNR Mean Y:42.12 U:45.77 V:47.52 Avg:43.11 Global:42.29
    x264 [info]: consecutive B-frames:  2.7%  7.6% 49.5% 40.2%
    x264 [info]: mb I  I16..4:  7.8% 72.8% 19.4%
    x264 [info]: mb P  I16..4:  2.0% 13.6%  2.6%  P16..4: 47.9% 20.6%  7.6%  0.0%  0.0%    skip: 5.8%
    x264 [info]: mb B  I16..4:  0.1%  2.1%  0.4%  B16..8: 38.2% 10.5%  1.5%  direct:11.8%  skip:35.4%  L0:39.8% L1:42.2% BI:18.0%
    x264 [info]: 8x8 transform intra:75.8% inter:45.6%
    x264 [info]: coded y,uvDC,uvAC intra: 90.2% 70.8% 40.9% inter: 48.0% 20.0% 4.7%
    x264 [info]: i16 v,h,dc,p: 39% 15% 10% 36%
    x264 [info]: i8 v,h,dc,ddl,ddr,vr,hd,vl,hu:  7%  7%  5% 12% 17% 16% 14% 11% 10%
    x264 [info]: i4 v,h,dc,ddl,ddr,vr,hd,vl,hu:  9%  7%  3% 13% 18% 17% 14% 11%  9%
    x264 [info]: i8c dc,h,v,p: 52% 17% 20% 11%
    x264 [info]: ref P L0: 62.3% 23.7% 14.0%
    x264 [info]: ref B L0: 77.1% 22.9%
    x264 [info]: SSIM Mean Y:0.9576976 (13.736db)
    x264 [info]: PSNR Mean Y:42.555 U:46.010 V:47.684 Avg:43.506 Global:42.668 kb/s:6970.99

    Скриншоты 480p Release

    Скриншоты 720p Release

    Цитата:
    Цитата:

    • Сохранены оригинальные главы как на Blu-ray;
    • Дорожки № 5, 6 были получены путем наложения чистого голоса на каналы оригинала;
    • За оцифровку дубляжа Варус Видео с лицензионной видеокассеты большое спасибо Eurounion;
    • За запись перевода ВГТРК с телеканалов РЕН-ТВ и Россия 2 большое спасибо Guderom & Eurounion;
    • За запись перевода НТВ с телевидения в 90-х годах через видеомагнитофон и оцифровку с видеокассеты большое спасибо Home Video;
    • За оцифровку Кузнецова с видеокассеты большое спасибо cinemasonar;
    • За оцифровку Зереницына с видеокассеты большое спасибо 21Sepsis;
    • За украинские дорожки спасибо сайту Hurtom;
    • Оцифрованные дорожки оставляют желать лучшего качества, добавлены для полного комплекта;
    • Перевод Л.Володарского доступен благодаря участникам форума Е180: Wolf_Larsen, Hattori Hanzo, Nadoelo, denis_mgn_1987, foxlight, motel, xerman13, uchitel538, Kastro, gross1978, GansAn, zetrob, SJC, vik19662007, ilsasss, masta, Партизан, User, STONECOLD, Andrey_Tula, Alex, SoftSlider, Loki1982, Skoped, Джосс, Алекс.
    -

    Релиз подготовлен для просмотра на Apple TV, iPad, iPhone, iPod Touch.
    Для просмотра данного релиза на компьютере с ОС Windows рекомендуется использовать VLC media player
    Скачать .torrent

    Скачать торрент-файл бесплатно и на максимальной скорости!

    Как скачивать? · Что такое торрент? · Рейтинг и ограничения

    !ВНИМАНИЕ!
    Сайт не распространяет и не хранит электронные версии произведений, а занимается лишь лишь предоставлением доступа к создаваемому пользователями каталогу ссылок на торрент-файлы, которые содержат только списки хеш-сумм, убедительная просьба с жалобами обращаться напрямую к пользователю. Файлы для обмена на трекере предоставлены пользователями сайта, и администрация не несёт ответственности за их содержание. Просьба не заливать файлы, защищенные авторскими правами, а также файлы нелегального содержания!


    _________________
    [Профиль] [ЛС]
    Показать сообщения:    
    Ответить на тему

    Текущее время: Сегодня, в 14:21

    Часовой пояс: GMT + 2



    Вы не можете начинать темы
    Вы не можете отвечать на сообщения
    Вы не можете редактировать свои сообщения
    Вы не можете удалять свои сообщения
    Вы не можете голосовать в опросах
    Вы не можете прикреплять файлы к сообщениям
    Вы не можете скачивать файлы