BitTorrentTracker PerecTracker.org
BitTorrentTracker PerecTracker.org
    
Регистрация  ·  Вход
 
 · 
Забыли пароль?

  • Доклад для следователя / Report to the Commissioner (Милтон Кацелас) [1975, США, драма, криминал, BDRip HD (720p), SD (480p)] DVO, Original + SUB (eng)

    Ответить на тему
     
    Автор Сообщение

    Flirldrerve

    Создавать темы 27-Окт-2015 05:19

           

    [Цитировать]

    Доклад для следователя / Report to the Commissioner
    "No One Knew She Was An Undercover Policewoman. Including The Detective Who Killed Her"
    6.167 / 10
    -Год выпуска: 1975
    Страна: США
    Жанр: драма, криминал
    Продолжительность: 112 мин.
    Перевод: Двухголосый закадровый перевод
    Оригинальная аудиодорожка: Есть
    Cубтитры: Английские полные
    Режиссёр: Милтон Кацелас
    Сценарий: Эбби Манн, Эрнест Тайдимен, Джеймс Миллс
    Продюсер: М.Дж. Франкович
    Оператор: Марио Този
    Композитор: Элмер Бернстайн
    Художник: Роберт Клэтворти, Анна Хилл Джонстоун, Джон А. Кури
    Монтаж: Дэвид Е. Блюитт
    В ролях: Майкл Мориарти, Яфет Котто, Сьюзан Блейкли, Гектор Элизондо, Тони Кинг, Майкл МакГуайр, Эдвард Гроувер, Дэна Элкар, Боб Бэлабан, Уильям Дивэйн
    Мировая премьера: 5 февраля 1975
    Описание: Полицейский детектив Локли начинает расследование убийства женщины, агента по наркотикам, работавшей под прикрытием и жившей в одной квартире с самым могущественным наркобароном. С самого начала он вынужден иметь дело с комиссией, которая заставляет его лгать, и двоими недобросовестными полицейскими, которые заботятся больше о своих амбициях, чем о том, чтобы следовать правилам...-Качество исходника: BD-Remux 1080p (HDClub)
    Качество: BDRip
    Тип: 480p 720p
    Контейнер: m4v
    Видео: 640x460 анаморф 852x460 at 23.976 fps, MPEG-4 AVC, ~1800 kbps avg
    Видео: 1280x692 at 23.976 fps, MPEG-4 AVC, ~7000 kbps avg
    Аудио#1: Russian: 48 kHz, ААС, 2/0 (L,R), ~128.00 / 192.00 kbps avg |Двухголосый закадровый, НТВ+|
    Аудио#2: English: 48 kHz, ААС, 2/0 (L,R), ~128.00 / 192.00 kbps avg
    Субтитры №1: English: |Полные|-

    iTunes Meta Tags for country ru

    Name: Доклад для следователя
    Artist: Milton Katselas
    Genre: Action & Adventure
    Release Date: 1975-02-05T08:00:00Z
    Description: Молодой детектив нью-йоркской полиции на собственной шкуре узнает о правилах, по которым живет полицейское управление большого города. По роковой ошибке застрелив женщину-коллегу - тайного агента полиции, он сталкивается с попыткой управления скрыть обстоятельства произошедшего.
    Long Description: Полицейский детектив Локли начинает расследование убийства женщины, агента по наркотикам, работавшей под прикрытием и жившей в одной квартире с самым могущественным наркобароном. С самого начала он вынужден иметь дело с комиссией, которая заставляет его лгать, и двоими недобросовестными полицейскими, которые заботятся больше о своих амбициях, чем о том, чтобы следовать правилам...
    Rating: 6+
    Studio: MGM
    Cast: Майкл Мориарти, Яфет Котто, Сьюзан Блейкли, Гектор Элизондо, Тони Кинг, Майкл МакГуайр, Эдвард Гроувер, Дэна Элкар, Боб Бэлабан, Уильям Дивэйн
    Director: Милтон Кацелас
    Producers: М.Дж. Франкович
    Screenwriters: Эбби Манн, Эрнест Тайдимен, Джеймс Миллс
    Copyright: © METRO-GOLDWYN-MAYER STUDIOS INC.
    contentID: 855468549
    XID: Apple:vendor_id:1975-22365
    Sort Name: Доклад для следователя

    iTunes Meta Tags for country us

    Name: Report to the Commissioner
    Artist: Milton Katselas
    Genre: Action & Adventure
    Release Date: 1975-02-05T08:00:00Z
    Description: Молодой детектив нью-йоркской полиции на собственной шкуре узнает о правилах, по которым живет полицейское управление большого города. По роковой ошибке застрелив женщину-коллегу - тайного агента полиции, он сталкивается с попыткой управления скрыть обстоятельства произошедшего.
    Long Description: Полицейский детектив Локли начинает расследование убийства женщины, агента по наркотикам, работавшей под прикрытием и жившей в одной квартире с самым могущественным наркобароном. С самого начала он вынужден иметь дело с комиссией, которая заставляет его лгать, и двоими недобросовестными полицейскими, которые заботятся больше о своих амбициях, чем о том, чтобы следовать правилам...
    Rating: PG
    Studio: MGM
    Cast: Майкл Мориарти, Яфет Котто, Сьюзан Блейкли, Гектор Элизондо, Тони Кинг, Майкл МакГуайр, Эдвард Гроувер, Дэна Элкар, Боб Бэлабан, Уильям Дивэйн
    Director: Милтон Кацелас
    Producers: М.Дж. Франкович
    Screenwriters: Эбби Манн, Эрнест Тайдимен, Джеймс Миллс
    Copyright: © METRO-GOLDWYN-MAYER STUDIOS INC.
    contentID: 855468549
    XID: Apple:vendor_id:1975-22365
    Sort Name: Report to the Commissioner

    MediaInfo 480p Release

    General
    Complete name : Report to the Commissioner.m4v
    Format : MPEG-4
    Codec ID : M4V
    File size : 1.60 GiB
    Duration : 1h 52mn
    Overall bit rate mode : Variable
    Overall bit rate : 2 037 Kbps
    Movie name : Report to the Commissioner
    Performer : Milton Katselas
    Director : Милтон Кацелас
    Actor : Майкл Мориарти / Яфет Котто / Сьюзан Блейкли / Гектор Элизондо / Тони Кинг / Майкл МакГуайр / Эдвард Гроувер / Дэна Элкар / Боб Бэлабан / Уильям Дивэйн
    Screenplay by : Эбби Манн / Эрнест Тайдимен / Джеймс Миллс
    Producer : М.Дж. Франкович
    Production studio : MGM
    Genre : Action & Adventure
    ContentType : Short Film
    Description : Молодой детектив нью-йоркской полиции на собственной шкуре узнает о правилах, по которым живет полицейское управление большого города. По роковой ошибке застрелив женщину-коллегу - тайного агента полиции, он сталкивается с попыткой управления скрыть обстоятельства произошедшего.
    Recorded date : UTC 1975-02-05 08:00:00
    Encoded date : UTC 2015-09-08 15:12:15
    Tagged date : UTC 2015-09-08 18:09:02
    Copyright : © METRO-GOLDWYN-MAYER STUDIOS INC.
    Cover : Yes
    Rating : None
    Title/Sort : Report to the Commissioner
    LongDescription : Полицейский детектив Локли начинает расследование убийства женщины, агента по наркотикам, работавшей под прикрытием и жившей в одной квартире с самым могущественным наркобароном. С самого начала он вынужден иметь дело с комиссией, которая заставляет его лгать, и двоими недобросовестными полицейскими, которые заботятся больше о своих амбициях, чем о том, чтобы следовать правилам...
    AppleStoreCatalogID : 855468549
    Vendor : Apple:vendor_id:1975-22365
    ContentRating : mpaa|PG|200|
    Video #1
    ID : 1
    Format : AVC
    Format/Info : Advanced Video Codec
    Format profile : Baseline@L3
    Format settings, CABAC : No
    Format settings, ReFrames : 2 frames
    Codec ID : avc1
    Codec ID/Info : Advanced Video Coding
    Duration : 1h 52mn
    Bit rate : 1 800 Kbps
    Width : 640 pixels
    Height : 460 pixels
    Display aspect ratio : 1.85:1
    Frame rate mode : Variable
    Frame rate : 23.976 fps
    Minimum frame rate : 23.974 fps
    Maximum frame rate : 23.981 fps
    Color space : YUV
    Chroma subsampling : 4:2:0
    Bit depth : 8 bits
    Scan type : Progressive
    Bits/(Pixel*Frame) : 0.255
    Stream size : 1.42 GiB (88%)
    Title : Main Program
    Writing library : x264 core 130 r2273 b3065e6
    Encoding settings : cabac=0 / ref=2 / deblock=1:0:0 / analyse=0x1:0x111 / me=umh / subme=6 / psy=1 / psy_rd=1.00:0.00 / mixed_ref=1 / me_range=16 / chroma_me=1 / trellis=0 / 8x8dct=0 / cqm=0 / deadzone=21,11 / fast_pskip=1 / chroma_qp_offset=-2 / threads=18 / lookahead_threads=3 / sliced_threads=0 / nr=0 / decimate=1 / interlaced=0 / bluray_compat=0 / constrained_intra=0 / bframes=0 / weightp=0 / keyint=240 / keyint_min=24 / scenecut=40 / intra_refresh=0 / rc_lookahead=40 / rc=2pass / mbtree=1 / bitrate=1800 / ratetol=1.0 / qcomp=0.60 / qpmin=0 / qpmax=69 / qpstep=4 / cplxblur=20.0 / qblur=0.5 / vbv_maxrate=5000 / vbv_bufsize=5000 / nal_hrd=none / ip_ratio=1.40 / aq=1:1.00
    Language : English
    Encoded date : UTC 2015-09-08 15:12:16
    Tagged date : UTC 2015-09-08 15:12:20
    Color range : Limited
    Color primaries : BT.709
    Transfer characteristics : BT.709
    Matrix coefficients : BT.709
    Video #2
    ID : 6
    Format : JPEG
    Codec ID : jpeg
    Duration : 1h 52mn
    Bit rate mode : Variable
    Bit rate : 351 bps
    Width : 640 pixels
    Height : 345 pixels
    Display aspect ratio : 1.85:1
    Frame rate mode : Variable
    Frame rate : 0.001 fps
    Minimum frame rate : 0.001 fps
    Maximum frame rate : 0.002 fps
    Color space : YUV
    Chroma subsampling : 4:2:0
    Bit depth : 8 bits
    Compression mode : Lossy
    Bits/(Pixel*Frame) : 1.590
    Stream size : 343 KiB (0%)
    Title : Chapter Images
    Language : English
    Encoded date : UTC 2015-09-08 18:08:28
    Tagged date : UTC 2015-09-08 18:08:29
    Audio #1
    ID : 2
    Format : AAC
    Format/Info : Advanced Audio Codec
    Format profile : LC
    Codec ID : 40
    Duration : 1h 52mn
    Bit rate mode : Variable
    Bit rate : 132 Kbps
    Maximum bit rate : 187 Kbps
    Channel(s) : 2 channels
    Channel positions : Front: L R
    Sampling rate : 48.0 KHz
    Compression mode : Lossy
    Stream size : 105 MiB (6%)
    Title : Russian DVO HTB+ Stereo
    Language : Russian
    Encoded date : UTC 2015-09-08 15:12:15
    Tagged date : UTC 2015-09-08 15:12:24
    Audio #2
    ID : 3
    Format : AAC
    Format/Info : Advanced Audio Codec
    Format profile : LC
    Codec ID : 40
    Duration : 1h 52mn
    Bit rate mode : Variable
    Bit rate : 100 Kbps
    Maximum bit rate : 147 Kbps
    Channel(s) : 2 channels
    Channel positions : Front: L R
    Sampling rate : 48.0 KHz
    Compression mode : Lossy
    Stream size : 81.0 MiB (5%)
    Title : English Stereo
    Language : English
    Encoded date : UTC 2015-09-08 15:12:16
    Tagged date : UTC 2015-09-08 15:12:24
    Text
    ID : 4
    Format : Timed Text
    Muxing mode : sbtl
    Codec ID : tx3g
    Duration : 1h 49mn
    Bit rate mode : Variable
    Bit rate : 64 bps
    Stream size : 51.8 KiB (0%)
    Title : English Subtitle
    Language : English
    Encoded date : UTC 2015-09-08 18:08:26
    Tagged date : UTC 2015-09-08 18:08:26
    Menu #1
    00:00:00.000 : 1
    00:07:39.333 : 2
    00:29:47.952 : 3
    00:52:57.841 : 4
    01:05:28.132 : 5
    01:16:13.777 : 6
    01:31:05.293 : 7
    01:43:08.390 : 8
    Menu #2
    ID : 5
    Codec ID : text
    Duration : 1h 52mn
    Title : Chapter Titles
    Language : English
    Encoded date : UTC 2015-09-08 18:08:26
    Tagged date : UTC 2015-09-08 18:08:26
    Bit rate mode : CBR
    00:00:00.000 : 1
    00:07:39.333 : 2
    00:29:47.952 : 3
    00:52:57.841 : 4
    01:05:28.132 : 5
    01:16:13.777 : 6
    01:31:05.293 : 7
    01:43:08.390 : 8

    MediaInfo 720p Release

    General
    Complete name : Report to the Commissioner (HD).m4v
    Format : MPEG-4
    Codec ID : M4V
    File size : 5.76 GiB
    Duration : 1h 52mn
    Overall bit rate mode : Variable
    Overall bit rate : 7 320 Kbps
    Movie name : Report to the Commissioner
    Performer : Milton Katselas
    Director : Милтон Кацелас
    Actor : Майкл Мориарти / Яфет Котто / Сьюзан Блейкли / Гектор Элизондо / Тони Кинг / Майкл МакГуайр / Эдвард Гроувер / Дэна Элкар / Боб Бэлабан / Уильям Дивэйн
    Screenplay by : Эбби Манн / Эрнест Тайдимен / Джеймс Миллс
    Producer : М.Дж. Франкович
    Production studio : MGM
    Genre : Action & Adventure
    ContentType : Short Film
    Description : Молодой детектив нью-йоркской полиции на собственной шкуре узнает о правилах, по которым живет полицейское управление большого города. По роковой ошибке застрелив женщину-коллегу - тайного агента полиции, он сталкивается с попыткой управления скрыть обстоятельства произошедшего.
    Recorded date : UTC 1975-02-05 08:00:00
    Encoded date : UTC 2015-09-08 15:09:24
    Tagged date : UTC 2015-09-08 18:08:34
    Copyright : © METRO-GOLDWYN-MAYER STUDIOS INC.
    Cover : Yes
    Rating : None
    Title/Sort : Report to the Commissioner
    LongDescription : Полицейский детектив Локли начинает расследование убийства женщины, агента по наркотикам, работавшей под прикрытием и жившей в одной квартире с самым могущественным наркобароном. С самого начала он вынужден иметь дело с комиссией, которая заставляет его лгать, и двоими недобросовестными полицейскими, которые заботятся больше о своих амбициях, чем о том, чтобы следовать правилам...
    HDVideo : Yes
    AppleStoreCatalogID : 855468549
    Vendor : Apple:vendor_id:1975-22365
    ContentRating : mpaa|PG|200|
    Video #1
    ID : 1
    Format : AVC
    Format/Info : Advanced Video Codec
    Format profile : High@L3.1
    Format settings, CABAC : No
    Format settings, ReFrames : 3 frames
    Codec ID : avc1
    Codec ID/Info : Advanced Video Coding
    Duration : 1h 52mn
    Source duration : 1h 52mn
    Bit rate : 7 000 Kbps
    Width : 1 280 pixels
    Height : 692 pixels
    Display aspect ratio : 1.85:1
    Frame rate mode : Variable
    Frame rate : 23.976 fps
    Minimum frame rate : 23.974 fps
    Maximum frame rate : 23.981 fps
    Color space : YUV
    Chroma subsampling : 4:2:0
    Bit depth : 8 bits
    Scan type : Progressive
    Bits/(Pixel*Frame) : 0.330
    Stream size : 5.49 GiB (95%)
    Source stream size : 5.49 GiB (95%)
    Title : Main Program
    Writing library : x264 core 130 r2273 b3065e6
    Encoding settings : cabac=0 / ref=3 / deblock=1:-3:-2 / analyse=0x3:0x113 / me=umh / subme=9 / psy=1 / psy_rd=0.90:0.25 / mixed_ref=1 / me_range=32 / chroma_me=1 / trellis=0 / 8x8dct=1 / cqm=0 / deadzone=6,6 / fast_pskip=0 / chroma_qp_offset=-2 / threads=18 / lookahead_threads=1 / sliced_threads=0 / nr=0 / decimate=0 / interlaced=0 / bluray_compat=0 / constrained_intra=0 / bframes=3 / b_pyramid=0 / b_adapt=2 / b_bias=0 / direct=1 / weightb=0 / open_gop=0 / weightp=0 / keyint=240 / keyint_min=24 / scenecut=40 / intra_refresh=0 / rc_lookahead=40 / rc=2pass / mbtree=1 / bitrate=7000 / ratetol=1.0 / qcomp=0.80 / qpmin=0 / qpmax=69 / qpstep=4 / cplxblur=20.0 / qblur=0.5 / vbv_maxrate=9500 / vbv_bufsize=9500 / nal_hrd=none / ip_ratio=1.10 / aq=1:0.50
    Language : English
    Encoded date : UTC 2015-09-08 15:09:24
    Tagged date : UTC 2015-09-08 15:09:41
    Color range : Limited
    Color primaries : BT.709
    Transfer characteristics : BT.709
    Matrix coefficients : BT.709
    Video #2
    ID : 6
    Format : JPEG
    Codec ID : jpeg
    Duration : 1h 52mn
    Bit rate mode : Variable
    Bit rate : 393 bps
    Width : 640 pixels
    Height : 346 pixels
    Display aspect ratio : 1.85:1
    Frame rate mode : Variable
    Frame rate : 0.001 fps
    Minimum frame rate : 0.001 fps
    Maximum frame rate : 0.002 fps
    Color space : YUV
    Chroma subsampling : 4:2:0
    Bit depth : 8 bits
    Compression mode : Lossy
    Bits/(Pixel*Frame) : 1.775
    Stream size : 384 KiB (0%)
    Title : Chapter Images
    Language : English
    Encoded date : UTC 2015-09-08 18:07:20
    Tagged date : UTC 2015-09-08 18:07:21
    Audio #1
    ID : 2
    Format : AAC
    Format/Info : Advanced Audio Codec
    Format profile : LC
    Codec ID : 40
    Duration : 1h 52mn
    Bit rate mode : Variable
    Bit rate : 192 Kbps
    Maximum bit rate : 267 Kbps
    Channel(s) : 2 channels
    Channel positions : Front: L R
    Sampling rate : 48.0 KHz
    Compression mode : Lossy
    Stream size : 157 MiB (3%)
    Title : Russian DVO HTB+ Stereo
    Language : Russian
    Encoded date : UTC 2015-09-08 15:09:24
    Tagged date : UTC 2015-09-08 15:09:45
    Audio #2
    ID : 3
    Format : AAC
    Format/Info : Advanced Audio Codec
    Format profile : LC
    Codec ID : 40
    Duration : 1h 52mn
    Bit rate mode : Variable
    Bit rate : 144 Kbps
    Maximum bit rate : 250 Kbps
    Channel(s) : 2 channels
    Channel positions : Front: L R
    Sampling rate : 48.0 KHz
    Compression mode : Lossy
    Stream size : 114 MiB (2%)
    Title : English Stereo
    Language : English
    Encoded date : UTC 2015-09-08 15:09:24
    Tagged date : UTC 2015-09-08 15:09:44
    Text
    ID : 4
    Format : Timed Text
    Muxing mode : sbtl
    Codec ID : tx3g
    Duration : 1h 49mn
    Bit rate mode : Variable
    Bit rate : 64 bps
    Stream size : 51.8 KiB (0%)
    Title : English Subtitle
    Language : English
    Encoded date : UTC 2015-09-08 18:06:29
    Tagged date : UTC 2015-09-08 18:06:29
    Menu #1
    00:00:00.000 : 1
    00:07:39.333 : 2
    00:29:47.952 : 3
    00:52:57.841 : 4
    01:05:28.132 : 5
    01:16:13.777 : 6
    01:31:05.293 : 7
    01:43:08.390 : 8
    Menu #2
    ID : 5
    Codec ID : text
    Duration : 1h 52mn
    Title : Chapter Titles
    Language : English
    Encoded date : UTC 2015-09-08 18:07:15
    Tagged date : UTC 2015-09-08 18:07:15
    Bit rate mode : CBR
    00:00:00.000 : 1
    00:07:39.333 : 2
    00:29:47.952 : 3
    00:52:57.841 : 4
    01:05:28.132 : 5
    01:16:13.777 : 6
    01:31:05.293 : 7
    01:43:08.390 : 8

    x264 лог 480p Release

    HandBrakeCLI -i "/REPORT_TO_THE_COMMISSIONER_1975_REMUX_HDCLUB/BDMV/STREAM/00000.m2ts" -t 1 -c 1 -o "Report.to.the.commissioner.480p.eng.m4v" -f mp4 -I -O -w 640 -l 460 --crop 20:22:0:0 --custom-anamorphic --modulus 4 --pixel-aspect 852:640 -e x264 -b 1800 -2 -a none -x cabac=0:ref=2:me=umh:bframes=0:weightp=0:subq=6:8x8dct=0:trellis=0:vbv-maxrate=5000:vbv-bufsize=5000 --verbose=1
    x264 [info]: frame I:2967  Avg QP:18.70  size: 26364  PSNR Mean Y:44.48 U:51.89 V:52.27 Avg:45.84 Global:45.51
    x264 [info]: frame P:159213 Avg QP:20.75  size:  9068  PSNR Mean Y:41.92 U:48.27 V:48.63 Avg:43.19 Global:42.89
    x264 [info]: mb I  I16..4: 25.4%  0.0% 74.6%
    x264 [info]: mb P  I16..4:  0.8%  0.0%  2.5%  P16..4: 51.6% 22.8%  9.7%  0.0%  0.0%    skip:12.7%
    x264 [info]: coded y,uvDC,uvAC intra: 88.9% 60.5% 27.7% inter: 35.1% 17.4% 1.7%
    x264 [info]: i16 v,h,dc,p: 29% 10% 20% 41%
    x264 [info]: i4 v,h,dc,ddl,ddr,vr,hd,vl,hu: 24% 11% 24%  8%  8%  9%  6%  7%  4%
    x264 [info]: i8c dc,h,v,p: 58% 12% 24%  5%
    x264 [info]: ref P L0: 67.3% 32.7%
    x264 [info]: SSIM Mean Y:0.9619954 (14.202db)
    x264 [info]: PSNR Mean Y:41.963 U:48.335 V:48.696 Avg:43.242 Global:42.926 kb/s:1800.01

    x264 лог 720p Release

    HandBrakeCLI -i "/REPORT_TO_THE_COMMISSIONER_1975_REMUX_HDCLUB/BDMV/STREAM/00000.m2ts" -t 1 -c 1 -o "Report.to.the.commissioner.720p.eng.m4v" -f mp4 -4 -O -w 1280 -l 692 --crop 20:22:0:0 --modulus 2 -e x264 -b 7000 -2 -a none -x cabac=0:ref=3:me=umh:b-pyramid=none:b-adapt=2:weightb=0:trellis=0:weightp=0:vbv-maxrate=9500:vbv-bufsize=9500:subq=9:merange=32:deblock=-3,-2:qcomp=0.80:qpmin=0:qpmax=69:fast_pskip=0:aq-strength=0.5:no-dct-decimate=1:psy-rd=0.90,0.25:ipratio=1.1:pbratio=1.1:deadzone-inter=6:deadzone-intra=6 --verbose=1
    x264 [info]: frame I:989   Avg QP:22.23  size: 73949  PSNR Mean Y:43.42 U:49.42 V:49.98 Avg:44.66 Global:44.33
    x264 [info]: frame P:50003 Avg QP:23.16  size: 52631  PSNR Mean Y:42.54 U:49.15 V:49.65 Avg:43.84 Global:43.51
    x264 [info]: frame B:111188 Avg QP:24.09  size: 28725  PSNR Mean Y:41.03 U:48.56 V:49.26 Avg:42.43 Global:42.08
    x264 [info]: consecutive B-frames:  1.1%  7.1% 45.5% 46.2%
    x264 [info]: mb I  I16..4:  8.7% 71.6% 19.7%
    x264 [info]: mb P  I16..4:  1.5% 11.9%  2.3%  P16..4: 50.1% 22.1%  8.4%  0.0%  0.0%    skip: 3.6%
    x264 [info]: mb B  I16..4:  0.1%  1.6%  0.3%  B16..8: 37.8% 11.0%  1.5%  direct:14.9%  skip:32.7%  L0:40.4% L1:39.7% BI:19.9%
    x264 [info]: 8x8 transform intra:75.8% inter:45.2%
    x264 [info]: coded y,uvDC,uvAC intra: 89.4% 47.1% 14.0% inter: 53.9% 10.9% 1.7%
    x264 [info]: i16 v,h,dc,p: 33% 15% 17% 35%
    x264 [info]: i8 v,h,dc,ddl,ddr,vr,hd,vl,hu: 11%  5%  6% 12% 16% 16% 13% 12%  9%
    x264 [info]: i4 v,h,dc,ddl,ddr,vr,hd,vl,hu: 20%  6%  4% 11% 15% 15% 11% 10%  7%
    x264 [info]: i8c dc,h,v,p: 55% 17% 21%  7%
    x264 [info]: ref P L0: 55.5% 27.7% 16.7%
    x264 [info]: ref B L0: 70.9% 29.1%
    x264 [info]: SSIM Mean Y:0.9501514 (13.023db)
    x264 [info]: PSNR Mean Y:41.514 U:48.749 V:49.385 Avg:42.879 Global:42.486 kb/s:6976.41

    Скриншоты 480p Release

    Скриншоты 720p Release

    -

    Релиз подготовлен для просмотра на Apple TV, iPad, iPhone, iPod Touch.
    Для просмотра данного релиза на компьютере с ОС Windows рекомендуется использовать VLC media player
    Скачать .torrent

    Скачать торрент-файл бесплатно и на максимальной скорости!

    Как скачивать? · Что такое торрент? · Рейтинг и ограничения

    !ВНИМАНИЕ!
    Сайт не распространяет и не хранит электронные версии произведений, а занимается лишь лишь предоставлением доступа к создаваемому пользователями каталогу ссылок на торрент-файлы, которые содержат только списки хеш-сумм, убедительная просьба с жалобами обращаться напрямую к пользователю. Файлы для обмена на трекере предоставлены пользователями сайта, и администрация не несёт ответственности за их содержание. Просьба не заливать файлы, защищенные авторскими правами, а также файлы нелегального содержания!


    _________________
    [Профиль] [ЛС]
    Показать сообщения:    
    Ответить на тему

    Текущее время: Сегодня, в 14:36

    Часовой пояс: GMT + 2



    Вы не можете начинать темы
    Вы не можете отвечать на сообщения
    Вы не можете редактировать свои сообщения
    Вы не можете удалять свои сообщения
    Вы не можете голосовать в опросах
    Вы не можете прикреплять файлы к сообщениям
    Вы не можете скачивать файлы