BitTorrentTracker PerecTracker.org
BitTorrentTracker PerecTracker.org
    
Регистрация  ·  Вход
 
 · 
Забыли пароль?

  • Саботаж / Sabotage (Тибор Такач) [1996, Канада, боевик, триллер, драма, BDRip HD (720p), SD (480p)] DVO, MVO, AVO, Original + SUB (rus, eng)

    Ответить на тему
     
    Автор Сообщение

    Flirldrerve

    Создавать темы 27-Окт-2015 05:19

           

    [Цитировать]

    Саботаж / Sabotage
    "The Dark Heart Of The Black Ops Beats To A Secret Agenda"
    6.217 / 10
    -Год выпуска: 1996
    Страна: Канада
    Жанр: боевик, триллер, драма
    Продолжительность: 95 мин.
    Перевод: Многоголосый закадровый перевод, двухголосый закадровый перевод и одноголосый закадровый перевод
    Оригинальная аудиодорожка: Есть
    Cубтитры: Русские полные и английские полные
    Режиссёр: Тибор Такач
    Сценарий: Рик Филон, Майкл Стоукс
    Продюсер: Энди Эмилио, Майкл Фрэнкс, Эш Р. Шах
    Оператор: Куртис Петерсен
    Композитор: Гай Зерафа
    Художник: Йен Холл, Эдвард Бонутто, Нэнси МакХью
    Монтаж: Крэйг Нискер
    В ролях: Марк Дакаскос, Кэрри-Энн Мосс, Тони Тодд, Грэм Грин, Джон Невилл, Джеймс Пёрселл, Сара Розен Фруитман, Ричард Култер, Хайди фон Паллеске, Джон Пол Янг
    Бюджет: $5 000 000
    Мировая премьера: 20 ноября 1996
    Премьера (РФ): 1996
    Описание: Бывший морской пехотинец Майк Бишоп участвует в провальной операции по спасению заложников. Получив 7 ранений от руки профессионального убийцы, Бишоп чудом остается жив...
    Несколько лет спустя семья, в которой Бишоп работает телохранителем, становится жертвой того же убийцы. Объединившись со спецагентом ФБР, Бишоп вступает в смертельную схватку с суперкиллером, и ничьей в этой борьбе быть не может...-Качество исходника: BD-Remux 1080p (HDClub)
    Качество: BDRip
    Тип: 480p 720p
    Контейнер: m4v
    Видео: 640x480 анаморф 852x480 at 23.976 fps, MPEG-4 AVC, ~1800 kbps avg
    Видео: 1280x720 at 23.976 fps, MPEG-4 AVC, ~7000 kbps avg
    Аудио#1: Russian: 48 kHz, ААС, 2/0 (L,R), ~128.00 / 192.00 kbps avg |Двухголосый закадровый, R5|
    Аудио#2: Russian: 48 kHz, ААС, 2/0 (L,R), ~128.00 / 192.00 kbps avg |Многоголосый закадровый, РТР|
    Аудио#3: Russian: 48 kHz, ААС, 2/0 (L,R), ~128.00 / 192.00 kbps avg |Одноголосый закадровый, В. Горчаков|
    Аудио#4: Russian: 48 kHz, ААС, 2/0 (L,R), ~128.00 / 192.00 kbps avg |Одноголосый закадровый, А. Кашкин|
    Аудио#5: Ukrainian: 48 kHz, ААС, 2/0 (L,R), ~128.00 / 192.00 kbps avg |Двухголосый закадровый, ТВi|
    Аудио#6: English: 48 kHz, ААС, 2/0 (L,R), ~128.00 / 192.00 kbps avg
    Аудио#7: Russian: 48 kHz, AC3, 3/2 (L,C,R,l,r) + LFE ch, ~384.00 kbps avg |Двухголосый закадровый, R5|
    Субтитры №1: Russian: |Полные|
    Субтитры №2: English: |Полные|-

    iTunes Meta Tags for country us

    Sort Name: Sabotage
    XID: Apple:vendor_id:1996-3763
    contentID: 3763
    Screenwriters: Рик Филон, Майкл Стоукс
    Producers: Энди Эмилио, Майкл Фрэнкс, Эш Р. Шах
    Director: Тибор Такач
    Cast: Марк Дакаскос, Кэрри-Энн Мосс, Тони Тодд, Грэм Грин, Джон Невилл, Джеймс Пёрселл, Сара Розен Фруитман, Ричард Култер, Хайди фон Паллеске, Джон Пол Янг
    Rating: R
    Long Description: Бывший морской пехотинец Майк Бишоп участвует в провальной операции по спасению заложников. Получив 7 ранений от руки профессионального убийцы, Бишоп чудом остается жив...
    Несколько лет спустя семья, в которой Бишоп работает телохранителем, становится жертвой того же убийцы. Объединившись со спецагентом ФБР, Бишоп вступает в смертельную схватку с суперкиллером, и ничьей в этой борьбе быть не может...
    Description: Бывший морской пехотинец Майк Бишоп участвует в провальной операции по спасению заложников. Получив 7 ранений от руки профессионального убийцы, Бишоп чудом остается жив...
    Release Date: 1996-11-20T08:00:00Z
    Genre: Action & Adventure
    Artist: Tibor Takács
    Name: Sabotage (1996)

    MediaInfo 480p Release

    General
    Complete name : Sabotage (1996).m4v
    Format : MPEG-4
    Codec ID : M4V
    File size : 1.76 GiB
    Duration : 1h 39mn
    Overall bit rate mode : Variable
    Overall bit rate : 2 534 Kbps
    Movie name : Sabotage (1996)
    Performer : Tibor Takács
    Director : Тибор Такач
    Actor : Марк Дакаскос / Кэрри-Энн Мосс / Тони Тодд / Грэм Грин / Джон Невилл / Джеймс Пёрселл / Сара Розен Фруитман / Ричард Култер / Хайди фон Паллеске / Джон Пол Янг
    Screenplay by : Рик Филон / Майкл Стоукс
    Producer : Энди Эмилио / Майкл Фрэнкс / Эш Р. Шах
    Genre : Action & Adventure
    ContentType : Short Film
    Description : Бывший морской пехотинец Майк Бишоп участвует в провальной операции по спасению заложников. Получив 7 ранений от руки профессионального убийцы, Бишоп чудом остается жив...
    Recorded date : UTC 1996-11-20 08:00:00
    Encoded date : UTC 2015-09-13 10:13:37
    Tagged date : UTC 2015-09-13 10:18:08
    Cover : Yes
    Rating : None
    Title/Sort : Sabotage
    LongDescription : Бывший морской пехотинец Майк Бишоп участвует в провальной операции по спасению заложников. Получив 7 ранений от руки профессионального убийцы, Бишоп чудом остается жив... / Несколько лет спустя семья, в которой Бишоп работает телохранителем, становится жертвой того же убийцы. Объединившись со спецагентом ФБР, Бишоп вступает в смертельную схватку с суперкиллером, и ничьей в этой борьбе быть не может...
    AppleStoreCatalogID : 3763
    Vendor : Apple:vendor_id:1996-3763
    ContentRating : mpaa|R|400|
    Video #1
    ID : 1
    Format : AVC
    Format/Info : Advanced Video Codec
    Format profile : Baseline@L3
    Format settings, CABAC : No
    Format settings, ReFrames : 2 frames
    Codec ID : avc1
    Codec ID/Info : Advanced Video Coding
    Duration : 1h 39mn
    Bit rate : 1 800 Kbps
    Width : 640 pixels
    Height : 480 pixels
    Display aspect ratio : 16:9
    Frame rate mode : Variable
    Frame rate : 23.976 fps
    Minimum frame rate : 23.974 fps
    Maximum frame rate : 23.981 fps
    Color space : YUV
    Chroma subsampling : 4:2:0
    Bit depth : 8 bits
    Scan type : Progressive
    Bits/(Pixel*Frame) : 0.244
    Stream size : 1.25 GiB (71%)
    Title : Main Program
    Writing library : x264 core 130 r2273 b3065e6
    Encoding settings : cabac=0 / ref=2 / deblock=1:0:0 / analyse=0x1:0x111 / me=umh / subme=6 / psy=1 / psy_rd=1.00:0.00 / mixed_ref=1 / me_range=16 / chroma_me=1 / trellis=0 / 8x8dct=0 / cqm=0 / deadzone=21,11 / fast_pskip=1 / chroma_qp_offset=-2 / threads=18 / lookahead_threads=3 / sliced_threads=0 / nr=0 / decimate=1 / interlaced=0 / bluray_compat=0 / constrained_intra=0 / bframes=0 / weightp=0 / keyint=240 / keyint_min=24 / scenecut=40 / intra_refresh=0 / rc_lookahead=40 / rc=2pass / mbtree=1 / bitrate=1800 / ratetol=1.0 / qcomp=0.60 / qpmin=0 / qpmax=69 / qpstep=4 / cplxblur=20.0 / qblur=0.5 / vbv_maxrate=5000 / vbv_bufsize=5000 / nal_hrd=none / ip_ratio=1.40 / aq=1:1.00
    Language : English
    Encoded date : UTC 2015-09-13 10:13:37
    Tagged date : UTC 2015-09-13 10:15:48
    Color range : Limited
    Color primaries : BT.709
    Transfer characteristics : BT.709
    Matrix coefficients : BT.709
    Video #2
    ID : 11
    Format : JPEG
    Codec ID : jpeg
    Duration : 1h 39mn
    Bit rate mode : Variable
    Bit rate : 342 bps
    Width : 640 pixels
    Height : 360 pixels
    Display aspect ratio : 16:9
    Frame rate mode : Variable
    Frame rate : 0.001 fps
    Minimum frame rate : 0.001 fps
    Maximum frame rate : 0.002 fps
    Color space : YUV
    Chroma subsampling : 4:2:0
    Bit depth : 8 bits
    Compression mode : Lossy
    Bits/(Pixel*Frame) : 1.484
    Stream size : 334 KiB (0%)
    Title : Chapter Images
    Language : English
    Encoded date : UTC 2015-09-13 10:17:03
    Tagged date : UTC 2015-09-13 10:17:04
    Audio #1
    ID : 2
    Format : AAC
    Format/Info : Advanced Audio Codec
    Format profile : LC
    Codec ID : 40
    Duration : 1h 39mn
    Bit rate mode : Variable
    Bit rate : 132 Kbps
    Maximum bit rate : 195 Kbps
    Channel(s) : 2 channels
    Channel positions : Front: L R
    Sampling rate : 48.0 KHz
    Compression mode : Lossy
    Stream size : 93.6 MiB (5%)
    Title : Russian DVO R5 Stereo
    Language : Russian
    Encoded date : UTC 2015-09-13 10:13:37
    Tagged date : UTC 2015-09-13 10:17:00
    Audio #2
    ID : 3
    Format : AAC
    Format/Info : Advanced Audio Codec
    Format profile : LC
    Codec ID : 40
    Duration : 1h 39mn
    Bit rate mode : Variable
    Bit rate : 104 Kbps
    Maximum bit rate : 194 Kbps
    Channel(s) : 2 channels
    Channel positions : Front: L R
    Sampling rate : 48.0 KHz
    Compression mode : Lossy
    Stream size : 74.3 MiB (4%)
    Title : Russian MVO PTP Stereo
    Language : Russian
    Encoded date : UTC 2015-09-13 10:13:37
    Tagged date : UTC 2015-09-13 10:16:51
    Audio #3
    ID : 4
    Format : AAC
    Format/Info : Advanced Audio Codec
    Format profile : LC
    Codec ID : 40
    Duration : 1h 39mn
    Bit rate mode : Variable
    Bit rate : 132 Kbps
    Maximum bit rate : 185 Kbps
    Channel(s) : 2 channels
    Channel positions : Front: L R
    Sampling rate : 48.0 KHz
    Compression mode : Lossy
    Stream size : 93.5 MiB (5%)
    Title : Russian AVO V.Gorchakov Stereo
    Language : Russian
    Encoded date : UTC 2015-09-13 10:13:37
    Tagged date : UTC 2015-09-13 10:16:59
    Audio #4
    ID : 5
    Format : AAC
    Format/Info : Advanced Audio Codec
    Format profile : LC
    Codec ID : 40
    Duration : 1h 39mn
    Bit rate mode : Variable
    Bit rate : 111 Kbps
    Maximum bit rate : 184 Kbps
    Channel(s) : 2 channels
    Channel positions : Front: L R
    Sampling rate : 48.0 KHz
    Compression mode : Lossy
    Stream size : 79.1 MiB (4%)
    Title : Russian AVO A.Kashkin Stereo
    Language : Russian
    Encoded date : UTC 2015-09-13 10:13:37
    Tagged date : UTC 2015-09-13 10:16:49
    Audio #5
    ID : 6
    Format : AAC
    Format/Info : Advanced Audio Codec
    Format profile : LC
    Codec ID : 40
    Duration : 1h 39mn
    Bit rate mode : Variable
    Bit rate : 111 Kbps
    Maximum bit rate : 192 Kbps
    Channel(s) : 2 channels
    Channel positions : Front: L R
    Sampling rate : 48.0 KHz
    Compression mode : Lossy
    Stream size : 78.9 MiB (4%)
    Title : Ukrainian DVO TBi Stereo
    Language : Ukrainian
    Encoded date : UTC 2015-09-13 10:13:37
    Tagged date : UTC 2015-09-13 10:16:50
    Audio #6
    ID : 7
    Format : AAC
    Format/Info : Advanced Audio Codec
    Format profile : LC
    Codec ID : 40
    Duration : 1h 39mn
    Bit rate mode : Variable
    Bit rate : 132 Kbps
    Maximum bit rate : 204 Kbps
    Channel(s) : 2 channels
    Channel positions : Front: L R
    Sampling rate : 48.0 KHz
    Compression mode : Lossy
    Stream size : 94.1 MiB (5%)
    Title : English Stereo
    Language : English
    Encoded date : UTC 2015-09-13 10:13:37
    Tagged date : UTC 2015-09-13 10:17:01
    Text #1
    ID : 8
    Format : Timed Text
    Muxing mode : sbtl
    Codec ID : tx3g
    Duration : 1h 36mn
    Bit rate mode : Variable
    Bit rate : 68 bps
    Stream size : 47.9 KiB (0%)
    Title : Russian Subtitle
    Language : Russian
    Encoded date : UTC 2015-09-13 10:13:37
    Tagged date : UTC 2015-09-13 10:13:37
    Text #2
    ID : 9
    Format : Timed Text
    Muxing mode : sbtl
    Codec ID : tx3g
    Duration : 1h 36mn
    Bit rate mode : Variable
    Bit rate : 41 bps
    Stream size : 28.6 KiB (0%)
    Title : English Subtitle
    Language : English
    Encoded date : UTC 2015-09-13 10:13:37
    Tagged date : UTC 2015-09-13 10:13:37
    Menu #1
    00:00:00.000 : 1
    00:08:20.208 : 2
    00:21:19.444 : 3
    00:36:09.792 : 4
    00:51:31.171 : 5
    01:07:56.989 : 6
    01:21:55.535 : 7
    01:32:16.989 : 8
    Menu #2
    ID : 10
    Codec ID : text
    Duration : 1h 39mn
    Title : Chapter Titles
    Language : English
    Encoded date : UTC 2015-09-13 10:17:01
    Tagged date : UTC 2015-09-13 10:17:01
    Bit rate mode : CBR
    00:00:00.000 : 1
    00:08:20.208 : 2
    00:21:19.444 : 3
    00:36:09.792 : 4
    00:51:31.171 : 5
    01:07:56.989 : 6
    01:21:55.535 : 7
    01:32:16.989 : 8

    MediaInfo 720p Release

    General
    Complete name : Sabotage (1996) (HD).m4v
    Format : MPEG-4
    Codec ID : M4V
    File size : 5.52 GiB
    Duration : 1h 39mn
    Overall bit rate mode : Variable
    Overall bit rate : 7 943 Kbps
    Movie name : Sabotage (1996)
    Performer : Tibor Takács
    Director : Тибор Такач
    Actor : Марк Дакаскос / Кэрри-Энн Мосс / Тони Тодд / Грэм Грин / Джон Невилл / Джеймс Пёрселл / Сара Розен Фруитман / Ричард Култер / Хайди фон Паллеске / Джон Пол Янг
    Screenplay by : Рик Филон / Майкл Стоукс
    Producer : Энди Эмилио / Майкл Фрэнкс / Эш Р. Шах
    Genre : Action & Adventure
    ContentType : Short Film
    Description : Бывший морской пехотинец Майк Бишоп участвует в провальной операции по спасению заложников. Получив 7 ранений от руки профессионального убийцы, Бишоп чудом остается жив...
    Recorded date : UTC 1996-11-20 08:00:00
    Encoded date : UTC 2015-09-13 08:26:32
    Tagged date : UTC 2015-09-13 09:50:25
    Cover : Yes
    Rating : None
    Title/Sort : Sabotage
    LongDescription : Бывший морской пехотинец Майк Бишоп участвует в провальной операции по спасению заложников. Получив 7 ранений от руки профессионального убийцы, Бишоп чудом остается жив... / Несколько лет спустя семья, в которой Бишоп работает телохранителем, становится жертвой того же убийцы. Объединившись со спецагентом ФБР, Бишоп вступает в смертельную схватку с суперкиллером, и ничьей в этой борьбе быть не может...
    HDVideo : Yes
    AppleStoreCatalogID : 3763
    Vendor : Apple:vendor_id:1996-3763
    ContentRating : mpaa|R|400|
    Video #1
    ID : 1
    Format : AVC
    Format/Info : Advanced Video Codec
    Format profile : High@L3.1
    Format settings, CABAC : No
    Format settings, ReFrames : 3 frames
    Codec ID : avc1
    Codec ID/Info : Advanced Video Coding
    Duration : 1h 39mn
    Source duration : 1h 39mn
    Bit rate : 6 500 Kbps
    Width : 1 280 pixels
    Height : 720 pixels
    Display aspect ratio : 16:9
    Frame rate mode : Variable
    Frame rate : 23.976 fps
    Minimum frame rate : 23.974 fps
    Maximum frame rate : 23.981 fps
    Color space : YUV
    Chroma subsampling : 4:2:0
    Bit depth : 8 bits
    Scan type : Progressive
    Bits/(Pixel*Frame) : 0.294
    Stream size : 4.50 GiB (82%)
    Source stream size : 4.50 GiB (82%)
    Title : Main Program
    Writing library : x264 core 130 r2273 b3065e6
    Encoding settings : cabac=0 / ref=3 / deblock=1:-3:-2 / analyse=0x3:0x113 / me=umh / subme=9 / psy=1 / psy_rd=0.80:0.25 / mixed_ref=1 / me_range=32 / chroma_me=1 / trellis=0 / 8x8dct=1 / cqm=0 / deadzone=6,6 / fast_pskip=0 / chroma_qp_offset=-2 / threads=18 / lookahead_threads=1 / sliced_threads=0 / nr=0 / decimate=0 / interlaced=0 / bluray_compat=0 / constrained_intra=0 / bframes=3 / b_pyramid=0 / b_adapt=2 / b_bias=0 / direct=1 / weightb=0 / open_gop=0 / weightp=0 / keyint=240 / keyint_min=24 / scenecut=40 / intra_refresh=0 / rc_lookahead=40 / rc=2pass / mbtree=1 / bitrate=6500 / ratetol=1.0 / qcomp=0.80 / qpmin=0 / qpmax=69 / qpstep=4 / cplxblur=20.0 / qblur=0.5 / vbv_maxrate=9500 / vbv_bufsize=9500 / nal_hrd=none / ip_ratio=1.10 / aq=1:0.50
    Language : English
    Encoded date : UTC 2015-09-13 08:26:32
    Tagged date : UTC 2015-09-13 08:35:55
    Color range : Limited
    Color primaries : BT.709
    Transfer characteristics : BT.709
    Matrix coefficients : BT.709
    Video #2
    ID : 12
    Format : JPEG
    Codec ID : jpeg
    Duration : 1h 39mn
    Bit rate mode : Variable
    Bit rate : 385 bps
    Width : 640 pixels
    Height : 360 pixels
    Display aspect ratio : 16:9
    Frame rate mode : Variable
    Frame rate : 0.001 fps
    Minimum frame rate : 0.001 fps
    Maximum frame rate : 0.002 fps
    Color space : YUV
    Chroma subsampling : 4:2:0
    Bit depth : 8 bits
    Compression mode : Lossy
    Bits/(Pixel*Frame) : 1.671
    Stream size : 376 KiB (0%)
    Title : Chapter Images
    Language : English
    Encoded date : UTC 2015-09-13 09:50:13
    Tagged date : UTC 2015-09-13 09:50:13
    Audio #1
    ID : 2
    Format : AAC
    Format/Info : Advanced Audio Codec
    Format profile : LC
    Codec ID : 40
    Duration : 1h 39mn
    Bit rate mode : Variable
    Bit rate : 197 Kbps
    Maximum bit rate : 270 Kbps
    Channel(s) : 2 channels
    Channel positions : Front: L R
    Sampling rate : 48.0 KHz
    Compression mode : Lossy
    Stream size : 140 MiB (2%)
    Title : Russian DVO R5 Stereo
    Language : Russian
    Encoded date : UTC 2015-09-13 08:26:32
    Tagged date : UTC 2015-09-13 08:37:24
    Audio #2
    ID : 3
    Format : AAC
    Format/Info : Advanced Audio Codec
    Format profile : LC
    Codec ID : 40
    Duration : 1h 39mn
    Bit rate mode : Variable
    Bit rate : 148 Kbps
    Maximum bit rate : 263 Kbps
    Channel(s) : 2 channels
    Channel positions : Front: L R
    Sampling rate : 48.0 KHz
    Compression mode : Lossy
    Stream size : 105 MiB (2%)
    Title : Russian MVO PTP Stereo
    Language : Russian
    Encoded date : UTC 2015-09-13 08:26:32
    Tagged date : UTC 2015-09-13 08:37:20
    Audio #3
    ID : 4
    Format : AAC
    Format/Info : Advanced Audio Codec
    Format profile : LC
    Codec ID : 40
    Duration : 1h 39mn
    Bit rate mode : Variable
    Bit rate : 197 Kbps
    Maximum bit rate : 254 Kbps
    Channel(s) : 2 channels
    Channel positions : Front: L R
    Sampling rate : 48.0 KHz
    Compression mode : Lossy
    Stream size : 140 MiB (2%)
    Title : Russian AVO V.Gorchakov Stereo
    Language : Russian
    Encoded date : UTC 2015-09-13 08:26:32
    Tagged date : UTC 2015-09-13 08:37:24
    Audio #4
    ID : 5
    Format : AAC
    Format/Info : Advanced Audio Codec
    Format profile : LC
    Codec ID : 40
    Duration : 1h 39mn
    Bit rate mode : Variable
    Bit rate : 163 Kbps
    Maximum bit rate : 244 Kbps
    Channel(s) : 2 channels
    Channel positions : Front: L R
    Sampling rate : 48.0 KHz
    Compression mode : Lossy
    Stream size : 116 MiB (2%)
    Title : Russian AVO A.Kashkin Stereo
    Language : Russian
    Encoded date : UTC 2015-09-13 08:26:32
    Tagged date : UTC 2015-09-13 08:37:24
    Audio #5
    ID : 6
    Format : AAC
    Format/Info : Advanced Audio Codec
    Format profile : LC
    Codec ID : 40
    Duration : 1h 39mn
    Bit rate mode : Variable
    Bit rate : 160 Kbps
    Maximum bit rate : 255 Kbps
    Channel(s) : 2 channels
    Channel positions : Front: L R
    Sampling rate : 48.0 KHz
    Compression mode : Lossy
    Stream size : 114 MiB (2%)
    Title : Ukrainian DVO TBi Stereo
    Language : Ukrainian
    Encoded date : UTC 2015-09-13 08:26:32
    Tagged date : UTC 2015-09-13 08:37:24
    Audio #6
    ID : 7
    Format : AAC
    Format/Info : Advanced Audio Codec
    Format profile : LC
    Codec ID : 40
    Duration : 1h 39mn
    Bit rate mode : Variable
    Bit rate : 201 Kbps
    Maximum bit rate : 265 Kbps
    Channel(s) : 2 channels
    Channel positions : Front: L R
    Sampling rate : 48.0 KHz
    Compression mode : Lossy
    Stream size : 143 MiB (3%)
    Title : English Stereo
    Language : English
    Encoded date : UTC 2015-09-13 08:26:32
    Tagged date : UTC 2015-09-13 08:37:21
    Audio #7
    ID : 8
    Format : AC-3
    Format/Info : Audio Coding 3
    Mode extension : CM (complete main)
    Format settings, Endianness : Big
    Codec ID : ac-3
    Duration : 1h 39mn
    Bit rate mode : Constant
    Bit rate : 384 Kbps
    Channel(s) : 6 channels
    Channel positions : Front: L C R, Side: L R, LFE
    Sampling rate : 48.0 KHz
    Bit depth : 16 bits
    Compression mode : Lossy
    Stream size : 273 MiB (5%)
    Title : Russian DVO R5 DD 5.1
    Language : Russian
    Encoded date : UTC 2015-09-13 08:26:32
    Tagged date : UTC 2015-09-13 08:36:03
    Text #1
    ID : 9
    Format : Timed Text
    Muxing mode : sbtl
    Codec ID : tx3g
    Duration : 1h 36mn
    Bit rate mode : Variable
    Bit rate : 68 bps
    Stream size : 47.9 KiB (0%)
    Title : Russian Subtitle
    Language : Russian
    Encoded date : UTC 2015-09-13 08:26:32
    Tagged date : UTC 2015-09-13 08:26:32
    Text #2
    ID : 10
    Format : Timed Text
    Muxing mode : sbtl
    Codec ID : tx3g
    Duration : 1h 36mn
    Bit rate mode : Variable
    Bit rate : 41 bps
    Stream size : 28.6 KiB (0%)
    Title : English Subtitle
    Language : English
    Encoded date : UTC 2015-09-13 08:26:32
    Tagged date : UTC 2015-09-13 08:26:32
    Menu #1
    00:00:00.000 : 1
    00:08:20.208 : 2
    00:21:19.444 : 3
    00:36:09.792 : 4
    00:51:31.171 : 5
    01:07:56.989 : 6
    01:21:55.535 : 7
    01:32:16.989 : 8
    Menu #2
    ID : 11
    Codec ID : text
    Duration : 1h 39mn
    Title : Chapter Titles
    Language : English
    Encoded date : UTC 2015-09-13 09:50:08
    Tagged date : UTC 2015-09-13 09:50:08
    Bit rate mode : CBR
    00:00:00.000 : 1
    00:08:20.208 : 2
    00:21:19.444 : 3
    00:36:09.792 : 4
    00:51:31.171 : 5
    01:07:56.989 : 6
    01:21:55.535 : 7
    01:32:16.989 : 8

    x264 лог 480p Release

    HandBrakeCLI -i "/SABOTAGE_1996_REMUX_HDCLUB/BDMV/STREAM/00000.m2ts" -t 1 -o "Sabotage.1996.480p.eng.m4v" -f mp4 -I -O -w 640 -l 480 --crop 0:0:0:0 --custom-anamorphic --modulus 4 --pixel-aspect 852:640 -e x264 -b 1800 -2 -a none -x cabac=0:ref=2:me=umh:bframes=0:weightp=0:subq=6:8x8dct=0:trellis=0:vbv-maxrate=5000:vbv-bufsize=5000 --verbose=1
    x264 [info]: frame I:3099  Avg QP:18.69  size: 26670  PSNR Mean Y:44.99 U:51.31 V:52.55 Avg:46.15 Global:45.51
    x264 [info]: frame P:139970 Avg QP:21.29  size:  8997  PSNR Mean Y:41.77 U:47.86 V:49.03 Avg:42.92 Global:42.61
    x264 [info]: mb I  I16..4: 29.9%  0.0% 70.1%
    x264 [info]: mb P  I16..4:  0.8%  0.0%  2.6%  P16..4: 52.2% 21.7%  9.3%  0.0%  0.0%    skip:13.3%
    x264 [info]: coded y,uvDC,uvAC intra: 84.8% 73.1% 45.5% inter: 31.7% 23.4% 2.9%
    x264 [info]: i16 v,h,dc,p: 33% 12% 14% 42%
    x264 [info]: i4 v,h,dc,ddl,ddr,vr,hd,vl,hu: 23% 13% 21%  7%  8%  9%  6%  7%  5%
    x264 [info]: i8c dc,h,v,p: 55% 14% 23%  7%
    x264 [info]: ref P L0: 70.2% 29.8%
    x264 [info]: SSIM Mean Y:0.9660258 (14.689db)
    x264 [info]: PSNR Mean Y:41.842 U:47.932 V:49.107 Avg:42.993 Global:42.656 kb/s:1799.07

    x264 лог 720p Release

    HandBrakeCLI -i "/SABOTAGE_1996_REMUX_HDCLUB/BDMV/STREAM/00000.m2ts" -t 1 -o "Sabotage.1996.720p.eng.m4v" -f mp4 -4 -O -w 1280 -l 720 --crop 0:0:0:0 --modulus 16 -e x264 -b 6500 -2 -a none -x cabac=0:ref=3:me=umh:b-pyramid=none:b-adapt=2:weightb=0:trellis=0:weightp=0:vbv-maxrate=9500:vbv-bufsize=9500:subq=9:merange=32:deblock=-3,-2:qcomp=0.80:qpmin=0:qpmax=69:fast_pskip=0:aq-strength=0.5:no-dct-decimate=1:psy-rd=0.80,0.25:ipratio=1.1:pbratio=1.1:deadzone-inter=6:deadzone-intra=6 --verbose=1
    x264 [info]: frame I:1144  Avg QP:22.70  size: 77138  PSNR Mean Y:42.82 U:48.09 V:50.22 Avg:43.99 Global:43.74
    x264 [info]: frame P:46366 Avg QP:23.54  size: 52050  PSNR Mean Y:41.92 U:48.26 V:50.05 Avg:43.15 Global:42.91
    x264 [info]: frame B:95559 Avg QP:24.53  size: 24380  PSNR Mean Y:40.55 U:48.06 V:50.03 Avg:41.88 Global:41.65
    x264 [info]: consecutive B-frames:  1.7% 10.8% 50.3% 37.1%
    x264 [info]: mb I  I16..4:  8.9% 70.7% 20.5%
    x264 [info]: mb P  I16..4:  1.5% 10.9%  2.0%  P16..4: 54.8% 20.7%  7.8%  0.0%  0.0%    skip: 2.3%
    x264 [info]: mb B  I16..4:  0.1%  1.4%  0.2%  B16..8: 40.2% 10.4%  1.4%  direct:10.2%  skip:36.1%  L0:39.4% L1:44.5% BI:16.0%
    x264 [info]: 8x8 transform intra:75.7% inter:45.8%
    x264 [info]: coded y,uvDC,uvAC intra: 91.5% 63.3% 25.2% inter: 46.9% 15.3% 2.7%
    x264 [info]: i16 v,h,dc,p: 26% 14% 16% 44%
    x264 [info]: i8 v,h,dc,ddl,ddr,vr,hd,vl,hu:  7%  7%  4% 13% 17% 16% 15% 11% 10%
    x264 [info]: i4 v,h,dc,ddl,ddr,vr,hd,vl,hu: 10%  8%  3% 12% 17% 17% 13% 11%  9%
    x264 [info]: i8c dc,h,v,p: 52% 17% 20% 10%
    x264 [info]: ref P L0: 60.6% 24.7% 14.7%
    x264 [info]: ref B L0: 77.4% 22.6%
    x264 [info]: SSIM Mean Y:0.9480858 (12.847db)
    x264 [info]: PSNR Mean Y:41.010 U:48.122 V:50.041 Avg:42.309 Global:42.032 kb/s:6477.15

    Скриншоты 480p Release

    Скриншоты 720p Release

    Цитата:
    Цитата:

    • Сохранены главы как на Blu-ray;
    • За запись дорожки №2 спасибо серый75;
    • За дорожку №3 спасибо ale_x2008;
    • За дорожку №4 спасибо Krasnovv;
    • За украинскую дорожку спасибо сайту Hurtom.
    -

    Релиз подготовлен для просмотра на Apple TV, iPad, iPhone, iPod Touch.
    Для просмотра данного релиза на компьютере с ОС Windows рекомендуется использовать VLC media player
    Скачать .torrent

    Скачать торрент-файл бесплатно и на максимальной скорости!

    Как скачивать? · Что такое торрент? · Рейтинг и ограничения

    !ВНИМАНИЕ!
    Сайт не распространяет и не хранит электронные версии произведений, а занимается лишь лишь предоставлением доступа к создаваемому пользователями каталогу ссылок на торрент-файлы, которые содержат только списки хеш-сумм, убедительная просьба с жалобами обращаться напрямую к пользователю. Файлы для обмена на трекере предоставлены пользователями сайта, и администрация не несёт ответственности за их содержание. Просьба не заливать файлы, защищенные авторскими правами, а также файлы нелегального содержания!


    _________________
    [Профиль] [ЛС]
    Показать сообщения:    
    Ответить на тему

    Текущее время: Сегодня, в 18:42

    Часовой пояс: GMT + 2



    Вы не можете начинать темы
    Вы не можете отвечать на сообщения
    Вы не можете редактировать свои сообщения
    Вы не можете удалять свои сообщения
    Вы не можете голосовать в опросах
    Вы не можете прикреплять файлы к сообщениям
    Вы не можете скачивать файлы