BitTorrentTracker PerecTracker.org
BitTorrentTracker PerecTracker.org
    
Регистрация  ·  Вход
 
 · 
Забыли пароль?

  • Испытание (Александр Котт) [2014, Россия, драма, WEB-DL HD (720p)] Original

    Ответить на тему
     
    Автор Сообщение

    Flirldrerve

    Создавать темы 27-Окт-2015 05:19

           

    [Цитировать]

    Испытание
    6.934 / 10
    -Год выпуска: 2014
    Страна: Россия
    Жанр: драма
    Продолжительность: 95 мин.
    Перевод: Не требуется
    Оригинальная аудиодорожка: Есть
    Cубтитры: Нет
    Режиссёр: Александр Котт
    Сценарий: Александр Котт
    Продюсер: Игорь Толстунов, Сергей Козлов, Анна Кагарлицкая
    Оператор: Леван Капанадзе
    Композитор: Алексей Айги
    Художник: Эдуард Галкин, Елена Ушакова
    Монтаж: Каролина Мачиевска
    В ролях: Елена Ан, Данила Рассомахин, Карим Пакачаков, Нариман Бекбулатов-Арешев, Эдуард Галкин, Дмитрий Семенов, Юрий Пимкин, Игорь Ливенцов, Мирослав Тузин, Рустем Османов
    Сборы в России: $10 478
    Мировая премьера: 28 октября 2014
    Премьера (РФ): 18 сентября 2014, Наше Кино
    Релиз на DVD: 17 февраля 2015, Lizard Cinema Trade
    Описание: Они живут в степи. Отец и дочь. Ничто не может нарушить вечный порядок. Завтра наступает всегда. И каждое утро отец уезжает работать. И она остается одна. Ждать отца. И чувствовать. Двое любят ее. Она любит каждого. Любовь нельзя поделить. Однажды решение приходит само. Оттуда, где солнце.-Качество исходника: WEB-DL 720p (HDClub)
    Качество: WEB-DL
    Тип: 720p
    Контейнер: m4v
    Видео: 960x548 анаморф 1280x548 at 25.000 fps, MPEG-4 AVC, ~4000 kbps avg
    Аудио#1: Russian: 48 kHz, ААС, 2/0 (L,R), ~160.00 kbps avg
    Аудио#2: Russian: 48 kHz, AC3, 3/2 (L,C,R,l,r) + LFE ch, ~384.00 kbps avg-

    iTunes Meta Tags for country ru

    Name: Испытание
    Artist: Александр Котт
    Genre: Drama
    Release Date: 2014-10-28T08:00:00Z
    Description: Они живут в степи. Отец и дочь. Ничто не может нарушить вечный порядок. Завтра наступает всегда. И каждое утро отец уезжает работать. И она остается одна. Ждать отца. И чувствовать. Двое любят ее. Она любит каждого. Любовь нельзя поделить. Однажды решение приходит само. Оттуда, где солнце.
    Long Description: Они живут в степи. Отец и дочь. Ничто не может нарушить вечный порядок. Завтра наступает всегда. И каждое утро отец уезжает работать. И она остается одна. Ждать отца. И чувствовать. Двое любят ее. Она любит каждого. Любовь нельзя поделить. Однажды решение приходит само. Оттуда, где солнце.
    Rating: 16+
    Studio: Профит, Студия Казахфильм
    Cast: Елена Ан, Данила Рассомахин, Карим Пакачаков, Нариман Бекбулатов-Арешев, Эдуард Галкин, Дмитрий Семенов, Юрий Пимкин, Игорь Ливенцов, Мирослав Тузин, Рустем Османов
    Director: Александр Котт
    Producers: Игорь Толстунов, Сергей Козлов, Анна Кагарлицкая
    Screenwriters: Александр Котт
    Copyright: © 2014 ООО Продюсерская фирма Игоря Толстунова
    contentID: 963512860
    XID: Apple:vendor_id:2014-578904
    Sort Name: Испытание

    MediaInfo 720p Release

    General
    Complete name : Испытание (HD).m4v
    Format : MPEG-4
    Codec ID : M4V
    File size : 2.96 GiB
    Duration : 1h 32mn
    Overall bit rate mode : Variable
    Overall bit rate : 4 603 Kbps
    Movie name : Испытание
    Performer : Александр Котт
    Director : Александр Котт
    Actor : Елена Ан / Данила Рассомахин / Карим Пакачаков / Нариман Бекбулатов-Арешев / Эдуард Галкин / Дмитрий Семенов / Юрий Пимкин / Игорь Ливенцов / Мирослав Тузин / Рустем Османов
    Screenplay by : Александр Котт
    Producer : Игорь Толстунов / Сергей Козлов / Анна Кагарлицкая
    Production studio : Профит, Студия Казахфильм
    Genre : Drama
    ContentType : Short Film
    Description : Они живут в степи. Отец и дочь. Ничто не может нарушить вечный порядок. Завтра наступает всегда. И каждое утро отец уезжает работать. И она остается одна. Ждать отца. И чувствовать. Двое любят ее. Она любит каждого. Любовь нельзя поделить. Однажды решение приходит само. Оттуда, где солнце.
    Recorded date : UTC 2014-10-28 08:00:00
    Encoded date : UTC 2015-08-27 09:55:09
    Tagged date : UTC 2015-08-27 09:59:16
    Copyright : © 2014 ООО Продюсерская фирма Игоря Толстунова
    Cover : Yes
    Rating : None
    Title/Sort : Испытание
    LongDescription : Они живут в степи. Отец и дочь. Ничто не может нарушить вечный порядок. Завтра наступает всегда. И каждое утро отец уезжает работать. И она остается одна. Ждать отца. И чувствовать. Двое любят ее. Она любит каждого. Любовь нельзя поделить. Однажды решение приходит само. Оттуда, где солнце.
    HDVideo : Yes
    AppleStoreCatalogID : 963512860
    Vendor : Apple:vendor_id:2014-578904
    ContentRating : ru-movie|16+|375|
    Video #1
    ID : 1
    Format : AVC
    Format/Info : Advanced Video Codec
    Format profile : Main@L3.1
    Format settings, CABAC : No
    Format settings, ReFrames : 2 frames
    Format settings, GOP : M=2, N=90
    Codec ID : avc1
    Codec ID/Info : Advanced Video Coding
    Duration : 1h 32mn
    Bit rate : 4 048 Kbps
    Width : 960 pixels
    Height : 548 pixels
    Display aspect ratio : 2.35:1
    Frame rate mode : Constant
    Frame rate : 25.000 fps
    Color space : YUV
    Chroma subsampling : 4:2:0
    Bit depth : 8 bits
    Scan type : Progressive
    Bits/(Pixel*Frame) : 0.308
    Stream size : 2.60 GiB (88%)
    Title : Main Program
    Language : Russian
    Encoded date : UTC 2015-08-27 09:55:09
    Tagged date : UTC 2015-08-27 09:57:02
    Color range : Limited
    Color primaries : BT.709
    Transfer characteristics : BT.709
    Matrix coefficients : BT.709
    Video #2
    ID : 5
    Format : JPEG
    Codec ID : jpeg
    Duration : 1h 32mn
    Bit rate mode : Variable
    Bit rate : 1 066 bps
    Width : 640 pixels
    Height : 274 pixels
    Display aspect ratio : 2.35:1
    Frame rate mode : Variable
    Frame rate : 0.003 fps
    Minimum frame rate : 0.002 fps
    Maximum frame rate : 0.004 fps
    Color space : YUV
    Chroma subsampling : 4:2:0
    Bit depth : 8 bits
    Compression mode : Lossy
    Bits/(Pixel*Frame) : 2.026
    Stream size : 738 KiB (0%)
    Title : Chapter Images
    Language : Russian
    Encoded date : UTC 2015-08-27 09:57:05
    Tagged date : UTC 2015-08-27 09:57:05
    Audio #1
    ID : 2
    Format : AAC
    Format/Info : Advanced Audio Codec
    Format profile : LC
    Codec ID : 40
    Duration : 1h 32mn
    Bit rate mode : Variable
    Bit rate : 164 Kbps
    Maximum bit rate : 259 Kbps
    Channel(s) : 2 channels
    Channel positions : Front: L R
    Sampling rate : 48.0 KHz
    Compression mode : Lossy
    Stream size : 108 MiB (4%)
    Title : Russian Stereo
    Language : Russian
    Encoded date : UTC 2015-08-27 09:55:09
    Tagged date : UTC 2015-08-27 09:55:13
    Audio #2
    ID : 3
    Format : AC-3
    Format/Info : Audio Coding 3
    Mode extension : CM (complete main)
    Format settings, Endianness : Big
    Codec ID : ac-3
    Duration : 1h 32mn
    Bit rate mode : Constant
    Bit rate : 384 Kbps
    Channel(s) : 6 channels
    Channel positions : Front: L C R, Side: L R, LFE
    Sampling rate : 48.0 KHz
    Bit depth : 16 bits
    Compression mode : Lossy
    Stream size : 253 MiB (8%)
    Title : Russian DD 5.1
    Language : Russian
    Encoded date : UTC 2015-08-27 09:55:09
    Tagged date : UTC 2015-08-27 09:57:02
    Menu #1
    00:00:00.000 : 1
    00:04:53.000 : 2
    00:10:25.000 : 3
    00:16:10.000 : 4
    00:21:16.000 : 5
    00:26:35.000 : 6
    00:32:35.000 : 7
    00:37:48.000 : 8
    00:43:48.000 : 9
    00:49:01.000 : 10
    00:54:24.000 : 11
    01:01:06.000 : 12
    01:06:22.000 : 13
    01:11:57.000 : 14
    01:17:51.000 : 15
    01:23:29.000 : 16
    01:27:36.000 : 17
    Menu #2
    ID : 4
    Codec ID : text
    Duration : 1h 32mn
    Title : Chapter Titles
    Language : Russian
    Encoded date : UTC 2015-08-27 09:57:02
    Tagged date : UTC 2015-08-27 09:57:02
    00:00:00.000 : 1
    00:04:53.000 : 2
    00:10:25.000 : 3
    00:16:10.000 : 4
    00:21:16.000 : 5
    00:26:35.000 : 6
    00:32:35.000 : 7
    00:37:48.000 : 8
    00:43:48.000 : 9
    00:49:01.000 : 10
    00:54:24.000 : 11
    01:01:06.000 : 12
    01:06:22.000 : 13
    01:11:57.000 : 14
    01:17:51.000 : 15
    01:23:29.000 : 16
    01:27:36.000 : 17
    Bit rate mode : VBR

    Скриншоты 720p Release

    -

    Релиз подготовлен для просмотра на Apple TV, iPad, iPhone, iPod Touch.
    Для просмотра данного релиза на компьютере с ОС Windows рекомендуется использовать VLC media player
    Скачать .torrent

    Скачать торрент-файл бесплатно и на максимальной скорости!

    Как скачивать? · Что такое торрент? · Рейтинг и ограничения

    !ВНИМАНИЕ!
    Сайт не распространяет и не хранит электронные версии произведений, а занимается лишь лишь предоставлением доступа к создаваемому пользователями каталогу ссылок на торрент-файлы, которые содержат только списки хеш-сумм, убедительная просьба с жалобами обращаться напрямую к пользователю. Файлы для обмена на трекере предоставлены пользователями сайта, и администрация не несёт ответственности за их содержание. Просьба не заливать файлы, защищенные авторскими правами, а также файлы нелегального содержания!


    _________________
    [Профиль] [ЛС]
    Показать сообщения:    
    Ответить на тему

    Текущее время: Сегодня, в 20:10

    Часовой пояс: GMT + 2



    Вы не можете начинать темы
    Вы не можете отвечать на сообщения
    Вы не можете редактировать свои сообщения
    Вы не можете удалять свои сообщения
    Вы не можете голосовать в опросах
    Вы не можете прикреплять файлы к сообщениям
    Вы не можете скачивать файлы