BitTorrentTracker PerecTracker.org
BitTorrentTracker PerecTracker.org
    
Регистрация  ·  Вход
 
 · 
Забыли пароль?

  • Мама дарагая! (Ярослав Чеважевский) [2014, Россия, комедия, WEB-DL HD (720p)] Original

    Ответить на тему
     
    Автор Сообщение

    Flirldrerve

    Создавать темы 27-Окт-2015 05:19

           

    [Цитировать]

    Мама дарагая!
    "Чья любовь победит?"
    4.923 / 10
    -Год выпуска: 2014
    Страна: Россия
    Жанр: комедия
    Продолжительность: 90 мин.
    Перевод: Не требуется
    Оригинальная аудиодорожка: Есть
    Cубтитры: Нет
    Режиссёр: Ярослав Чеважевский
    Сценарий: Ярослав Чеважевский
    Продюсер: Екатерина Филиппова, Ярослав Чеважевский, Юрий Колокольников
    Оператор: Леван Капанадзе
    Художник: Мария Осипова, Ирина Милакова, Андрей Магкеев
    Монтаж: Николай Булыгин, Элис Хоффер
    В ролях: Дмитрий Аверин, Нина Лощинина, Ксения Раппопорт, Марина Голуб, Игорь Яцко, Юрий Колокольников, Артур Ваха, Марина Рокина, Альберт Афонин, Юрий Симонов
    Бюджет: $1 100 000
    Сборы в России: $203 759
    Премьера (РФ): 16 апреля 2015, Парадиз
    Описание: Когда тебе двадцать два и ты живешь только по маминым правилам, самое время сказать: "С меня хватит!". Но Славику такое и в голову не придет, пока он не встретит девушку Женю. Теперь ему предстоит решать, чья любовь победит - ведь за попытку сорваться с крючка мама объявит войну.
    Как Славику вырасти и стать, наконец, мужчиной?! Как Жене вытащить парня из-под маминой юбки?! В этом помогут верные и опытные друзья с большим чувством юмора...-Качество исходника: WEB-DL 720p (HDClub)
    Качество: WEB-DL
    Тип: 720p
    Контейнер: m4v
    Видео: 960x720 анаморф 1280x720 at 25.000 fps, MPEG-4 AVC, ~4100 kbps avg
    Аудио#1: Russian: 48 kHz, ААС, 2/0 (L,R), ~160.00 kbps avg
    Аудио#2: Russian: 48 kHz, AC3, 3/2 (L,C,R,l,r) + LFE ch, ~384.00 kbps avg-

    iTunes Meta Tags for country ru

    Name: Мама дарагая!
    Artist: Ярослав Чеважевский
    Genre: Comedy
    Release Date: 2014-01-01T08:00:00Z
    Description: Когда тебе двадцать два и ты живешь только по маминым правилам, самое время сказать: "С меня хватит!". Но Славику такое и в голову не придет, пока он не встретит девушку Женю. Теперь ему предстоит решать, чья любовь победит - ведь за попытку сорваться с крючка мама объявит войну...
    Long Description: Когда тебе двадцать два и ты живешь только по маминым правилам, самое время сказать: "С меня хватит!". Но Славику такое и в голову не придет, пока он не встретит девушку Женю. Теперь ему предстоит решать, чья любовь победит - ведь за попытку сорваться с крючка мама объявит войну.
    Как Славику вырасти и стать, наконец, мужчиной?! Как Жене вытащить парня из-под маминой юбки?! В этом помогут верные и опытные друзья с большим чувством юмора...
    Rating: 12+
    Studio: ООО Кинокомпания Атлантик
    Cast: Дмитрий Аверин, Нина Лощинина, Ксения Раппопорт, Марина Голуб, Игорь Яцко, Юрий Колокольников, Артур Ваха, Марина Рокина, Альберт Афонин, Юрий Симонов
    Director: Ярослав Чеважевский
    Producers: Екатерина Филиппова, Ярослав Чеважевский, Юрий Колокольников
    Screenwriters: Ярослав Чеважевский
    Copyright: © 2014 ООО Кинокомпания Атлантик
    contentID: 985967736
    XID: Apple:vendor_id:2014-565710
    Sort Name: Мама дарагая!

    MediaInfo 720p Release

    General
    Complete name : Мама дарагая! (HD).m4v
    Format : MPEG-4
    Codec ID : M4V
    File size : 2.77 GiB
    Duration : 1h 25mn
    Overall bit rate mode : Variable
    Overall bit rate : 4 623 Kbps
    Movie name : Мама дарагая!
    Performer : Ярослав Чеважевский
    Director : Ярослав Чеважевский
    Actor : Дмитрий Аверин / Нина Лощинина / Ксения Раппопорт / Марина Голуб / Игорь Яцко / Юрий Колокольников / Артур Ваха / Марина Рокина / Альберт Афонин / Юрий Симонов
    Screenplay by : Ярослав Чеважевский
    Producer : Екатерина Филиппова / Ярослав Чеважевский / Юрий Колокольников
    Production studio : ООО Кинокомпания Атлантик
    Genre : Comedy
    ContentType : Short Film
    Description : Когда тебе двадцать два и ты живешь только по маминым правилам, самое время сказать: "С меня хватит!". Но Славику такое и в голову не придет, пока он не встретит девушку Женю. Теперь ему предстоит решать, чья любовь победит - ведь за попытку сорваться с крючка мама объявит войну...
    Recorded date : UTC 2014-01-01 08:00:00
    Encoded date : UTC 2015-08-26 13:44:40
    Tagged date : UTC 2015-08-26 13:49:55
    Copyright : © 2014 ООО Кинокомпания Атлантик
    Cover : Yes
    Rating : None
    Title/Sort : Мама дарагая!
    LongDescription : Когда тебе двадцать два и ты живешь только по маминым правилам, самое время сказать: "С меня хватит!". Но Славику такое и в голову не придет, пока он не встретит девушку Женю. Теперь ему предстоит решать, чья любовь победит - ведь за попытку сорваться с крючка мама объявит войну. / Как Славику вырасти и стать, наконец, мужчиной?! Как Жене вытащить парня из-под маминой юбки?! В этом помогут верные и опытные друзья с большим чувством юмора...
    HDVideo : Yes
    AppleStoreCatalogID : 985967736
    Vendor : Apple:vendor_id:2014-565710
    ContentRating : ru-movie|12+|200|
    Video #1
    ID : 1
    Format : AVC
    Format/Info : Advanced Video Codec
    Format profile : Main@L3.1
    Format settings, CABAC : No
    Format settings, ReFrames : 2 frames
    Format settings, GOP : M=2, N=90
    Codec ID : avc1
    Codec ID/Info : Advanced Video Coding
    Duration : 1h 25mn
    Bit rate : 4 067 Kbps
    Width : 960 pixels
    Height : 720 pixels
    Display aspect ratio : 16:9
    Frame rate mode : Constant
    Frame rate : 25.000 fps
    Color space : YUV
    Chroma subsampling : 4:2:0
    Bit depth : 8 bits
    Scan type : Progressive
    Bits/(Pixel*Frame) : 0.235
    Stream size : 2.44 GiB (88%)
    Title : Main Program
    Language : Russian
    Encoded date : UTC 2015-08-26 13:44:40
    Tagged date : UTC 2015-08-26 13:48:54
    Color range : Limited
    Color primaries : BT.709
    Transfer characteristics : BT.709
    Matrix coefficients : BT.709
    Video #2
    ID : 5
    Format : JPEG
    Codec ID : jpeg
    Duration : 1h 25mn
    Bit rate mode : Variable
    Bit rate : 1 594 bps
    Width : 640 pixels
    Height : 360 pixels
    Display aspect ratio : 16:9
    Frame rate mode : Variable
    Frame rate : 0.004 fps
    Minimum frame rate : 0.002 fps
    Maximum frame rate : 0.007 fps
    Color space : YUV
    Chroma subsampling : 4:2:0
    Bit depth : 8 bits
    Compression mode : Lossy
    Bits/(Pixel*Frame) : 1.730
    Stream size : 924 KiB (0%)
    Title : Chapter Images
    Language : Russian
    Encoded date : UTC 2015-08-26 13:48:58
    Tagged date : UTC 2015-08-26 13:48:59
    Audio #1
    ID : 2
    Format : AAC
    Format/Info : Advanced Audio Codec
    Format profile : LC
    Codec ID : 40
    Duration : 1h 25mn
    Bit rate mode : Variable
    Bit rate : 164 Kbps
    Maximum bit rate : 241 Kbps
    Channel(s) : 2 channels
    Channel positions : Front: L R
    Sampling rate : 48.0 KHz
    Compression mode : Lossy
    Stream size : 101 MiB (4%)
    Title : Russian Stereo
    Language : Russian
    Encoded date : UTC 2015-08-26 13:44:40
    Tagged date : UTC 2015-08-26 13:44:43
    Audio #2
    ID : 3
    Format : AC-3
    Format/Info : Audio Coding 3
    Mode extension : CM (complete main)
    Format settings, Endianness : Big
    Codec ID : ac-3
    Duration : 1h 25mn
    Bit rate mode : Constant
    Bit rate : 384 Kbps
    Channel(s) : 6 channels
    Channel positions : Front: L C R, Side: L R, LFE
    Sampling rate : 48.0 KHz
    Bit depth : 16 bits
    Compression mode : Lossy
    Stream size : 235 MiB (8%)
    Title : Russian DD 5.1
    Language : Russian
    Encoded date : UTC 2015-08-26 13:44:40
    Tagged date : UTC 2015-08-26 13:48:54
    Menu #1
    00:00:00.000 : 1
    00:03:04.000 : 2
    00:07:52.000 : 3
    00:12:24.000 : 4
    00:16:48.000 : 5
    00:22:22.000 : 6
    00:27:19.000 : 7
    00:30:42.000 : 8
    00:35:06.000 : 9
    00:39:59.000 : 10
    00:46:25.000 : 11
    00:50:38.000 : 12
    00:55:42.000 : 13
    00:58:56.000 : 14
    01:03:34.000 : 15
    01:06:53.000 : 16
    01:10:25.000 : 17
    01:12:58.000 : 18
    01:19:56.000 : 19
    Menu #2
    ID : 4
    Codec ID : text
    Duration : 1h 25mn
    Title : Chapter Titles
    Language : Russian
    Encoded date : UTC 2015-08-26 13:48:54
    Tagged date : UTC 2015-08-26 13:48:54
    00:00:00.000 : 1
    00:03:04.000 : 2
    00:07:52.000 : 3
    00:12:24.000 : 4
    00:16:48.000 : 5
    00:22:22.000 : 6
    00:27:19.000 : 7
    00:30:42.000 : 8
    00:35:06.000 : 9
    00:39:59.000 : 10
    00:46:25.000 : 11
    00:50:38.000 : 12
    00:55:42.000 : 13
    00:58:56.000 : 14
    01:03:34.000 : 15
    01:06:53.000 : 16
    01:10:25.000 : 17
    01:12:58.000 : 18
    01:19:56.000 : 19
    Bit rate mode : VBR

    Скриншоты 720p Release

    -

    Релиз подготовлен для просмотра на Apple TV, iPad, iPhone, iPod Touch.
    Для просмотра данного релиза на компьютере с ОС Windows рекомендуется использовать VLC media player
    Скачать .torrent

    Скачать торрент-файл бесплатно и на максимальной скорости!

    Как скачивать? · Что такое торрент? · Рейтинг и ограничения

    !ВНИМАНИЕ!
    Сайт не распространяет и не хранит электронные версии произведений, а занимается лишь лишь предоставлением доступа к создаваемому пользователями каталогу ссылок на торрент-файлы, которые содержат только списки хеш-сумм, убедительная просьба с жалобами обращаться напрямую к пользователю. Файлы для обмена на трекере предоставлены пользователями сайта, и администрация не несёт ответственности за их содержание. Просьба не заливать файлы, защищенные авторскими правами, а также файлы нелегального содержания!


    _________________
    [Профиль] [ЛС]
    Показать сообщения:    
    Ответить на тему

    Текущее время: Сегодня, в 14:00

    Часовой пояс: GMT + 2



    Вы не можете начинать темы
    Вы не можете отвечать на сообщения
    Вы не можете редактировать свои сообщения
    Вы не можете удалять свои сообщения
    Вы не можете голосовать в опросах
    Вы не можете прикреплять файлы к сообщениям
    Вы не можете скачивать файлы