BitTorrentTracker PerecTracker.org
BitTorrentTracker PerecTracker.org
    
Регистрация  ·  Вход
 
 · 
Забыли пароль?

  • 12 месяцев. Новая сказка (Денис Елеонский) [2015, Россия, фэнтези, WEB-DL HD (720p)] Original

    Ответить на тему
     
    Автор Сообщение

    Flirldrerve

    Создавать темы 27-Окт-2015 05:19

           

    [Цитировать]

    12 месяцев. Новая сказка
    3.613 / 10
    -Год выпуска: 2015
    Страна: Россия
    Жанр: фэнтези
    Продолжительность: 84 мин.
    Перевод: Не требуется
    Оригинальная аудиодорожка: Есть
    Cубтитры: Нет
    Режиссёр: Денис Елеонский
    Сценарий: Денис Елеонский
    Продюсер: Игорь Каленов, Андрей Сигле
    Оператор: Багир Рафиев
    Композитор: Андрей Сигле
    Художник: Ольга Вуеретельник
    Монтаж: Мария Маненкова, Александр Головко, Ксения Эбервейн
    В ролях: Ольга Налётова, Илья Бутковский, Евгений Воскресенский, Юлия Такшина, Марина Иванова, Денис Ясик, Антон Юрьев, Анастасия Мельникова, Дмитрий Гогу, Богдан Ступка
    Бюджет: $4 000 000
    Сборы в России: $489 356
    Мировая премьера: 19 февраля 2015
    Премьера (РФ): 19 февраля 2015, Люксор
    Описание: Девочка из нашего времени попадает в сказочный мир. Среди зимы она должна принести из леса букет подснежников, чтобы наступил Новый Год, который решил отменить злой королевский советник. И только тогда она вернется к родителям.-Качество исходника: WEB-DL 720p (HDClub)
    Качество: WEB-DL
    Тип: 720p
    Контейнер: m4v
    Видео: 960x570 анаморф 1280x570 at 25.000 fps, MPEG-4 AVC, ~3900 kbps avg
    Аудио#1: Russian: 48 kHz, ААС, 2/0 (L,R), ~160.00 kbps avg
    Аудио#2: Russian: 48 kHz, AC3, 3/2 (L,C,R,l,r) + LFE ch, ~384.00 kbps avg-

    iTunes Meta Tags for country ru

    Name: 12 месяцев. Новая сказка
    Artist: Денис Елеонский
    Genre: Kids & Family
    Release Date: 2015-02-19T08:00:00Z
    Description: Девочка из нашего времени попадает в сказочный мир. Среди зимы она должна принести из леса букет подснежников, чтобы наступил Новый Год, который решил отменить злой королевский советник. И только тогда она вернется к родителям.
    Long Description: Девочка из нашего времени попадает в сказочный мир. Среди зимы она должна принести из леса букет подснежников, чтобы наступил Новый Год, который решил отменить злой королевский советник. И только тогда она вернется к родителям.
    Rating: 0+
    Studio: Никола-Фильм, Пролайн-Медиа
    Cast: Ольга Налётова, Илья Бутковский, Евгений Воскресенский, Юлия Такшина, Марина Иванова, Денис Ясик, Антон Юрьев, Анастасия Мельникова, Дмитрий Гогу, Богдан Ступка
    Director: Денис Елеонский
    Producers: Игорь Каленов, Андрей Сигле
    Screenwriters: Денис Елеонский
    Copyright: © 2015 Киностудия Никола-Фильм
    contentID: 974995751
    XID: Apple:vendor_id:2015-705672
    Sort Name: 12 месяцев. Новая сказка

    MediaInfo 720p Release

    General
    Complete name : 12 месяцев. Новая сказка (HD).m4v
    Format : MPEG-4
    Codec ID : M4V
    File size : 2.62 GiB
    Duration : 1h 24mn
    Overall bit rate mode : Variable
    Overall bit rate : 4 466 Kbps
    Movie name : 12 месяцев. Новая сказка
    Performer : Денис Елеонский
    Director : Денис Елеонский
    Actor : Ольга Налётова / Илья Бутковский / Евгений Воскресенский / Юлия Такшина / Марина Иванова / Денис Ясик / Антон Юрьев / Анастасия Мельникова / Дмитрий Гогу / Богдан Ступка
    Screenplay by : Денис Елеонский
    Producer : Игорь Каленов / Андрей Сигле
    Production studio : Никола-Фильм, Пролайн-Медиа
    Genre : Российское кино
    ContentType : Short Film
    Description : Девочка из нашего времени попадает в сказочный мир. Среди зимы она должна принести из леса букет подснежников, чтобы наступил Новый Год, который решил отменить злой королевский советник. И только тогда она вернется к родителям.
    Recorded date : UTC 2015-02-19 08:00:00
    Encoded date : UTC 2015-04-20 13:06:47
    Tagged date : UTC 2015-04-20 13:09:00
    Copyright : © 2015 Киностудия Никола-Фильм
    Cover : Yes
    Rating : None
    Title/Sort : 12 месяцев. Новая сказка
    LongDescription : Девочка из нашего времени попадает в сказочный мир. Среди зимы она должна принести из леса букет подснежников, чтобы наступил Новый Год, который решил отменить злой королевский советник. И только тогда она вернется к родителям.
    HDVideo : Yes
    AppleStoreCatalogID : 974995751
    Vendor : Apple:vendor_id:2015-705672
    ContentRating : ru-movie|0+|000|
    Video #1
    ID : 1
    Format : AVC
    Format/Info : Advanced Video Codec
    Format profile : Main@L3.1
    Format settings, CABAC : No
    Format settings, ReFrames : 2 frames
    Format settings, GOP : M=2, N=90
    Codec ID : avc1
    Codec ID/Info : Advanced Video Coding
    Duration : 1h 24mn
    Bit rate : 3 910 Kbps
    Width : 960 pixels
    Height : 570 pixels
    Display aspect ratio : 2.25:1
    Frame rate mode : Constant
    Frame rate : 25.000 fps
    Color space : YUV
    Chroma subsampling : 4:2:0
    Bit depth : 8 bits
    Scan type : Progressive
    Bits/(Pixel*Frame) : 0.286
    Stream size : 2.29 GiB (88%)
    Title : Main Program
    Language : Russian
    Encoded date : UTC 2015-04-20 13:06:47
    Tagged date : UTC 2015-04-20 13:08:19
    Color range : Limited
    Color primaries : BT.709
    Transfer characteristics : BT.709
    Matrix coefficients : BT.709
    Video #2
    ID : 5
    Format : JPEG
    Codec ID : jpeg
    Duration : 1h 24mn
    Bit rate mode : Variable
    Bit rate : 1 060 bps
    Width : 640 pixels
    Height : 285 pixels
    Display aspect ratio : 2.25:1
    Frame rate mode : Variable
    Frame rate : 0.003 fps
    Minimum frame rate : 0.003 fps
    Maximum frame rate : 0.004 fps
    Color space : YUV
    Chroma subsampling : 4:2:0
    Bit depth : 8 bits
    Compression mode : Lossy
    Bits/(Pixel*Frame) : 1.937
    Stream size : 690 KiB (0%)
    Title : Chapter Images
    Language : Russian
    Encoded date : UTC 2015-04-20 13:08:22
    Tagged date : UTC 2015-04-20 13:08:22
    Audio #1
    ID : 2
    Format : AAC
    Format/Info : Advanced Audio Codec
    Format profile : LC
    Codec ID : 40
    Duration : 1h 24mn
    Bit rate mode : Variable
    Bit rate : 165 Kbps
    Maximum bit rate : 242 Kbps
    Channel(s) : 2 channels
    Channel positions : Front: L R
    Sampling rate : 48.0 KHz
    Compression mode : Lossy
    Stream size : 98.9 MiB (4%)
    Title : Russian Stereo
    Language : Russian
    Encoded date : UTC 2015-04-20 13:06:47
    Tagged date : UTC 2015-04-20 13:06:58
    Audio #2
    ID : 3
    Format : AC-3
    Format/Info : Audio Coding 3
    Mode extension : CM (complete main)
    Format settings, Endianness : Big
    Codec ID : ac-3
    Duration : 1h 24mn
    Bit rate mode : Constant
    Bit rate : 384 Kbps
    Channel(s) : 6 channels
    Channel positions : Front: L C R, Side: L R, LFE
    Sampling rate : 48.0 KHz
    Bit depth : 16 bits
    Compression mode : Lossy
    Stream size : 231 MiB (9%)
    Title : Russian DD 5.1
    Language : Russian
    Encoded date : UTC 2015-04-20 13:06:47
    Tagged date : UTC 2015-04-20 13:08:19
    Menu #1
    00:00:00.000 : 1
    00:05:25.000 : 2
    00:10:09.000 : 3
    00:16:15.000 : 4
    00:22:40.000 : 5
    00:27:49.000 : 6
    00:33:15.000 : 7
    00:38:57.000 : 8
    00:44:23.000 : 9
    00:49:47.000 : 10
    00:55:37.000 : 11
    01:01:01.000 : 12
    01:05:23.000 : 13
    01:09:59.000 : 14
    01:15:07.000 : 15
    01:19:07.000 : 16
    Menu #2
    ID : 4
    Codec ID : text
    Duration : 1h 24mn
    Title : Chapter Titles
    Language : Russian
    Encoded date : UTC 2015-04-20 13:08:19
    Tagged date : UTC 2015-04-20 13:08:19
    00:00:00.000 : 1
    00:05:25.000 : 2
    00:10:09.000 : 3
    00:16:15.000 : 4
    00:22:40.000 : 5
    00:27:49.000 : 6
    00:33:15.000 : 7
    00:38:57.000 : 8
    00:44:23.000 : 9
    00:49:47.000 : 10
    00:55:37.000 : 11
    01:01:01.000 : 12
    01:05:23.000 : 13
    01:09:59.000 : 14
    01:15:07.000 : 15
    01:19:07.000 : 16
    Bit rate mode : VBR

    Скриншоты 720p Release

    -

    Релиз подготовлен для просмотра на Apple TV, iPad, iPhone, iPod Touch.
    Для просмотра данного релиза на компьютере с ОС Windows рекомендуется использовать VLC media player
    Скачать .torrent

    Скачать торрент-файл бесплатно и на максимальной скорости!

    Как скачивать? · Что такое торрент? · Рейтинг и ограничения

    !ВНИМАНИЕ!
    Сайт не распространяет и не хранит электронные версии произведений, а занимается лишь лишь предоставлением доступа к создаваемому пользователями каталогу ссылок на торрент-файлы, которые содержат только списки хеш-сумм, убедительная просьба с жалобами обращаться напрямую к пользователю. Файлы для обмена на трекере предоставлены пользователями сайта, и администрация не несёт ответственности за их содержание. Просьба не заливать файлы, защищенные авторскими правами, а также файлы нелегального содержания!


    _________________
    [Профиль] [ЛС]
    Показать сообщения:    
    Ответить на тему

    Текущее время: Сегодня, в 22:35

    Часовой пояс: GMT + 2



    Вы не можете начинать темы
    Вы не можете отвечать на сообщения
    Вы не можете редактировать свои сообщения
    Вы не можете удалять свои сообщения
    Вы не можете голосовать в опросах
    Вы не можете прикреплять файлы к сообщениям
    Вы не можете скачивать файлы