BitTorrentTracker PerecTracker.org
BitTorrentTracker PerecTracker.org
    
Регистрация  ·  Вход
 
 · 
Забыли пароль?

  • Дикая орхидея / Wild Orchid (Залман Кинг) [1989, США, драма, мелодрама, BDRip HD (720p), SD (480p)] DUB, MVO, AVO, Original + SUB (rus)

    Ответить на тему
     
    Автор Сообщение

    Flirldrerve

    Создавать темы 27-Окт-2015 05:19

           

    [Цитировать]

    Дикая орхидея / Wild Orchid
    6.419 / 10
    -Год выпуска: 1989
    Страна: США
    Жанр: драма, мелодрама
    Продолжительность: 111 мин.
    Перевод: Профессиональный дублированный перевод, многоголосый закадровый перевод и одноголосый закадровый авторский перевод
    Оригинальная аудиодорожка: Есть
    Cубтитры: Русские полные
    Режиссёр: Залман Кинг
    Сценарий: Патришия Луизианна Ноп, Залман Кинг
    Продюсер: Тони Энтони, Лестер Берман, Марк Дэймон
    Оператор: Гейл Тэттерсолл
    Композитор: Саймон Голденберг, Джофф МакКормэк
    Художник: Карлос Конти, Йеда Левинзон, Александр А. Майер
    Монтаж: Марк Гроссман, Гленн Морган
    В ролях: Микки Рурк, Жаклин Биссет, Карре Отис, Ассумпта Серна, Брюс Гринвуд, Олег Видов, Милтон Гонсалвис, Дженс Питер, Антониу Мариу Силва да Силва, Пол Лэнд
    Роли дублировали: Владислав Пупков, Валентина Гришокина, Людмила Логийко
    Сборы в США: $11 060 485
    Мировая премьера: 22 декабря 1989
    Релиз на DVD: 24 сентября 2009, Двадцатый Век Фокс СНГ
    Описание: Поступив на работу в юридическую фирму, Эмилия отправляется в Бразилию помочь завершить крупную сделку с недвижимостью. В Рио-де-Жанейро она встречается с Виллером - загадочным и очень сексуальным миллионером, который, используя свое колдовское очарование, пытается соблазнить невинную красотку.
    Под сумасшедшие ритмы и краски карнавала, он распаляет в девушке вулкан неведомых ей ранее чувств и эротических фантазий, так и не решаясь на активные действия. Для него это привычная игра в любовь, но Эмилия не хочет и не может играть, она искренна, и это заставляет Виллера открыть ей свое сердце...-Качество исходника: BD-Remux 1080p (HDClub)
    Качество: BDRip
    Тип: 480p 720p
    Контейнер: m4v
    Видео: 640x462 анаморф 852x462 at 23.976 fps, MPEG-4 AVC, ~1800 kbps avg
    Видео: 1280x694 at 23.976 fps, MPEG-4 AVC, ~7000 kbps avg
    Аудио#1: Russian: 48 kHz, ААС, 2/0 (L,R), ~128.00 / 192.00 kbps avg |Дубляж, USSR|
    Аудио#2: Russian: 48 kHz, ААС, 2/0 (L,R), ~128.00 / 192.00 kbps avg |Многоголосый закадровый, Екатеринбург-Арт|
    Аудио#3: Russian: 48 kHz, ААС, 2/0 (L,R), ~128.00 / 192.00 kbps avg |Многоголосый закадровый|
    Аудио#4: Russian: 48 kHz, ААС, 2/0 (L,R), ~128.00 / 192.00 kbps avg |Многоголосый закадровый, Ren-TV|
    Аудио#5: Russian: 48 kHz, ААС, 2/0 (L,R), ~128.00 / 192.00 kbps avg |Одноголосый закадровый, А. Гаврилов|
    Аудио#6: Russian: 48 kHz, ААС, 2/0 (L,R), ~128.00 / 192.00 kbps avg |Одноголосый закадровый, В. Горчаков|
    Аудио#7: Russian: 48 kHz, ААС, 2/0 (L,R), ~128.00 / 192.00 kbps avg |Одноголосый закадровый, М. Иванов|
    Аудио#8: Ukrainian: 48 kHz, ААС, 2/0 (L,R), ~128.00 / 192.00 kbps avg |Многоголосый закадровый, ICTV|
    Аудио#9: Ukrainian: 48 kHz, ААС, 2/0 (L,R), ~128.00 / 192.00 kbps avg |Многоголосый закадровый, Inter|
    Аудио#10: English: 48 kHz, ААС, 2/0 (L,R), ~128.00 / 192.00 kbps avg
    Субтитры №1: Russian: |Полные|-

    Знаете ли Вы, что...
  • После съемок фильма Микки Рурк и Карре Отис поженились.

    из книги «3500 кинорецензий»


    Эротическая мелодрама (Сергей Кудрявцев 6/10)
    Вдобавок к прекрасным видам пляжей Рио-де-Жанейро, под звуки зажигательной самбы — сильные страсти, будоражащие эротические чувства зрителей… Даже если бы в этой ленте вновь не снялся Микки Рурк, её режиссёром не был бы сценарист популярной у нас (но не в Америке) картины «Девять с половиной недель», чей продюсер Марк Дэмон также поддержал и «Дикую орхидею», то всё равно сходство и родство двух фильмов напрашивалось бы само собой. Однако консервативные (более, чем мы думаем) американцы в очередной раз выразили своё неудовольствие, придравшись к слишком откровенным, по их мнению, интимным сценам. А авторы, как могли, защищались в печати, убеждая в красоте и романтичности эротических эпизодов.
    Корни неприятия, видимо, скрыты глубже — нелегко принять и одобрить историю разочарованного, презрительно относящегося к женщинам, уставшего от игр и ритуалов миллионера Джеймса Уилера, который одновременно хочет и не хочет, чтобы юная и неопытная Эмили оказалась такой же склонной к соблазну и разврату, как и все остальные. Но спровоцировав девушку на сексуальную связь с другими мужчинами, а сам выступая в качестве вуайериста, наблюдателя за чужими эротическими сценами, Джеймс с удивлением обнаруживает, что всё-таки по-настоящему влюбился в Эмили. Роль соблазнителя, игрока в сексуальное партнёрство, искателя острых и прихотливых ощущений, знакомая ещё по ленте «Девять с половиной недель», с одной стороны, становится более инфернальной, дьявольской, смущающей ум и сердца женщин-жертв, а с другой — приобретает действительно романтические черты. Одинокий «беспечный ездок» находит умиротворение в пламенной страсти к «дикой орхидее».
    Конечно, можно понять, в общем-то, закономерный успех этой картины у наших зрителей, алчущих сексуального самообразования и красивой, хоть и странной любви в далёком Рио-де-Жанейро, а ещё — в миг реализованной мечты, как бы в пику Остапу Бендеру! Привлекательна и эротична дебютировавшая в кино фотомодель, знойная брюнетка Карре Отис, которая потом стала женой Микки Рурка (между прочим, оба оказались номинантами «позорной» премии «Золотая малина», пусть и не получили её). Сам же актёр, к сожалению, не почувствовал, что его образ «бунтаря на мотоцикле» имеет здесь уже спекулятивно-кичевый характер, а из-за этого опошлены неизбежные культурные отсылки (ведь в начале своей кинобиографии Рурк сопоставлялся с Джеймсом Дином!). Судя по титрам, его дублёром в эпизодах проездов на мотоцикле был сводный брат Джои Рурк. Знаменательный факт! Джеймс Уилер из фильма «Дикая орхидея» — лишь и. о. героя, слабое отражение прежнего мифа об отщепенце 80-х годов.
    1990

    -

    iTunes Meta Tags for country us

    Sort Name: Wild Orchid
    XID: Apple:vendor_id:1989-20992
    contentID: 20992
    Screenwriters: Патришия Луизианна Ноп, Залман Кинг
    Producers: Тони Энтони, Лестер Берман, Марк Дэймон
    Director: Залман Кинг
    Cast: Микки Рурк, Жаклин Биссет, Карре Отис, Ассумпта Серна, Брюс Гринвуд, Олег Видов, Милтон Гонсалвис, Дженс Питер, Антониу Мариу Силва да Силва, Пол Лэнд
    Rating: R
    Long Description: Поступив на работу в юридическую фирму, Эмилия отправляется в Бразилию помочь завершить крупную сделку с недвижимостью. В Рио-де-Жанейро она встречается с Виллером - загадочным и очень сексуальным миллионером, который, используя свое колдовское очарование, пытается соблазнить невинную красотку.
    Под сумасшедшие ритмы и краски карнавала, он распаляет в девушке вулкан неведомых ей ранее чувств и эротических фантазий, так и не решаясь на активные действия. Для него это привычная игра в любовь, но Эмилия не хочет и не может играть, она искренна, и это заставляет Виллера открыть ей свое сердце...
    Description: Поступив на работу в юридическую фирму, Эмилия отправляется в Бразилию помочь завершить крупную сделку с недвижимостью. В Рио-де-Жанейро она встречается с Виллером - загадочным и очень сексуальным миллионером, который, используя свое колдовское очарование, пытается соблазнить невинную красотку...
    Release Date: 1989-12-22T08:00:00Z
    Genre: Drama
    Artist: Zalman King
    Name: Wild Orchid

    MediaInfo 480p Release

    General
    Complete name : Wild Orchid.m4v
    Format : MPEG-4
    Codec ID : M4V
    File size : 2.20 GiB
    Duration : 1h 45mn
    Overall bit rate mode : Variable
    Overall bit rate : 2 989 Kbps
    Movie name : Wild Orchid
    Performer : Zalman King
    Director : Залман Кинг
    Actor : Микки Рурк / Жаклин Биссет / Карре Отис / Ассумпта Серна / Брюс Гринвуд / Олег Видов / Милтон Гонсалвис / Дженс Питер / Антониу Мариу Силва да Силва / Пол Лэнд
    Screenplay by : Патришия Луизианна Ноп / Залман Кинг
    Producer : Тони Энтони / Лестер Берман / Марк Дэймон
    Genre : Drama
    ContentType : Short Film
    Description : Поступив на работу в юридическую фирму, Эмилия отправляется в Бразилию помочь завершить крупную сделку с недвижимостью. В Рио-де-Жанейро она встречается с Виллером - загадочным и очень сексуальным миллионером, который, используя свое колдовское очарование, пытается соблазнить невинную красотку...
    Recorded date : UTC 1989-12-22 08:00:00
    Encoded date : UTC 2015-09-13 18:18:12
    Tagged date : UTC 2015-09-13 18:19:16
    Cover : Yes
    Rating : None
    Title/Sort : Wild Orchid
    LongDescription : Поступив на работу в юридическую фирму, Эмилия отправляется в Бразилию помочь завершить крупную сделку с недвижимостью. В Рио-де-Жанейро она встречается с Виллером - загадочным и очень сексуальным миллионером, который, используя свое колдовское очарование, пытается соблазнить невинную красотку. / Под сумасшедшие ритмы и краски карнавала, он распаляет в девушке вулкан неведомых ей ранее чувств и эротических фантазий, так и не решаясь на активные действия. Для него это привычная игра в любовь, но Эмилия не хочет и не может играть, она искренна, и это заставляет Виллера открыть ей свое сердце...
    AppleStoreCatalogID : 20992
    Vendor : Apple:vendor_id:1989-20992
    ContentRating : mpaa|R|400|
    Video #1
    ID : 1
    Format : AVC
    Format/Info : Advanced Video Codec
    Format profile : Baseline@L3
    Format settings, CABAC : No
    Format settings, ReFrames : 2 frames
    Codec ID : avc1
    Codec ID/Info : Advanced Video Coding
    Duration : 1h 45mn
    Bit rate : 1 800 Kbps
    Width : 640 pixels
    Height : 462 pixels
    Display aspect ratio : 1.85:1
    Frame rate mode : Variable
    Frame rate : 23.976 fps
    Minimum frame rate : 23.974 fps
    Maximum frame rate : 23.981 fps
    Color space : YUV
    Chroma subsampling : 4:2:0
    Bit depth : 8 bits
    Scan type : Progressive
    Bits/(Pixel*Frame) : 0.254
    Stream size : 1.32 GiB (60%)
    Title : Main Program
    Writing library : x264 core 130 r2273 b3065e6
    Encoding settings : cabac=0 / ref=2 / deblock=1:0:0 / analyse=0x1:0x111 / me=umh / subme=6 / psy=1 / psy_rd=1.00:0.00 / mixed_ref=1 / me_range=16 / chroma_me=1 / trellis=0 / 8x8dct=0 / cqm=0 / deadzone=21,11 / fast_pskip=1 / chroma_qp_offset=-2 / threads=18 / lookahead_threads=3 / sliced_threads=0 / nr=0 / decimate=1 / interlaced=0 / bluray_compat=0 / constrained_intra=0 / bframes=0 / weightp=0 / keyint=240 / keyint_min=24 / scenecut=40 / intra_refresh=0 / rc_lookahead=40 / rc=2pass / mbtree=1 / bitrate=1800 / ratetol=1.0 / qcomp=0.60 / qpmin=0 / qpmax=69 / qpstep=4 / cplxblur=20.0 / qblur=0.5 / vbv_maxrate=5000 / vbv_bufsize=5000 / nal_hrd=none / ip_ratio=1.40 / aq=1:1.00
    Language : English
    Encoded date : UTC 2015-09-13 18:18:12
    Tagged date : UTC 2015-09-13 18:18:19
    Color range : Limited
    Color primaries : BT.709
    Transfer characteristics : BT.709
    Matrix coefficients : BT.709
    Video #2
    ID : 14
    Format : JPEG
    Codec ID : jpeg
    Duration : 1h 45mn
    Bit rate mode : Variable
    Bit rate : 320 bps
    Width : 640 pixels
    Height : 347 pixels
    Display aspect ratio : 1.85:1
    Frame rate mode : Constant
    Frame rate : 0.001 fps
    Color space : YUV
    Chroma subsampling : 4:2:0
    Bit depth : 8 bits
    Compression mode : Lossy
    Bits/(Pixel*Frame) : 1.441
    Stream size : 313 KiB (0%)
    Title : Chapter Images
    Language : English
    Encoded date : UTC 2015-09-13 18:18:27
    Tagged date : UTC 2015-09-13 18:18:28
    Audio #1
    ID : 2
    Format : AAC
    Format/Info : Advanced Audio Codec
    Format profile : LC
    Codec ID : 40
    Duration : 1h 45mn
    Bit rate mode : Variable
    Bit rate : 114 Kbps
    Maximum bit rate : 193 Kbps
    Channel(s) : 2 channels
    Channel positions : Front: L R
    Sampling rate : 48.0 KHz
    Compression mode : Lossy
    Stream size : 85.4 MiB (4%)
    Title : Russian DUB USSR Stereo
    Language : Russian
    Encoded date : UTC 2015-09-13 18:18:12
    Tagged date : UTC 2015-09-13 18:18:25
    Audio #2
    ID : 3
    Format : AAC
    Format/Info : Advanced Audio Codec
    Format profile : LC
    Codec ID : 40
    Duration : 1h 45mn
    Bit rate mode : Variable
    Bit rate : 132 Kbps
    Maximum bit rate : 199 Kbps
    Channel(s) : 2 channels
    Channel positions : Front: L R
    Sampling rate : 48.0 KHz
    Compression mode : Lossy
    Stream size : 98.4 MiB (4%)
    Title : Russian MVO Ekaterinburg-Art Stereo
    Language : Russian
    Encoded date : UTC 2015-09-13 18:18:12
    Tagged date : UTC 2015-09-13 18:18:25
    Audio #3
    ID : 4
    Format : AAC
    Format/Info : Advanced Audio Codec
    Format profile : LC
    Codec ID : 40
    Duration : 1h 45mn
    Bit rate mode : Variable
    Bit rate : 132 Kbps
    Maximum bit rate : 193 Kbps
    Channel(s) : 2 channels
    Channel positions : Front: L R
    Sampling rate : 48.0 KHz
    Compression mode : Lossy
    Stream size : 99.1 MiB (4%)
    Title : Russian MVO Stereo
    Language : Russian
    Encoded date : UTC 2015-09-13 18:18:13
    Tagged date : UTC 2015-09-13 18:18:25
    Audio #4
    ID : 5
    Format : AAC
    Format/Info : Advanced Audio Codec
    Format profile : LC
    Codec ID : 40
    Duration : 1h 45mn
    Bit rate mode : Variable
    Bit rate : 121 Kbps
    Maximum bit rate : 183 Kbps
    Channel(s) : 2 channels
    Channel positions : Front: L R
    Sampling rate : 48.0 KHz
    Compression mode : Lossy
    Stream size : 90.7 MiB (4%)
    Title : Russian MVO RENTV Stereo
    Language : Russian
    Encoded date : UTC 2015-09-13 18:18:13
    Tagged date : UTC 2015-09-13 18:18:25
    Audio #5
    ID : 6
    Format : AAC
    Format/Info : Advanced Audio Codec
    Format profile : LC
    Codec ID : 40
    Duration : 1h 45mn
    Bit rate mode : Variable
    Bit rate : 105 Kbps
    Maximum bit rate : 115 Kbps
    Channel(s) : 2 channels
    Channel positions : Front: L R
    Sampling rate : 48.0 KHz
    Compression mode : Lossy
    Stream size : 79.3 MiB (4%)
    Title : Russian AVO A.Gavrilov Stereo
    Language : Russian
    Encoded date : UTC 2015-09-13 18:18:13
    Tagged date : UTC 2015-09-13 18:18:25
    Audio #6
    ID : 7
    Format : AAC
    Format/Info : Advanced Audio Codec
    Format profile : LC
    Codec ID : 40
    Duration : 1h 45mn
    Bit rate mode : Variable
    Bit rate : 128 Kbps
    Maximum bit rate : 201 Kbps
    Channel(s) : 2 channels
    Channel positions : Front: L R
    Sampling rate : 48.0 KHz
    Compression mode : Lossy
    Stream size : 96.3 MiB (4%)
    Title : Russian AVO V.Gorchakov Stereo
    Language : Russian
    Encoded date : UTC 2015-09-13 18:18:13
    Tagged date : UTC 2015-09-13 18:18:25
    Audio #7
    ID : 8
    Format : AAC
    Format/Info : Advanced Audio Codec
    Format profile : LC
    Codec ID : 40
    Duration : 1h 45mn
    Bit rate mode : Variable
    Bit rate : 132 Kbps
    Maximum bit rate : 197 Kbps
    Channel(s) : 2 channels
    Channel positions : Front: L R
    Sampling rate : 48.0 KHz
    Compression mode : Lossy
    Stream size : 99.8 MiB (4%)
    Title : Russian AVO M.Ivanov Stereo
    Language : Russian
    Encoded date : UTC 2015-09-13 18:18:13
    Tagged date : UTC 2015-09-13 18:18:25
    Audio #8
    ID : 9
    Format : AAC
    Format/Info : Advanced Audio Codec
    Format profile : LC
    Codec ID : 40
    Duration : 1h 45mn
    Bit rate mode : Variable
    Bit rate : 103 Kbps
    Maximum bit rate : 115 Kbps
    Channel(s) : 2 channels
    Channel positions : Front: L R
    Sampling rate : 48.0 KHz
    Compression mode : Lossy
    Stream size : 77.4 MiB (3%)
    Title : Ukrainian MVO ICTV Stereo
    Language : Ukrainian
    Encoded date : UTC 2015-09-13 18:18:13
    Tagged date : UTC 2015-09-13 18:18:25
    Audio #9
    ID : 10
    Format : AAC
    Format/Info : Advanced Audio Codec
    Format profile : LC
    Codec ID : 40
    Duration : 1h 45mn
    Bit rate mode : Variable
    Bit rate : 103 Kbps
    Maximum bit rate : 193 Kbps
    Channel(s) : 2 channels
    Channel positions : Front: L R
    Sampling rate : 48.0 KHz
    Compression mode : Lossy
    Stream size : 77.3 MiB (3%)
    Title : Ukrainian MVO Inter Stereo
    Language : Ukrainian
    Encoded date : UTC 2015-09-13 18:18:13
    Tagged date : UTC 2015-09-13 18:18:25
    Audio #10
    ID : 11
    Format : AAC
    Format/Info : Advanced Audio Codec
    Format profile : LC
    Codec ID : 40
    Duration : 1h 45mn
    Bit rate mode : Variable
    Bit rate : 105 Kbps
    Maximum bit rate : 113 Kbps
    Channel(s) : 2 channels
    Channel positions : Front: L R
    Sampling rate : 48.0 KHz
    Compression mode : Lossy
    Stream size : 79.1 MiB (4%)
    Title : English Stereo
    Language : English
    Encoded date : UTC 2015-09-13 18:18:13
    Tagged date : UTC 2015-09-13 18:18:25
    Text
    ID : 12
    Format : Timed Text
    Muxing mode : sbtl
    Codec ID : tx3g
    Duration : 1h 37mn
    Bit rate mode : Variable
    Bit rate : 55 bps
    Stream size : 39.2 KiB (0%)
    Title : Russian Subtitle
    Language : Russian
    Encoded date : UTC 2015-09-13 18:18:13
    Tagged date : UTC 2015-09-13 18:18:13
    Menu #1
    00:00:00.000 : 1
    00:14:58.590 : 2
    00:28:47.600 : 3
    00:41:55.950 : 4
    00:59:03.215 : 5
    01:09:50.263 : 6
    01:19:37.001 : 7
    01:31:53.709 : 8
    Menu #2
    ID : 13
    Codec ID : text
    Duration : 1h 45mn
    Title : Chapter Titles
    Language : English
    Encoded date : UTC 2015-09-13 18:18:25
    Tagged date : UTC 2015-09-13 18:18:25
    Bit rate mode : CBR
    00:00:00.000 : 1
    00:14:58.590 : 2
    00:28:47.600 : 3
    00:41:55.950 : 4
    00:59:03.215 : 5
    01:09:50.263 : 6
    01:19:37.001 : 7
    01:31:53.709 : 8

    MediaInfo 720p Release

    General
    Complete name : Wild Orchid (HD).m4v
    Format : MPEG-4
    Codec ID : M4V
    File size : 6.42 GiB
    Duration : 1h 45mn
    Overall bit rate mode : Variable
    Overall bit rate : 8 726 Kbps
    Movie name : Wild Orchid
    Performer : Zalman King
    Director : Залман Кинг
    Actor : Микки Рурк / Жаклин Биссет / Карре Отис / Ассумпта Серна / Брюс Гринвуд / Олег Видов / Милтон Гонсалвис / Дженс Питер / Антониу Мариу Силва да Силва / Пол Лэнд
    Screenplay by : Патришия Луизианна Ноп / Залман Кинг
    Producer : Тони Энтони / Лестер Берман / Марк Дэймон
    Genre : Drama
    ContentType : Short Film
    Description : Поступив на работу в юридическую фирму, Эмилия отправляется в Бразилию помочь завершить крупную сделку с недвижимостью. В Рио-де-Жанейро она встречается с Виллером - загадочным и очень сексуальным миллионером, который, используя свое колдовское очарование, пытается соблазнить невинную красотку...
    Recorded date : UTC 1989-12-22 08:00:00
    Encoded date : UTC 2015-09-13 18:14:01
    Tagged date : UTC 2015-09-13 18:15:04
    Cover : Yes
    Rating : None
    Title/Sort : Wild Orchid
    LongDescription : Поступив на работу в юридическую фирму, Эмилия отправляется в Бразилию помочь завершить крупную сделку с недвижимостью. В Рио-де-Жанейро она встречается с Виллером - загадочным и очень сексуальным миллионером, который, используя свое колдовское очарование, пытается соблазнить невинную красотку. / Под сумасшедшие ритмы и краски карнавала, он распаляет в девушке вулкан неведомых ей ранее чувств и эротических фантазий, так и не решаясь на активные действия. Для него это привычная игра в любовь, но Эмилия не хочет и не может играть, она искренна, и это заставляет Виллера открыть ей свое сердце...
    HDVideo : Yes
    AppleStoreCatalogID : 20992
    Vendor : Apple:vendor_id:1989-20992
    ContentRating : mpaa|R|400|
    Video #1
    ID : 1
    Format : AVC
    Format/Info : Advanced Video Codec
    Format profile : High@L3.1
    Format settings, CABAC : No
    Format settings, ReFrames : 3 frames
    Codec ID : avc1
    Codec ID/Info : Advanced Video Coding
    Duration : 1h 45mn
    Source duration : 1h 45mn
    Bit rate : 7 000 Kbps
    Width : 1 280 pixels
    Height : 694 pixels
    Display aspect ratio : 1.85:1
    Frame rate mode : Variable
    Frame rate : 23.976 fps
    Minimum frame rate : 23.974 fps
    Maximum frame rate : 23.981 fps
    Color space : YUV
    Chroma subsampling : 4:2:0
    Bit depth : 8 bits
    Scan type : Progressive
    Bits/(Pixel*Frame) : 0.329
    Stream size : 5.14 GiB (80%)
    Source stream size : 5.14 GiB (80%)
    Title : Main Program
    Writing library : x264 core 130 r2273 b3065e6
    Encoding settings : cabac=0 / ref=3 / deblock=1:-3:-2 / analyse=0x3:0x113 / me=umh / subme=9 / psy=1 / psy_rd=0.80:0.25 / mixed_ref=1 / me_range=32 / chroma_me=1 / trellis=0 / 8x8dct=1 / cqm=0 / deadzone=6,6 / fast_pskip=0 / chroma_qp_offset=-2 / threads=18 / lookahead_threads=1 / sliced_threads=0 / nr=0 / decimate=0 / interlaced=0 / bluray_compat=0 / constrained_intra=0 / bframes=3 / b_pyramid=0 / b_adapt=2 / b_bias=0 / direct=1 / weightb=0 / open_gop=0 / weightp=0 / keyint=240 / keyint_min=24 / scenecut=40 / intra_refresh=0 / rc_lookahead=40 / rc=2pass / mbtree=1 / bitrate=7000 / ratetol=1.0 / qcomp=0.80 / qpmin=0 / qpmax=69 / qpstep=4 / cplxblur=20.0 / qblur=0.5 / vbv_maxrate=9500 / vbv_bufsize=9500 / nal_hrd=none / ip_ratio=1.10 / aq=1:0.50
    Language : English
    Encoded date : UTC 2015-09-13 18:14:01
    Tagged date : UTC 2015-09-13 18:14:16
    Color range : Limited
    Color primaries : BT.709
    Transfer characteristics : BT.709
    Matrix coefficients : BT.709
    Video #2
    ID : 14
    Format : JPEG
    Codec ID : jpeg
    Duration : 1h 45mn
    Bit rate mode : Variable
    Bit rate : 361 bps
    Width : 640 pixels
    Height : 347 pixels
    Display aspect ratio : 1.85:1
    Frame rate mode : Constant
    Frame rate : 0.001 fps
    Color space : YUV
    Chroma subsampling : 4:2:0
    Bit depth : 8 bits
    Compression mode : Lossy
    Bits/(Pixel*Frame) : 1.626
    Stream size : 352 KiB (0%)
    Title : Chapter Images
    Language : English
    Encoded date : UTC 2015-09-13 18:14:28
    Tagged date : UTC 2015-09-13 18:14:29
    Audio #1
    ID : 2
    Format : AAC
    Format/Info : Advanced Audio Codec
    Format profile : LC
    Codec ID : 40
    Duration : 1h 45mn
    Bit rate mode : Variable
    Bit rate : 165 Kbps
    Maximum bit rate : 268 Kbps
    Channel(s) : 2 channels
    Channel positions : Front: L R
    Sampling rate : 48.0 KHz
    Compression mode : Lossy
    Stream size : 124 MiB (2%)
    Title : Russian DUB USSR Stereo
    Language : Russian
    Encoded date : UTC 2015-09-13 18:14:01
    Tagged date : UTC 2015-09-13 18:14:24
    Audio #2
    ID : 3
    Format : AAC
    Format/Info : Advanced Audio Codec
    Format profile : LC
    Codec ID : 40
    Duration : 1h 45mn
    Bit rate mode : Variable
    Bit rate : 196 Kbps
    Maximum bit rate : 277 Kbps
    Channel(s) : 2 channels
    Channel positions : Front: L R
    Sampling rate : 48.0 KHz
    Compression mode : Lossy
    Stream size : 148 MiB (2%)
    Title : Russian MVO Ekaterinburg-Art Stereo
    Language : Russian
    Encoded date : UTC 2015-09-13 18:14:01
    Tagged date : UTC 2015-09-13 18:14:24
    Audio #3
    ID : 4
    Format : AAC
    Format/Info : Advanced Audio Codec
    Format profile : LC
    Codec ID : 40
    Duration : 1h 45mn
    Bit rate mode : Variable
    Bit rate : 197 Kbps
    Maximum bit rate : 264 Kbps
    Channel(s) : 2 channels
    Channel positions : Front: L R
    Sampling rate : 48.0 KHz
    Compression mode : Lossy
    Stream size : 148 MiB (2%)
    Title : Russian MVO Stereo
    Language : Russian
    Encoded date : UTC 2015-09-13 18:14:01
    Tagged date : UTC 2015-09-13 18:14:24
    Audio #4
    ID : 5
    Format : AAC
    Format/Info : Advanced Audio Codec
    Format profile : LC
    Codec ID : 40
    Duration : 1h 45mn
    Bit rate mode : Variable
    Bit rate : 172 Kbps
    Maximum bit rate : 250 Kbps
    Channel(s) : 2 channels
    Channel positions : Front: L R
    Sampling rate : 48.0 KHz
    Compression mode : Lossy
    Stream size : 129 MiB (2%)
    Title : Russian MVO RENTV Stereo
    Language : Russian
    Encoded date : UTC 2015-09-13 18:14:01
    Tagged date : UTC 2015-09-13 18:14:24
    Audio #5
    ID : 6
    Format : AAC
    Format/Info : Advanced Audio Codec
    Format profile : LC
    Codec ID : 40
    Duration : 1h 45mn
    Bit rate mode : Variable
    Bit rate : 151 Kbps
    Maximum bit rate : 164 Kbps
    Channel(s) : 2 channels
    Channel positions : Front: L R
    Sampling rate : 48.0 KHz
    Compression mode : Lossy
    Stream size : 114 MiB (2%)
    Title : Russian AVO A.Gavrilov Stereo
    Language : Russian
    Encoded date : UTC 2015-09-13 18:14:01
    Tagged date : UTC 2015-09-13 18:14:24
    Audio #6
    ID : 7
    Format : AAC
    Format/Info : Advanced Audio Codec
    Format profile : LC
    Codec ID : 40
    Duration : 1h 45mn
    Bit rate mode : Variable
    Bit rate : 192 Kbps
    Maximum bit rate : 279 Kbps
    Channel(s) : 2 channels
    Channel positions : Front: L R
    Sampling rate : 48.0 KHz
    Compression mode : Lossy
    Stream size : 142 MiB (2%)
    Title : Russian AVO V.Gorchakov Stereo
    Language : Russian
    Encoded date : UTC 2015-09-13 18:14:01
    Tagged date : UTC 2015-09-13 18:14:24
    Audio #7
    ID : 8
    Format : AAC
    Format/Info : Advanced Audio Codec
    Format profile : LC
    Codec ID : 40
    Duration : 1h 45mn
    Bit rate mode : Variable
    Bit rate : 197 Kbps
    Maximum bit rate : 283 Kbps
    Channel(s) : 2 channels
    Channel positions : Front: L R
    Sampling rate : 48.0 KHz
    Compression mode : Lossy
    Stream size : 148 MiB (2%)
    Title : Russian AVO M.Ivanov Stereo
    Language : Russian
    Encoded date : UTC 2015-09-13 18:14:01
    Tagged date : UTC 2015-09-13 18:14:24
    Audio #8
    ID : 9
    Format : AAC
    Format/Info : Advanced Audio Codec
    Format profile : LC
    Codec ID : 40
    Duration : 1h 45mn
    Bit rate mode : Variable
    Bit rate : 147 Kbps
    Maximum bit rate : 175 Kbps
    Channel(s) : 2 channels
    Channel positions : Front: L R
    Sampling rate : 48.0 KHz
    Compression mode : Lossy
    Stream size : 111 MiB (2%)
    Title : Ukrainian MVO ICTV Stereo
    Language : Ukrainian
    Encoded date : UTC 2015-09-13 18:14:01
    Tagged date : UTC 2015-09-13 18:14:24
    Audio #9
    ID : 10
    Format : AAC
    Format/Info : Advanced Audio Codec
    Format profile : LC
    Codec ID : 40
    Duration : 1h 45mn
    Bit rate mode : Variable
    Bit rate : 144 Kbps
    Maximum bit rate : 265 Kbps
    Channel(s) : 2 channels
    Channel positions : Front: L R
    Sampling rate : 48.0 KHz
    Compression mode : Lossy
    Stream size : 109 MiB (2%)
    Title : Ukrainian MVO Inter Stereo
    Language : Ukrainian
    Encoded date : UTC 2015-09-13 18:14:01
    Tagged date : UTC 2015-09-13 18:14:24
    Audio #10
    ID : 11
    Format : AAC
    Format/Info : Advanced Audio Codec
    Format profile : LC
    Codec ID : 40
    Duration : 1h 45mn
    Bit rate mode : Variable
    Bit rate : 151 Kbps
    Maximum bit rate : 165 Kbps
    Channel(s) : 2 channels
    Channel positions : Front: L R
    Sampling rate : 48.0 KHz
    Compression mode : Lossy
    Stream size : 113 MiB (2%)
    Title : English Stereo
    Language : English
    Encoded date : UTC 2015-09-13 18:14:01
    Tagged date : UTC 2015-09-13 18:14:24
    Text
    ID : 12
    Format : Timed Text
    Muxing mode : sbtl
    Codec ID : tx3g
    Duration : 1h 37mn
    Bit rate mode : Variable
    Bit rate : 55 bps
    Stream size : 39.2 KiB (0%)
    Title : Russian Subtitle
    Language : Russian
    Encoded date : UTC 2015-09-13 18:14:01
    Tagged date : UTC 2015-09-13 18:14:01
    Menu #1
    00:00:00.000 : 1
    00:14:58.590 : 2
    00:28:47.600 : 3
    00:41:55.950 : 4
    00:59:03.215 : 5
    01:09:50.263 : 6
    01:19:37.001 : 7
    01:31:53.709 : 8
    Menu #2
    ID : 13
    Codec ID : text
    Duration : 1h 45mn
    Title : Chapter Titles
    Language : English
    Encoded date : UTC 2015-09-13 18:14:24
    Tagged date : UTC 2015-09-13 18:14:24
    Bit rate mode : CBR
    00:00:00.000 : 1
    00:14:58.590 : 2
    00:28:47.600 : 3
    00:41:55.950 : 4
    00:59:03.215 : 5
    01:09:50.263 : 6
    01:19:37.001 : 7
    01:31:53.709 : 8

    x264 лог 480p Release

    HandBrakeCLI -i "/WILD_ORCHID_1989_BDREMUX_HDCLUB/BDMV/STREAM/00000.m2ts" -t 1 -o "Wild.Orchid.480p.eng.m4v" -f mp4 -I -O -w 640 -l 462 --crop 20:20:0:0 --custom-anamorphic --modulus 2 --pixel-aspect 852:640 -e x264 -b 1800 -2 -a none -x cabac=0:ref=2:me=umh:bframes=0:weightp=0:subq=6:8x8dct=0:trellis=0:vbv-maxrate=5000:vbv-bufsize=5000 --verbose=1
    x264 [info]: frame I:2652  Avg QP:19.46  size: 29910  PSNR Mean Y:43.88 U:49.75 V:50.34 Avg:45.12 Global:44.48
    x264 [info]: frame P:148765 Avg QP:21.05  size:  8978  PSNR Mean Y:41.97 U:47.89 V:48.42 Avg:43.21 Global:42.81
    x264 [info]: mb I  I16..4: 18.3%  0.0% 81.7%
    x264 [info]: mb P  I16..4:  0.6%  0.0%  3.5%  P16..4: 53.3% 23.9%  9.4%  0.0%  0.0%    skip: 9.2%
    x264 [info]: coded y,uvDC,uvAC intra: 91.2% 76.8% 41.4% inter: 35.2% 25.3% 1.7%
    x264 [info]: i16 v,h,dc,p: 22%  8% 13% 57%
    x264 [info]: i4 v,h,dc,ddl,ddr,vr,hd,vl,hu: 23% 11% 19%  8%  9% 10%  6%  9%  5%
    x264 [info]: i8c dc,h,v,p: 52% 14% 25%  9%
    x264 [info]: ref P L0: 70.3% 29.7%
    x264 [info]: SSIM Mean Y:0.9619176 (14.193db)
    x264 [info]: PSNR Mean Y:42.003 U:47.925 V:48.454 Avg:43.245 Global:42.831 kb/s:1792.29

    x264 лог 720p Release

    HandBrakeCLI -i "/WILD_ORCHID_1989_BDREMUX_HDCLUB/BDMV/STREAM/00000.m2ts" -t 1 -o "Wild.Orchid.720p.eng.m4v" -f mp4 -4 -O -w 1280 -l 694 --crop 20:20:0:0 --modulus 2 -e x264 -b 7000 -2 -a none -x cabac=0:ref=3:me=umh:b-pyramid=none:b-adapt=2:weightb=0:trellis=0:weightp=0:vbv-maxrate=9500:vbv-bufsize=9500:subq=9:merange=32:deblock=-3,-2:qcomp=0.80:qpmin=0:qpmax=69:fast_pskip=0:aq-strength=0.5:no-dct-decimate=1:psy-rd=0.80,0.25:ipratio=1.1:pbratio=1.1:deadzone-inter=6:deadzone-intra=6 --verbose=1
    x264 [info]: frame I:1004  Avg QP:21.80  size: 78148  PSNR Mean Y:43.95 U:49.37 V:50.10 Avg:45.15 Global:44.80
    x264 [info]: frame P:48292 Avg QP:22.69  size: 52624  PSNR Mean Y:43.17 U:48.89 V:49.52 Avg:44.39 Global:44.10
    x264 [info]: frame B:102121 Avg QP:23.35  size: 28374  PSNR Mean Y:41.83 U:48.60 V:49.34 Avg:43.17 Global:42.90
    x264 [info]: consecutive B-frames:  1.4%  7.8% 54.5% 36.3%
    x264 [info]: mb I  I16..4:  3.5% 75.4% 21.0%
    x264 [info]: mb P  I16..4:  1.4% 17.5%  3.7%  P16..4: 46.2% 23.7%  7.0%  0.0%  0.0%    skip: 0.5%
    x264 [info]: mb B  I16..4:  0.2%  3.1%  0.6%  B16..8: 35.4% 12.6%  1.5%  direct:14.9%  skip:31.8%  L0:41.3% L1:38.8% BI:19.8%
    x264 [info]: 8x8 transform intra:77.9% inter:44.2%
    x264 [info]: coded y,uvDC,uvAC intra: 94.9% 58.7% 18.0% inter: 56.6% 16.9% 1.5%
    x264 [info]: i16 v,h,dc,p: 23%  8% 11% 57%
    x264 [info]: i8 v,h,dc,ddl,ddr,vr,hd,vl,hu: 10%  5%  5% 12% 16% 16% 13% 12% 10%
    x264 [info]: i4 v,h,dc,ddl,ddr,vr,hd,vl,hu: 14%  6%  3% 12% 17% 17% 12% 11%  8%
    x264 [info]: i8c dc,h,v,p: 51% 18% 21% 10%
    x264 [info]: ref P L0: 59.5% 25.1% 15.4%
    x264 [info]: ref B L0: 73.7% 26.3%
    x264 [info]: SSIM Mean Y:0.9569432 (13.660db)
    x264 [info]: PSNR Mean Y:42.270 U:48.700 V:49.406 Avg:43.571 Global:43.257 kb/s:6989.14

    Скриншоты 480p Release

    Скриншоты 720p Release

    Цитата:
    Цитата:

    • Сохранены оригинальные чаптеры как на Blu-Ray.
    • За исходник советского дубляжа громадное спасибо orson08. Дубляж очень сильно отличался от Bly-Ray, в следствии чего некоторые фрагменты дороги перемонтированы полностью, да и вообще различия были настолько разными и неожиданными, что пришлось убить недели две. Один из фрагментов остался без перевода (вставка оригинала - но там буквально пол минуты) один из диалогов которого не было в дубляже я заменил на другой - представьте себе, в советском дубляже было несколько моментов которые отсутствовали в современном Blu-Ray. Несущий звук оригинальному английскому не соответствует от слова "совсем", так что ориентировался во сновном на артикуляцию. Да и вообще фильм практически весь построен на диалогах, так что в первую очередь нужно было попасть "в губы";
    • Дорога № 5 с чистого голоса (максимально отреставрированного насколько это возможно);
    • За исходные дороги Иванова и Горчакова большущая признательность _int_;
    • За исходную дорогу Екатеринбург-Арт спасибо maksnew;
    • За украинские дороги трекеру Гуртом;
    • За русские сабы - Grimlen.
    -

    Релиз подготовлен для просмотра на Apple TV, iPad, iPhone, iPod Touch.
    Для просмотра данного релиза на компьютере с ОС Windows рекомендуется использовать VLC media player
    Скачать .torrent

    Скачать торрент-файл бесплатно и на максимальной скорости!

    Как скачивать? · Что такое торрент? · Рейтинг и ограничения

    !ВНИМАНИЕ!
    Сайт не распространяет и не хранит электронные версии произведений, а занимается лишь лишь предоставлением доступа к создаваемому пользователями каталогу ссылок на торрент-файлы, которые содержат только списки хеш-сумм, убедительная просьба с жалобами обращаться напрямую к пользователю. Файлы для обмена на трекере предоставлены пользователями сайта, и администрация не несёт ответственности за их содержание. Просьба не заливать файлы, защищенные авторскими правами, а также файлы нелегального содержания!


  • _________________
    [Профиль] [ЛС]
    Показать сообщения:    
    Ответить на тему

    Текущее время: Сегодня, в 22:20

    Часовой пояс: GMT + 2



    Вы не можете начинать темы
    Вы не можете отвечать на сообщения
    Вы не можете редактировать свои сообщения
    Вы не можете удалять свои сообщения
    Вы не можете голосовать в опросах
    Вы не можете прикреплять файлы к сообщениям
    Вы не можете скачивать файлы