BitTorrentTracker PerecTracker.org
BitTorrentTracker PerecTracker.org
    
Регистрация  ·  Вход
 
 · 
Забыли пароль?

  • Метеор – убийца / The Killer Meteors / Feng yu shuang liu xing (Вэй Ло) [1976, Гонконг, Тайвань, боевик, триллер, BDRip HD (720p), SD (480p)] MVO, AVO, Original + SUB (rus, eng)

    Ответить на тему
     
    Автор Сообщение

    Flirldrerve

    Создавать темы 27-Окт-2015 05:18

           

    [Цитировать]

    Метеор – убийца / The Killer Meteors / Feng yu shuang liu xing
    5.434 / 10
    -Год выпуска: 1976
    Страна: Гонконг, Тайвань
    Жанр: боевик, триллер
    Продолжительность: 104 мин.
    Перевод: Многоголосый закадровый перевод и одноголосый закадровый авторский перевод
    Оригинальная аудиодорожка: Есть
    Cубтитры: Русские полные и английские полные
    Режиссёр: Вэй Ло
    Сценарий: Ланг Ку
    Продюсер: Ших Мей Чу, Вэй Ло
    Оператор: Чин-Чу Чэнь, Чунг Йуан Чен
    Композитор: Фу Лианг Чоу
    Художник: Чи Лианг Чоу, Йен-Хунг Ли
    Монтаж: Тинг Хунг Куо
    В ролях: Юй Ван, Джеки Чан, Лиу-ли Лан, Линг Ланг Ю, Хуи Лу Чен, Сан Лин Чен, Куо Чунг Чинг, Хань Хсие, Ан Чанг Ху, Ву Вэй
    Мировая премьера: 21 августа 1976
    Релиз на DVD: 12 июля 2011, Флагман-Трейд
    Описание: Странствующий воин по имени Метеор оказывается втянутым в темную историю с супружеской неверностью, ограблением, убийством и отравлениями.
    Таинственный богач Ва нанимает Метеора, чтобы убить собственную жену - по словам Ва, та заводит романы направо и налево и даже пыталась отравить своего мужа, чтобы заграбастать себе все его состояние. Метеор не особенно верит в слова заказчика и вообще не хочет влезать в чужие семейные дрязги, но ему просто не оставляют выбора...-Качество исходника: BD-Remux 1080p (HDClub)
    Качество: BDRip
    Тип: 480p 720p
    Контейнер: m4v
    Видео: 640x356 анаморф 852x356 at 23.976 fps, MPEG-4 AVC, 1600 kbps avg
    Видео: 1280x544 at 23.976 fps, MPEG-4 AVC, ~6000 kbps avg
    Аудио#1: Russian: 48 kHz, ААС, 2/0 (L,R), ~128.00 / 192.00 kbps avg |Многоголосый закадровый, СТС|
    Аудио#2: Russian: 48 kHz, ААС, 2/0 (L,R), ~128.00 / 192.00 kbps avg |Многоголосый закадровый, ТВ-6|
    Аудио#3: Russian: 48 kHz, ААС, 2/0 (L,R), ~128.00 / 192.00 kbps avg |Одноголосый закадровый, Сергей Визгунов|
    Аудио#4: English: 48 kHz, ААС, 2/0 (L,R), ~128.00 / 192.00 kbps avg |Дубляж|
    Аудио#5: Chinese (Mandarin): 48 kHz, ААС, 2/0 (L,R), ~128.00 / 192.00 kbps avg
    Аудио#6: Chinese (Mandarin): 48 kHz, AC3, 3/2 (L,C,R,l,r) + LFE ch, ~640.00 kbps avg
    Субтитры №1: Russian: |Полные, Gellard|
    Субтитры №2: English: |Полные|-

    Знаете ли Вы, что...
  • Хотя фильм снят в 1976 году, вышел в прокат он только через 2 года.
  • В фильме Джеки Чан появляется примерно на 10 минут, и большую часть этого времени он проводит, лёжа на полу.
    -

    iTunes Meta Tags for country us

    Sort Name: Killer Meteors
    XID: Apple:vendor_id:1976-24731
    contentID: 24731
    Screenwriters: Ланг Ку
    Producers: Ших Мей Чу, Вэй Ло
    Director: Вэй Ло
    Cast: Юй Ван, Джеки Чан, Лиу-ли Лан, Линг Ланг Ю, Хуи Лу Чен, Сан Лин Чен, Куо Чунг Чинг, Хань Хсие, Ан Чанг Ху, Ву Вэй
    Rating: PG-13
    Long Description: Странствующий воин по имени Метеор оказывается втянутым в темную историю с супружеской неверностью, ограблением, убийством и отравлениями.
    Таинственный богач Ва нанимает Метеора, чтобы убить собственную жену - по словам Ва, та заводит романы направо и налево и даже пыталась отравить своего мужа, чтобы заграбастать себе все его состояние. Метеор не особенно верит в слова заказчика и вообще не хочет влезать в чужие семейные дрязги, но ему просто не оставляют выбора...
    Description: Странствующий воин по имени Метеор оказывается втянутым в темную историю с супружеской неверностью, ограблением, убийством и отравлениями...
    Release Date: 1976-08-21T08:00:00Z
    Genre: Action & Adventure
    Artist: Lo Wei
    Name: The Killer Meteors

    MediaInfo 480p Release

    General
    Complete name : The Killer Meteors.m4v
    Format : MPEG-4
    Codec ID : M4V
    File size : 1.61 GiB
    Duration : 1h 44mn
    Overall bit rate mode : Variable
    Overall bit rate : 2 202 Kbps
    Movie name : The Killer Meteors
    Performer : Lo Wei
    Director : Вэй Ло
    Actor : Юй Ван / Джеки Чан / Лиу-ли Лан / Линг Ланг Ю / Хуи Лу Чен / Сан Лин Чен / Куо Чунг Чинг / Хань Хсие / Ан Чанг Ху / Ву Вэй
    Screenplay by : Ланг Ку
    Producer : Ших Мей Чу / Вэй Ло
    Genre : Action & Adventure
    ContentType : Short Film
    Description : Странствующий воин по имени Метеор оказывается втянутым в темную историю с супружеской неверностью, ограблением, убийством и отравлениями...
    Recorded date : UTC 1976-08-21 08:00:00
    Encoded date : UTC 2015-08-13 12:13:39
    Tagged date : UTC 2015-08-13 12:14:22
    Cover : Yes
    Rating : None
    Title/Sort : Killer Meteors
    LongDescription : Странствующий воин по имени Метеор оказывается втянутым в темную историю с супружеской неверностью, ограблением, убийством и отравлениями. / Таинственный богач Ва нанимает Метеора, чтобы убить собственную жену - по словам Ва, та заводит романы направо и налево и даже пыталась отравить своего мужа, чтобы заграбастать себе все его состояние. Метеор не особенно верит в слова заказчика и вообще не хочет влезать в чужие семейные дрязги, но ему просто не оставляют выбора...
    AppleStoreCatalogID : 24731
    Vendor : Apple:vendor_id:1976-24731
    ContentRating : mpaa|PG-13|300|
    Video #1
    ID : 1
    Format : AVC
    Format/Info : Advanced Video Codec
    Format profile : Baseline@L3
    Format settings, CABAC : No
    Format settings, ReFrames : 2 frames
    Codec ID : avc1
    Codec ID/Info : Advanced Video Coding
    Duration : 1h 44mn
    Bit rate : 1 600 Kbps
    Width : 640 pixels
    Height : 356 pixels
    Display aspect ratio : 2.40:1
    Frame rate mode : Variable
    Frame rate : 23.976 fps
    Minimum frame rate : 23.974 fps
    Maximum frame rate : 23.981 fps
    Color space : YUV
    Chroma subsampling : 4:2:0
    Bit depth : 8 bits
    Scan type : Progressive
    Bits/(Pixel*Frame) : 0.293
    Stream size : 1.17 GiB (73%)
    Title : Main Program
    Writing library : x264 core 130 r2273 b3065e6
    Encoding settings : cabac=0 / ref=2 / deblock=1:0:0 / analyse=0x1:0x111 / me=umh / subme=6 / psy=1 / psy_rd=1.00:0.00 / mixed_ref=1 / me_range=16 / chroma_me=1 / trellis=0 / 8x8dct=0 / cqm=0 / deadzone=21,11 / fast_pskip=1 / chroma_qp_offset=-2 / threads=18 / lookahead_threads=2 / sliced_threads=0 / nr=0 / decimate=1 / interlaced=0 / bluray_compat=0 / constrained_intra=0 / bframes=0 / weightp=0 / keyint=240 / keyint_min=24 / scenecut=40 / intra_refresh=0 / rc_lookahead=40 / rc=2pass / mbtree=1 / bitrate=1600 / ratetol=1.0 / qcomp=0.60 / qpmin=0 / qpmax=69 / qpstep=4 / cplxblur=20.0 / qblur=0.5 / vbv_maxrate=5000 / vbv_bufsize=5000 / nal_hrd=none / ip_ratio=1.40 / aq=1:1.00
    Language : Chinese
    Encoded date : UTC 2015-08-13 12:13:39
    Tagged date : UTC 2015-08-13 12:13:44
    Color range : Limited
    Color primaries : BT.709
    Transfer characteristics : BT.709
    Matrix coefficients : BT.709
    Video #2
    ID : 10
    Format : JPEG
    Codec ID : jpeg
    Duration : 1h 44mn
    Bit rate mode : Variable
    Bit rate : 593 bps
    Width : 640 pixels
    Height : 267 pixels
    Display aspect ratio : 2.40:1
    Frame rate mode : Variable
    Frame rate : 0.002 fps
    Minimum frame rate : 0.001 fps
    Maximum frame rate : 0.003 fps
    Color space : YUV
    Chroma subsampling : 4:2:0
    Bit depth : 8 bits
    Compression mode : Lossy
    Bits/(Pixel*Frame) : 1.735
    Stream size : 434 KiB (0%)
    Title : Chapter Images
    Language : Chinese
    Encoded date : UTC 2015-08-13 12:13:51
    Tagged date : UTC 2015-08-13 12:13:51
    Audio #1
    ID : 2
    Format : AAC
    Format/Info : Advanced Audio Codec
    Format profile : LC
    Codec ID : 40
    Duration : 1h 44mn
    Bit rate mode : Variable
    Bit rate : 123 Kbps
    Maximum bit rate : 179 Kbps
    Channel(s) : 2 channels
    Channel positions : Front: L R
    Sampling rate : 48.0 KHz
    Compression mode : Lossy
    Stream size : 92.4 MiB (6%)
    Title : Russian MVO CTC Stereo
    Language : Russian
    Encoded date : UTC 2015-08-13 12:13:39
    Tagged date : UTC 2015-08-13 12:13:49
    Audio #2
    ID : 3
    Format : AAC
    Format/Info : Advanced Audio Codec
    Format profile : LC
    Codec ID : 40
    Duration : 1h 44mn
    Bit rate mode : Variable
    Bit rate : 132 Kbps
    Maximum bit rate : 190 Kbps
    Channel(s) : 2 channels
    Channel positions : Front: L R
    Sampling rate : 48.0 KHz
    Compression mode : Lossy
    Stream size : 98.4 MiB (6%)
    Title : Russian MVO TV6 Stereo
    Language : Russian
    Encoded date : UTC 2015-08-13 12:13:39
    Tagged date : UTC 2015-08-13 12:13:49
    Audio #3
    ID : 4
    Format : AAC
    Format/Info : Advanced Audio Codec
    Format profile : LC
    Codec ID : 40
    Duration : 1h 44mn
    Bit rate mode : Variable
    Bit rate : 132 Kbps
    Maximum bit rate : 189 Kbps
    Channel(s) : 2 channels
    Channel positions : Front: L R
    Sampling rate : 48.0 KHz
    Compression mode : Lossy
    Stream size : 98.4 MiB (6%)
    Title : Russian AVO S.Vizgunov Stereo
    Language : Russian
    Encoded date : UTC 2015-08-13 12:13:39
    Tagged date : UTC 2015-08-13 12:13:49
    Audio #4
    ID : 5
    Format : AAC
    Format/Info : Advanced Audio Codec
    Format profile : LC
    Codec ID : 40
    Duration : 1h 44mn
    Bit rate mode : Variable
    Bit rate : 101 Kbps
    Maximum bit rate : 132 Kbps
    Channel(s) : 2 channels
    Channel positions : Front: L R
    Sampling rate : 48.0 KHz
    Compression mode : Lossy
    Stream size : 75.9 MiB (5%)
    Title : English DUB Stereo
    Language : English
    Encoded date : UTC 2015-08-13 12:13:39
    Tagged date : UTC 2015-08-13 12:13:49
    Audio #5
    ID : 6
    Format : AAC
    Format/Info : Advanced Audio Codec
    Format profile : LC
    Codec ID : 40
    Duration : 1h 44mn
    Bit rate mode : Variable
    Bit rate : 102 Kbps
    Maximum bit rate : 112 Kbps
    Channel(s) : 2 channels
    Channel positions : Front: L R
    Sampling rate : 48.0 KHz
    Compression mode : Lossy
    Stream size : 76.2 MiB (5%)
    Title : Chinese Stereo
    Language : Chinese
    Encoded date : UTC 2015-08-13 12:13:39
    Tagged date : UTC 2015-08-13 12:13:49
    Text #1
    ID : 7
    Format : Timed Text
    Muxing mode : sbtl
    Codec ID : tx3g
    Duration : 1h 44mn
    Bit rate mode : Variable
    Bit rate : 70 bps
    Stream size : 53.5 KiB (0%)
    Title : Russian Gellard Subtitle
    Language : Russian
    Encoded date : UTC 2015-08-13 12:13:39
    Tagged date : UTC 2015-08-13 12:13:40
    Text #2
    ID : 8
    Format : Timed Text
    Muxing mode : sbtl
    Codec ID : tx3g
    Duration : 1h 43mn
    Bit rate mode : Variable
    Bit rate : 42 bps
    Stream size : 32.0 KiB (0%)
    Title : English Subtitle
    Language : English
    Encoded date : UTC 2015-08-13 12:13:39
    Tagged date : UTC 2015-08-13 12:13:40
    Menu #1
    00:00:00.000 : 1
    00:08:46.984 : 2
    00:16:49.758 : 3
    00:24:16.121 : 4
    00:34:01.122 : 5
    00:44:34.963 : 6
    00:55:46.259 : 7
    01:04:41.502 : 8
    01:12:45.486 : 9
    01:19:00.068 : 10
    01:26:07.537 : 11
    01:35:15.126 : 12
    Menu #2
    ID : 9
    Codec ID : text
    Duration : 1h 44mn
    Title : Chapter Titles
    Language : English
    Encoded date : UTC 2015-08-13 12:13:49
    Tagged date : UTC 2015-08-13 12:13:49
    00:00:00.000 : 1
    00:08:46.984 : 2
    00:16:49.758 : 3
    00:24:16.121 : 4
    00:34:01.122 : 5
    00:44:34.963 : 6
    00:55:46.259 : 7
    01:04:41.502 : 8
    01:12:45.486 : 9
    01:19:00.068 : 10
    01:26:07.537 : 11
    01:35:15.126 : 12
    Bit rate mode : VBR

    MediaInfo 720p Release

    General
    Complete name : The Killer Meteors (HD).m4v
    Format : MPEG-4
    Codec ID : M4V
    File size : 5.50 GiB
    Duration : 1h 44mn
    Overall bit rate mode : Variable
    Overall bit rate : 7 525 Kbps
    Movie name : The Killer Meteors
    Performer : Lo Wei
    Director : Вэй Ло
    Actor : Юй Ван / Джеки Чан / Лиу-ли Лан / Линг Ланг Ю / Хуи Лу Чен / Сан Лин Чен / Куо Чунг Чинг / Хань Хсие / Ан Чанг Ху / Ву Вэй
    Screenplay by : Ланг Ку
    Producer : Ших Мей Чу / Вэй Ло
    Genre : Action & Adventure
    ContentType : Short Film
    Description : Странствующий воин по имени Метеор оказывается втянутым в темную историю с супружеской неверностью, ограблением, убийством и отравлениями...
    Recorded date : UTC 1976-08-21 08:00:00
    Encoded date : UTC 2015-08-13 12:05:24
    Tagged date : UTC 2015-08-13 12:09:40
    Cover : Yes
    Rating : None
    Title/Sort : Killer Meteors
    LongDescription : Странствующий воин по имени Метеор оказывается втянутым в темную историю с супружеской неверностью, ограблением, убийством и отравлениями. / Таинственный богач Ва нанимает Метеора, чтобы убить собственную жену - по словам Ва, та заводит романы направо и налево и даже пыталась отравить своего мужа, чтобы заграбастать себе все его состояние. Метеор не особенно верит в слова заказчика и вообще не хочет влезать в чужие семейные дрязги, но ему просто не оставляют выбора...
    HDVideo : Yes
    AppleStoreCatalogID : 24731
    Vendor : Apple:vendor_id:1976-24731
    ContentRating : mpaa|PG-13|300|
    Video #1
    ID : 1
    Format : AVC
    Format/Info : Advanced Video Codec
    Format profile : High@L3.1
    Format settings, CABAC : No
    Format settings, ReFrames : 3 frames
    Codec ID : avc1
    Codec ID/Info : Advanced Video Coding
    Duration : 1h 44mn
    Source duration : 1h 44mn
    Bit rate : 6 000 Kbps
    Width : 1 280 pixels
    Height : 544 pixels
    Display aspect ratio : 2.35:1
    Frame rate mode : Variable
    Frame rate : 23.976 fps
    Minimum frame rate : 23.974 fps
    Maximum frame rate : 23.981 fps
    Color space : YUV
    Chroma subsampling : 4:2:0
    Bit depth : 8 bits
    Scan type : Progressive
    Bits/(Pixel*Frame) : 0.359
    Stream size : 4.38 GiB (80%)
    Source stream size : 4.38 GiB (80%)
    Title : Main Program
    Writing library : x264 core 130 r2273 b3065e6
    Encoding settings : cabac=0 / ref=3 / deblock=1:-3:-2 / analyse=0x3:0x113 / me=umh / subme=9 / psy=1 / psy_rd=0.80:0.25 / mixed_ref=1 / me_range=32 / chroma_me=1 / trellis=0 / 8x8dct=1 / cqm=0 / deadzone=6,6 / fast_pskip=0 / chroma_qp_offset=-2 / threads=18 / lookahead_threads=1 / sliced_threads=0 / nr=0 / decimate=0 / interlaced=0 / bluray_compat=0 / constrained_intra=0 / bframes=3 / b_pyramid=0 / b_adapt=2 / b_bias=0 / direct=1 / weightb=0 / open_gop=0 / weightp=0 / keyint=240 / keyint_min=24 / scenecut=40 / intra_refresh=0 / rc_lookahead=40 / rc=2pass / mbtree=1 / bitrate=6000 / ratetol=1.0 / qcomp=0.80 / qpmin=0 / qpmax=69 / qpstep=4 / cplxblur=20.0 / qblur=0.5 / vbv_maxrate=9500 / vbv_bufsize=9500 / nal_hrd=none / ip_ratio=1.10 / aq=1:0.50
    Language : Chinese
    Encoded date : UTC 2015-08-13 12:05:24
    Tagged date : UTC 2015-08-13 12:05:37
    Color range : Limited
    Color primaries : BT.709
    Transfer characteristics : BT.709
    Matrix coefficients : BT.709
    Video #2
    ID : 11
    Format : JPEG
    Codec ID : jpeg
    Duration : 1h 44mn
    Bit rate mode : Variable
    Bit rate : 640 bps
    Width : 640 pixels
    Height : 272 pixels
    Display aspect ratio : 2.35:1
    Frame rate mode : Variable
    Frame rate : 0.002 fps
    Minimum frame rate : 0.001 fps
    Maximum frame rate : 0.003 fps
    Color space : YUV
    Chroma subsampling : 4:2:0
    Bit depth : 8 bits
    Compression mode : Lossy
    Bits/(Pixel*Frame) : 1.838
    Stream size : 469 KiB (0%)
    Title : Chapter Images
    Language : Chinese
    Encoded date : UTC 2015-08-13 12:09:27
    Tagged date : UTC 2015-08-13 12:09:27
    Audio #1
    ID : 2
    Format : AAC
    Format/Info : Advanced Audio Codec
    Format profile : LC
    Codec ID : 40
    Duration : 1h 44mn
    Bit rate mode : Variable
    Bit rate : 196 Kbps
    Maximum bit rate : 252 Kbps
    Channel(s) : 2 channels
    Channel positions : Front: L R
    Sampling rate : 48.0 KHz
    Compression mode : Lossy
    Stream size : 147 MiB (3%)
    Title : Russian MVO CTC Stereo
    Language : Russian
    Encoded date : UTC 2015-08-13 12:05:24
    Tagged date : UTC 2015-08-13 12:05:42
    Audio #2
    ID : 3
    Format : AAC
    Format/Info : Advanced Audio Codec
    Format profile : LC
    Codec ID : 40
    Duration : 1h 44mn
    Bit rate mode : Variable
    Bit rate : 197 Kbps
    Maximum bit rate : 281 Kbps
    Channel(s) : 2 channels
    Channel positions : Front: L R
    Sampling rate : 48.0 KHz
    Compression mode : Lossy
    Stream size : 148 MiB (3%)
    Title : Russian MVO TV6 Stereo
    Language : Russian
    Encoded date : UTC 2015-08-13 12:05:24
    Tagged date : UTC 2015-08-13 12:05:42
    Audio #3
    ID : 4
    Format : AAC
    Format/Info : Advanced Audio Codec
    Format profile : LC
    Codec ID : 40
    Duration : 1h 44mn
    Bit rate mode : Variable
    Bit rate : 197 Kbps
    Maximum bit rate : 273 Kbps
    Channel(s) : 2 channels
    Channel positions : Front: L R
    Sampling rate : 48.0 KHz
    Compression mode : Lossy
    Stream size : 147 MiB (3%)
    Title : Russian AVO S.Vizgunov Stereo
    Language : Russian
    Encoded date : UTC 2015-08-13 12:05:24
    Tagged date : UTC 2015-08-13 12:05:42
    Audio #4
    ID : 5
    Format : AAC
    Format/Info : Advanced Audio Codec
    Format profile : LC
    Codec ID : 40
    Duration : 1h 44mn
    Bit rate mode : Variable
    Bit rate : 144 Kbps
    Maximum bit rate : 167 Kbps
    Channel(s) : 2 channels
    Channel positions : Front: L R
    Sampling rate : 48.0 KHz
    Compression mode : Lossy
    Stream size : 107 MiB (2%)
    Title : English DUB Stereo
    Language : English
    Encoded date : UTC 2015-08-13 12:05:24
    Tagged date : UTC 2015-08-13 12:05:42
    Audio #5
    ID : 6
    Format : AAC
    Format/Info : Advanced Audio Codec
    Format profile : LC
    Codec ID : 40
    Duration : 1h 44mn
    Bit rate mode : Variable
    Bit rate : 144 Kbps
    Maximum bit rate : 163 Kbps
    Channel(s) : 2 channels
    Channel positions : Front: L R
    Sampling rate : 48.0 KHz
    Compression mode : Lossy
    Stream size : 108 MiB (2%)
    Title : Chinese Stereo
    Language : Chinese
    Encoded date : UTC 2015-08-13 12:05:24
    Tagged date : UTC 2015-08-13 12:05:42
    Audio #6
    ID : 7
    Format : AC-3
    Format/Info : Audio Coding 3
    Mode extension : CM (complete main)
    Format settings, Endianness : Big
    Codec ID : ac-3
    Duration : 1h 44mn
    Bit rate mode : Constant
    Bit rate : 640 Kbps
    Channel(s) : 6 channels
    Channel positions : Front: L C R, Side: L R, LFE
    Sampling rate : 48.0 KHz
    Bit depth : 16 bits
    Compression mode : Lossy
    Stream size : 479 MiB (9%)
    Title : Chinese DD 5.1
    Language : Chinese
    Encoded date : UTC 2015-08-13 12:05:24
    Tagged date : UTC 2015-08-13 12:05:30
    Text #1
    ID : 8
    Format : Timed Text
    Muxing mode : sbtl
    Codec ID : tx3g
    Duration : 1h 44mn
    Bit rate mode : Variable
    Bit rate : 70 bps
    Stream size : 53.5 KiB (0%)
    Title : Russian Gellard Subtitle
    Language : Russian
    Encoded date : UTC 2015-08-13 12:09:23
    Tagged date : UTC 2015-08-13 12:09:23
    Text #2
    ID : 9
    Format : Timed Text
    Muxing mode : sbtl
    Codec ID : tx3g
    Duration : 1h 43mn
    Bit rate mode : Variable
    Bit rate : 42 bps
    Stream size : 32.0 KiB (0%)
    Title : English Subtitle
    Language : English
    Encoded date : UTC 2015-08-13 12:09:23
    Tagged date : UTC 2015-08-13 12:09:23
    Menu #1
    00:00:00.000 : 1
    00:08:46.984 : 2
    00:16:49.758 : 3
    00:24:16.121 : 4
    00:34:01.122 : 5
    00:44:34.963 : 6
    00:55:46.259 : 7
    01:04:41.502 : 8
    01:12:45.486 : 9
    01:19:00.068 : 10
    01:26:07.537 : 11
    01:35:15.126 : 12
    Menu #2
    ID : 10
    Codec ID : text
    Duration : 1h 44mn
    Title : Chapter Titles
    Language : English
    Encoded date : UTC 2015-08-13 12:09:23
    Tagged date : UTC 2015-08-13 12:09:23
    00:00:00.000 : 1
    00:08:46.984 : 2
    00:16:49.758 : 3
    00:24:16.121 : 4
    00:34:01.122 : 5
    00:44:34.963 : 6
    00:55:46.259 : 7
    01:04:41.502 : 8
    01:12:45.486 : 9
    01:19:00.068 : 10
    01:26:07.537 : 11
    01:35:15.126 : 12
    Bit rate mode : VBR

    x264 лог 480p Release

    HandBrakeCLI -i "/THE_KILLER_METEORS_1976_HDCLUB/BDMV/STREAM/00000.m2ts" -t 1 -o The.Killer.Meteors.480p.chi.m4v -f mp4 -I -O -w 640 -l 356 --crop 136:140:0:0 --custom-anamorphic --modulus 4 --pixel-aspect 852:640 -e x264 -b 1600 -2 -a none -x cabac=0:ref=2:me=umh:bframes=0:weightp=0:subq=6:8x8dct=0:trellis=0:vbv-maxrate=5000:vbv-bufsize=5000 --verbose=1
    x264 [info]: frame I:2036  Avg QP:18.27  size: 25911  PSNR Mean Y:45.91 U:48.09 V:50.17 Avg:46.70 Global:46.09
    x264 [info]: frame P:148450 Avg QP:20.27  size:  8102  PSNR Mean Y:43.29 U:45.59 V:47.92 Avg:44.11 Global:43.66
    x264 [info]: mb I  I16..4: 18.2%  0.0% 81.8%
    x264 [info]: mb P  I16..4:  0.6%  0.0%  3.8%  P16..4: 51.7% 24.8%  9.8%  0.0%  0.0%    skip: 9.3%
    x264 [info]: coded y,uvDC,uvAC intra: 78.9% 86.6% 63.9% inter: 39.0% 41.1% 7.6%
    x264 [info]: i16 v,h,dc,p: 42% 12% 10% 36%
    x264 [info]: i4 v,h,dc,ddl,ddr,vr,hd,vl,hu: 36% 11% 13%  6%  8%  9%  5%  8%  5%
    x264 [info]: i8c dc,h,v,p: 51% 13% 28%  8%
    x264 [info]: ref P L0: 68.5% 31.5%
    x264 [info]: SSIM Mean Y:0.9809331 (17.197db)
    x264 [info]: PSNR Mean Y:43.323 U:45.626 V:47.954 Avg:44.143 Global:43.681 kb/s:1600.19

    x264 лог 720p Release

    HandBrakeCLI -i /THE_KILLER_METEORS_1976_HDCLUB/BDMV/STREAM/00000.m2ts -t 1 -o The.Killer.Meteors.720p.chi.m4v -f mp4 -4 -O -w 1280 -l 544 --crop 136:140:0:0 --modulus 16 -e x264 -b 6000 -2 -a none -x cabac=0:ref=3:me=umh:b-pyramid=none:b-adapt=2:weightb=0:trellis=0:weightp=0:vbv-maxrate=9500:vbv-bufsize=9500:subq=9:merange=32:deblock=-3,-2:qcomp=0.80:qpmin=0:qpmax=69:fast_pskip=0:aq-strength=0.5:no-dct-decimate=1:psy-rd=0.80,0.25:ipratio=1.1:pbratio=1.1:deadzone-inter=6:deadzone-intra=6 --verbose=1
    x264 [info]: frame I:1081  Avg QP:18.28  size: 76969  PSNR Mean Y:47.63 U:48.83 V:50.49 Avg:48.17 Global:47.91
    x264 [info]: frame P:48719 Avg QP:19.19  size: 49620  PSNR Mean Y:46.63 U:47.69 V:49.86 Avg:47.18 Global:46.90
    x264 [info]: frame B:100686 Avg QP:20.50  size: 21851  PSNR Mean Y:45.33 U:46.58 V:49.67 Avg:45.99 Global:45.72
    x264 [info]: consecutive B-frames:  2.4% 16.2% 26.8% 54.6%
    x264 [info]: mb I  I16..4:  3.9% 70.5% 25.6%
    x264 [info]: mb P  I16..4:  1.2% 18.8%  4.0%  P16..4: 38.2% 26.9% 10.0%  0.0%  0.0%    skip: 0.9%
    x264 [info]: mb B  I16..4:  0.1%  3.7%  0.8%  B16..8: 31.0% 13.7%  2.3%  direct:16.2%  skip:32.1%  L0:33.8% L1:28.4% BI:37.8%
    x264 [info]: 8x8 transform intra:78.4% inter:46.9%
    x264 [info]: coded y,uvDC,uvAC intra: 94.7% 89.7% 68.2% inter: 53.7% 45.3% 15.7%
    x264 [info]: i16 v,h,dc,p: 26% 10% 11% 52%
    x264 [info]: i8 v,h,dc,ddl,ddr,vr,hd,vl,hu: 12%  8%  6% 10% 13% 14% 13% 13% 12%
    x264 [info]: i4 v,h,dc,ddl,ddr,vr,hd,vl,hu: 12%  9%  2% 10% 16% 16% 14% 11%  9%
    x264 [info]: i8c dc,h,v,p: 51% 17% 21% 11%
    x264 [info]: ref P L0: 60.3% 23.4% 16.3%
    x264 [info]: ref B L0: 70.4% 29.6%
    x264 [info]: SSIM Mean Y:0.9841926 (18.011db)
    x264 [info]: PSNR Mean Y:45.770 U:46.955 V:49.739 Avg:46.393 Global:46.083 kb/s:5991.48

    Скриншоты 480p Release

    Скриншоты 720p Release

    -

    Релиз подготовлен для просмотра на Apple TV, iPad, iPhone, iPod Touch.
    Для просмотра данного релиза на компьютере с ОС Windows рекомендуется использовать VLC media player
    Скачать .torrent

    Скачать торрент-файл бесплатно и на максимальной скорости!

    Как скачивать? · Что такое торрент? · Рейтинг и ограничения

    !ВНИМАНИЕ!
    Сайт не распространяет и не хранит электронные версии произведений, а занимается лишь лишь предоставлением доступа к создаваемому пользователями каталогу ссылок на торрент-файлы, которые содержат только списки хеш-сумм, убедительная просьба с жалобами обращаться напрямую к пользователю. Файлы для обмена на трекере предоставлены пользователями сайта, и администрация не несёт ответственности за их содержание. Просьба не заливать файлы, защищенные авторскими правами, а также файлы нелегального содержания!


  • _________________
    [Профиль] [ЛС]
    Показать сообщения:    
    Ответить на тему

    Текущее время: Сегодня, в 13:48

    Часовой пояс: GMT + 2



    Вы не можете начинать темы
    Вы не можете отвечать на сообщения
    Вы не можете редактировать свои сообщения
    Вы не можете удалять свои сообщения
    Вы не можете голосовать в опросах
    Вы не можете прикреплять файлы к сообщениям
    Вы не можете скачивать файлы