BitTorrentTracker PerecTracker.org
BitTorrentTracker PerecTracker.org
    
Регистрация  ·  Вход
 
 · 
Забыли пароль?

  • [ATV3] Красотки в бегах / Hot Pursuit (Энн Флетчер / Anne Fletcher ) [2015, США, Боевик, комедия, криминал, BDRip, HD (1080p)] DUB + Original + sub (rus, ukr, eng)

    Ответить на тему
     
    Автор Сообщение

    Flirldrerve

    Создавать темы 27-Окт-2015 05:18

           

    [Цитировать]

    Красотки в бегах / Hot Pursuit
    «Вооружены и типа опасны»
    5.678 / 10 5.00 / 10
    -Год выпуска: 2015
    Страна: США
    Жанр: Боевик, комедия, криминал
    Продолжительность: 01:27:31
    Перевод: Дублированный (Лицензия)
    Оригинальная аудиодорожка: Есть
    Cубтитры: Русские форсированные, Украинские форсированные, Русские, Украинские, Английские
    Режиссёр: Энн Флетчер
    Сценарий: Дэвид Вини, Джон Куинтанс
    Продюсер: Дэна Фокс, Бруна Папандреа, Риз Уизерспун
    Оператор: Оливер Степлтон
    Композитор: Кристоф Бек
    Художник: Нельсон Коутс, Джеймс Хинкль, Катрин Мари Томас
    Монтаж: Присцилла Недд-Френдли
    В ролях: Риз Уизерспун, София Вергара, Мэттью Дель Негро, Майкл Мосли, Роберт Казински, Ричард Т. Джонс, Бенни Нивз, Майкл Рэй Эскамиллья, Хоакин Косио, Джон Кэрролл Линч
    Бюджет: $35 000 000
    Сборы в США: $34 580 201
    Сборы в мире: + $16 800 000 = $51 380 201
    Сборы в России: $1 703 363
    Мировая премьера: 7 мая 2015
    Премьера (РФ): 11 июня 2015, «Каро-Премьер»
    Релиз на DVD: 17 сентября 2015, «CP Дистрибуция»
    Релиз на Blu-Ray: 17 сентября 2015, «CP Дистрибуция»
    Описание: Сверхдобросовестный офицер полиции Купер гордится своим назначением на, казалось бы, простое задание — сопроводить жену мафиози, Даниэллу, через весь Техас в Даллас, где она и ее муж должны дать показания против крупного наркобарона. Однако при встрече с порывистой миссис Рива — колумбийской красоткой с пышными формами, чье упрямство столь же выразительно, как и ее акцент, — ей становится ясно, что поездка будет не простой.-Качество исходника: BDRemux (HDClub)
    Качество: BDRip
    Тип: HD (1080p)
    Контейнер: M4V
    Видео: H.264, 1920x800, 2.40:1, 8 000 Kbps, 23.976 fps
    Аудио 1: Русский/Дублированный (Лицензия), AAC / 2.0 / 157 Kbps / 48.0 KHz
    Аудио 2: Английский/Оригинальная дорожка , AAC / 2.0 / 157 Kbps / 48.0 KHz
    Аудио 3: Украинский/Дублированный (iTunes), AAC / 2.0 / 158 Kbps / 48.0 KHz
    Аудио 4: Русский/Дублированный (Лицензия), AC-3 / 5.1 / 640 Kbps / 48.0 KHz
    Аудио 5: Английский/Оригинальная дорожка , AC-3 / 5.1 / 640 Kbps / 48.0 KHz
    Субтитры 1: Русские форсированные
    Субтитры 2: Украинские форсированные
    Субтитры 3: Русские полные
    Субтитры 4: Украинские полные
    Субтитры 5: Английские полные
    -

    iTunes Meta Tags

    Sort Name: Hot Pursuit
    XID: Apple:vendor_id:2015-770625
    contentID: 991186196
    Copyright: © 2015 Warner Bros. Entertainment Inc. and Metro-Goldwyn-Mayer Pictures Inc. All Rights Reserved.
    Screenwriters: Дэвид Вини, Джон Куинтанс
    Producers: Дэна Фокс, Бруна Папандреа, Риз Уизерспун
    Director: Энн Флетчер
    Cast: Риз Уизерспун, София Вергара, Мэттью Дель Негро, Майкл Мосли, Роберт Казински, Ричард Т. Джонс, Бенни Нивз, Майкл Рэй Эскамиллья, Хоакин Косио, Джон Кэрролл Линч, Даниил Эльдаров, Василиса Эльдарова
    Studio: MGM
    Rating: 10
    Long Description: История об офицере полиции и заключенной, которые волей судьбы оказываются в бегах в Техасе.
    Description: История об офицере полиции и заключенной, которые волей судьбы оказываются в бегах в Техасе.
    Release Date: 2015-05-07T08:00:00Z
    Genre: Action & Adventure
    Artist: Anne Fletcher
    Name: Hot Pursuit (2015)

    MediaInfo

    General
    Complete name                            : /Users/imac/HandBrake/Hot Pursuit (1080p HD).m4v
    Format                                   : MPEG-4
    Codec ID                                 : M4V
    File size                                : 5.96 GiB
    Duration                                 : 1h 27mn
    Overall bit rate mode                    : Variable
    Overall bit rate                         : 9 756 Kbps
    Movie name                               : Hot Pursuit (2015)
    Performer                                : Anne Fletcher
    Genre                                    : Action & Adventure
    Recorded date                            : UTC 2015-05-07 08:00:00
    Encoded date                             : UTC 2015-09-14 20:24:54
    Tagged date                              : UTC 2015-09-14 20:32:08
    Copyright                                : © 2015 Warner Bros. Entertainment Inc. and Metro-Goldwyn-Mayer Pictures Inc. All Rights Reserved.
    Cover                                    : Yes
    sonm                                     : Hot Pursuit
    desc                                     : История об офицере полиции и заключенной, которые волей судьбы оказываются в бегах в Техасе.
    ldes                                     : История об офицере полиции и заключенной, которые волей судьбы оказываются в бегах в Техасе.
    hdvd                                     : 2
    stik                                     : 9
    rtng                                     : 0
    cnID                                     : 991186196
    xid                                      : Apple:vendor_id:2015-770625
    iTunEXTC                                 : mpaa|PG-13|300|
    iTunMOVI                                 : <?xml version=\"1.0\" encoding=\"UTF-8\"?> / <!DOCTYPE plist PUBLIC \"-//Apple//DTD PLIST 1.0//EN\" \"http://anonym.to/?http://www.apple.com/DTDs/PropertyList-1.0.dtd\"> / <plist version=\"1.0\"> / <dict> /  <key>cast</key> /  <array> /   <dict> /    <key>name</key> /    <string>Риз Уизерспун</string> /   </dict> /   <dict> /    <key>name</key> /    <string>София Вергара</string> /   </dict> /   <dict> /    <key>name</key> /    <string>Мэттью Дель Негро</string> /   </dict> /   <dict> /    <key>name</key> /    <string>Майкл Мосли</string> /   </dict> /   <dict> /    <key>name</key> /    <string>Роберт Казински</string> /   </dict> /   <dict> /    <key>name</key> /    <string>Ричард Т. Джонс</string> /   </dict> /   <dict> /    <key>name</key> /    <string>Бенни Нивз</string> /   </dict> /   <dict> /    <key>name</key> /    <string>Майкл Рэй Эскамиллья</string> /   </dict> /   <dict> /    <key>name</key> /    <string>Хоакин Косио</string> /   </dict> /   <dict> /    <key>name</key> /    <string>Джон Кэрролл Линч</string> /   </dict> /   <dict> /    <key>name</key> /    <string>Даниил Эльдаров</string> /   </dict> /   <dict> /    <key>name</key> /    <string>Василиса Эльдарова</string> /   </dict> /  </array> /  <key>directors</key> /  <array> /   <dict> /    <key>name</key> /    <string>Энн Флетчер</string> /   </dict> /  </array> /  <key>producers</key> /  <array> /   <dict> /    <key>name</key> /    <string>Дэна Фокс</string> /   </dict> /   <dict> /    <key>name</key> /    <string>Бруна Папандреа</string> /   </dict> /   <dict> /    <key>name</key> /    <string>Риз Уизерспун</string> /   </dict> /  </array> /  <key>screenwriters</key> /  <array> /   <dict> /    <key>name</key> /    <string>Дэвид Вини</string> /   </dict> /   <dict> /    <key>name</key> /    <string>Джон Куинтанс</string> /   </dict> /  </array> /  <key>studio</key> /  <string>MGM</string> / </dict> / </plist>
    Video #1
    ID                                       : 1
    Format                                   : AVC
    Format/Info                              : Advanced Video Codec
    Format profile                           : High@L4.0
    Format settings, CABAC                   : Yes
    Format settings, ReFrames                : 4 frames
    Codec ID                                 : avc1
    Codec ID/Info                            : Advanced Video Coding
    Duration                                 : 1h 27mn
    Bit rate mode                            : Variable
    Bit rate                                 : 8 000 Kbps
    Width                                    : 1 920 pixels
    Height                                   : 800 pixels
    Display aspect ratio                     : 2.40:1
    Frame rate mode                          : Variable
    Frame rate                               : 23.976 fps
    Minimum frame rate                       : 23.974 fps
    Maximum frame rate                       : 23.981 fps
    Color space                              : YUV
    Chroma subsampling                       : 4:2:0
    Bit depth                                : 8 bits
    Scan type                                : Progressive
    Bits/(Pixel*Frame)                       : 0.217
    Stream size                              : 4.88 GiB (82%)
    Writing library                          : x264 core 142 r2479 dd79a61
    Encoding settings                        : cabac=1 / ref=4 / deblock=1:-2:-2 / analyse=0x3:0x133 / me=umh / subme=10 / psy=1 / psy_rd=1.00:0.15 / mixed_ref=1 / me_range=32 / chroma_me=1 / trellis=2 / 8x8dct=1 / cqm=0 / deadzone=21,11 / fast_pskip=0 / chroma_qp_offset=-3 / threads=36 / lookahead_threads=6 / sliced_threads=0 / nr=0 / decimate=0 / interlaced=0 / bluray_compat=0 / constrained_intra=0 / bframes=16 / b_pyramid=2 / b_adapt=2 / b_bias=0 / direct=3 / weightb=1 / open_gop=0 / weightp=2 / keyint=240 / keyint_min=24 / scenecut=40 / intra_refresh=0 / rc_lookahead=60 / rc=2pass / mbtree=1 / bitrate=8000 / ratetol=1.0 / qcomp=0.70 / qpmin=0 / qpmax=69 / qpstep=4 / cplxblur=20.0 / qblur=0.5 / vbv_maxrate=25000 / vbv_bufsize=25000 / nal_hrd=none / filler=0 / ip_ratio=1.40 / aq=1:1.00
    Language                                 : English
    Encoded date                             : UTC 2015-09-14 20:24:54
    Tagged date                              : UTC 2015-09-14 20:25:11
    Color primaries                          : BT.709-5, BT.1361, IEC 61966-2-4, SMPTE RP177
    Transfer characteristics                 : BT.709-5, BT.1361
    Matrix coefficients                      : BT.709-5, BT.1361, IEC 61966-2-4 709, SMPTE RP177
    Video #2
    ID                                       : 13
    Format                                   : JPEG
    Codec ID                                 : jpeg
    Duration                                 : 1h 27mn
    Bit rate mode                            : Variable
    Bit rate                                 : 585 bps
    Width                                    : 640 pixels
    Height                                   : 266 pixels
    Display aspect ratio                     : 2.40:1
    Frame rate mode                          : Variable
    Frame rate                               : 0.002 fps
    Minimum frame rate                       : 0.001 fps
    Maximum frame rate                       : 0.003 fps
    Color space                              : YUV
    Chroma subsampling                       : 4:2:0
    Bit depth                                : 8 bits
    Compression mode                         : Lossy
    Bits/(Pixel*Frame)                       : 1.718
    Stream size                              : 322 KiB (0%)
    Language                                 : English
    Encoded date                             : UTC 2015-09-14 20:25:16
    Tagged date                              : UTC 2015-09-14 20:25:16
    Audio #1
    ID                                       : 2
    Format                                   : AAC
    Format/Info                              : Advanced Audio Codec
    Format profile                           : LC
    Codec ID                                 : 40
    Duration                                 : 1h 27mn
    Bit rate mode                            : Variable
    Bit rate                                 : 157 Kbps
    Maximum bit rate                         : 243 Kbps
    Channel(s)                               : 2 channels
    Channel positions                        : Front: L R
    Sampling rate                            : 48.0 KHz
    Compression mode                         : Lossy
    Stream size                              : 98.4 MiB (2%)
    Language                                 : Russian
    Encoded date                             : UTC 2015-09-14 20:24:54
    Tagged date                              : UTC 2015-09-14 20:25:12
    Audio #2
    ID                                       : 3
    Format                                   : AAC
    Format/Info                              : Advanced Audio Codec
    Format profile                           : LC
    Codec ID                                 : 40
    Duration                                 : 1h 27mn
    Bit rate mode                            : Variable
    Bit rate                                 : 157 Kbps
    Maximum bit rate                         : 258 Kbps
    Channel(s)                               : 2 channels
    Channel positions                        : Front: L R
    Sampling rate                            : 48.0 KHz
    Compression mode                         : Lossy
    Stream size                              : 98.3 MiB (2%)
    Language                                 : English
    Encoded date                             : UTC 2015-09-14 20:24:54
    Tagged date                              : UTC 2015-09-14 20:25:12
    Audio #3
    ID                                       : 4
    Format                                   : AAC
    Format/Info                              : Advanced Audio Codec
    Format profile                           : LC
    Codec ID                                 : 40
    Duration                                 : 1h 27mn
    Bit rate mode                            : Variable
    Bit rate                                 : 158 Kbps
    Maximum bit rate                         : 268 Kbps
    Channel(s)                               : 2 channels
    Channel positions                        : Front: L R
    Sampling rate                            : 48.0 KHz
    Compression mode                         : Lossy
    Stream size                              : 98.8 MiB (2%)
    Language                                 : Ukrainian
    Encoded date                             : UTC 2015-09-14 20:24:54
    Tagged date                              : UTC 2015-09-14 20:25:12
    Audio #4
    ID                                       : 5
    Format                                   : AC-3
    Format/Info                              : Audio Coding 3
    Mode extension                           : CM (complete main)
    Format settings, Endianness              : Big
    Codec ID                                 : ac-3
    Duration                                 : 1h 27mn
    Bit rate mode                            : Constant
    Bit rate                                 : 640 Kbps
    Channel(s)                               : 6 channels
    Channel positions                        : Front: L C R, Side: L R, LFE
    Sampling rate                            : 48.0 KHz
    Bit depth                                : 16 bits
    Compression mode                         : Lossy
    Stream size                              : 401 MiB (7%)
    Language                                 : Russian
    Encoded date                             : UTC 2015-09-14 20:24:54
    Tagged date                              : UTC 2015-09-14 20:24:59
    Audio #5
    ID                                       : 6
    Format                                   : AC-3
    Format/Info                              : Audio Coding 3
    Mode extension                           : CM (complete main)
    Format settings, Endianness              : Big
    Codec ID                                 : ac-3
    Duration                                 : 1h 27mn
    Bit rate mode                            : Constant
    Bit rate                                 : 640 Kbps
    Channel(s)                               : 6 channels
    Channel positions                        : Front: L C R, Side: L R, LFE
    Sampling rate                            : 48.0 KHz
    Bit depth                                : 16 bits
    Compression mode                         : Lossy
    Stream size                              : 401 MiB (7%)
    Language                                 : English
    Encoded date                             : UTC 2015-09-14 20:24:54
    Tagged date                              : UTC 2015-09-14 20:24:59
    Text #1
    ID                                       : 7
    Format                                   : Timed text
    Muxing mode                              : sbtl
    Codec ID                                 : tx3g
    Duration                                 : 1h 19mn
    Bit rate mode                            : Variable
    Bit rate                                 : 4 bps
    Stream size                              : 2.05 KiB (0%)
    Language                                 : Russian
    Encoded date                             : UTC 2015-09-14 20:24:54
    Tagged date                              : UTC 2015-09-14 20:24:54
    Text #2
    ID                                       : 8
    Format                                   : Timed text
    Muxing mode                              : sbtl
    Codec ID                                 : tx3g
    Duration                                 : 1h 19mn
    Bit rate mode                            : Variable
    Bit rate                                 : 3 bps
    Stream size                              : 1.78 KiB (0%)
    Language                                 : Ukrainian
    Encoded date                             : UTC 2015-09-14 20:24:54
    Tagged date                              : UTC 2015-09-14 20:24:54
    Text #3
    ID                                       : 9
    Format                                   : Timed text
    Muxing mode                              : sbtl
    Codec ID                                 : tx3g
    Duration                                 : 1h 25mn
    Bit rate mode                            : Variable
    Bit rate                                 : 130 bps
    Stream size                              : 81.5 KiB (0%)
    Language                                 : Russian
    Encoded date                             : UTC 2015-09-14 20:24:54
    Tagged date                              : UTC 2015-09-14 20:24:54
    Text #4
    ID                                       : 10
    Format                                   : Timed text
    Muxing mode                              : sbtl
    Codec ID                                 : tx3g
    Duration                                 : 1h 25mn
    Bit rate mode                            : Variable
    Bit rate                                 : 134 bps
    Stream size                              : 83.6 KiB (0%)
    Language                                 : Ukrainian
    Encoded date                             : UTC 2015-09-14 20:24:54
    Tagged date                              : UTC 2015-09-14 20:24:54
    Text #5
    ID                                       : 11
    Format                                   : Timed text
    Muxing mode                              : sbtl
    Codec ID                                 : tx3g
    Duration                                 : 1h 27mn
    Bit rate mode                            : Variable
    Bit rate                                 : 98 bps
    Stream size                              : 62.8 KiB (0%)
    Language                                 : English
    Encoded date                             : UTC 2015-09-14 20:24:54
    Tagged date                              : UTC 2015-09-14 20:24:54
    Text #6
    ID                                       : 12
    Format                                   : Apple text
    Codec ID                                 : text
    Duration                                 : 1h 27mn
    Bit rate mode                            : Constant
    Bit rate                                 : 0 bps
    Stream size                              : 207 Bytes (0%)
    Language                                 : English
    Encoded date                             : UTC 2015-09-14 20:25:12
    Tagged date                              : UTC 2015-09-14 20:25:12
    Menu
    00:00:00.000                             : Chapter 1
    00:10:39.430                             : Chapter 2
    00:19:56.821                             : Chapter 3
    00:29:43.782                             : Chapter 4
    00:40:24.756                             : Chapter 5
    00:50:18.641                             : Chapter 6
    00:59:32.319                             : Chapter 7
    01:10:17.797                             : Chapter 8
    01:22:44.001                             : Chapter 9

    x264 лог

    x264 [info]: frame I:940   Avg QP:16.92  size:209119
    x264 [info]: frame P:29457 Avg QP:19.60  size: 71332
    x264 [info]: frame B:95508 Avg QP:20.91  size: 30860
    x264 [info]: consecutive B-frames:  2.3%  5.3%  7.1% 31.2% 15.8% 23.5%  7.9%  5.8%  0.7%  0.0%  0.1%  0.2%  0.0%  0.0%  0.0%  0.0%  0.1%
    x264 [info]: mb I  I16..4: 12.8% 68.4% 18.8%
    x264 [info]: mb P  I16..4:  1.9% 15.0%  1.3%  P16..4: 43.8% 20.0% 11.7%  0.4%  0.1%    skip: 5.9%
    x264 [info]: mb B  I16..4:  0.1%  1.5%  0.1%  B16..8: 48.9% 10.7%  2.6%  direct: 6.7%  skip:29.5%  L0:43.7% L1:46.3% BI:10.0%
    x264 [info]: 8x8 transform intra:82.2% inter:57.1%
    x264 [info]: direct mvs  spatial:98.3% temporal:1.7%
    x264 [info]: coded y,uvDC,uvAC intra: 90.3% 86.6% 66.8% inter: 34.7% 29.1% 11.4%
    x264 [info]: i16 v,h,dc,p: 40% 13% 12% 35%
    x264 [info]: i8 v,h,dc,ddl,ddr,vr,hd,vl,hu: 10%  7%  9% 10% 14% 14% 12% 12% 12%
    x264 [info]: i4 v,h,dc,ddl,ddr,vr,hd,vl,hu: 10%  9%  4%  9% 14% 15% 14% 12% 13%
    x264 [info]: i8c dc,h,v,p: 45% 19% 18% 18%
    x264 [info]: Weighted P-Frames: Y:2.0% UV:1.0%
    x264 [info]: ref P L0: 52.5% 11.5% 26.1%  9.1%  0.8%  0.0%
    x264 [info]: ref B L0: 87.7% 10.2%  2.1%
    x264 [info]: ref B L1: 93.3%  6.7%
    x264 [info]: kb/s:7990.64

    Скриншоты

    -

    Релиз подготовлен для просмотра на Apple TV, iPad, iPhone, iPod Touch.
    Для просмотра данного релиза на компьютере с ОС Windows рекомендуется использовать VLC media player
    Скачать .torrent

    Скачать торрент-файл бесплатно и на максимальной скорости!

    Как скачивать? · Что такое торрент? · Рейтинг и ограничения

    !ВНИМАНИЕ!
    Сайт не распространяет и не хранит электронные версии произведений, а занимается лишь лишь предоставлением доступа к создаваемому пользователями каталогу ссылок на торрент-файлы, которые содержат только списки хеш-сумм, убедительная просьба с жалобами обращаться напрямую к пользователю. Файлы для обмена на трекере предоставлены пользователями сайта, и администрация не несёт ответственности за их содержание. Просьба не заливать файлы, защищенные авторскими правами, а также файлы нелегального содержания!


    _________________
    [Профиль] [ЛС]
    Показать сообщения:    
    Ответить на тему

    Текущее время: Сегодня, в 04:04

    Часовой пояс: GMT + 2



    Вы не можете начинать темы
    Вы не можете отвечать на сообщения
    Вы не можете редактировать свои сообщения
    Вы не можете удалять свои сообщения
    Вы не можете голосовать в опросах
    Вы не можете прикреплять файлы к сообщениям
    Вы не можете скачивать файлы