BitTorrentTracker PerecTracker.org
BitTorrentTracker PerecTracker.org
    
Регистрация  ·  Вход
 
 · 
Забыли пароль?

  • [ATV3] Дорога в Голливуд / The D Train (Джеррад Пол / Jarrad Paul ) [2015, США, Комедия, BDRip, HD (1080p)] MVO + Original + sub (rus, eng, ukr)

    Ответить на тему
     
    Автор Сообщение

    Flirldrerve

    Создавать темы 27-Окт-2015 05:18

           

    [Цитировать]

    Дорога в Голливуд / The D Train
    «Every reunion needs a hero»
    5.585 / 10 5.20 / 10
    -Год выпуска: 2015
    Страна: США
    Жанр: Комедия
    Продолжительность: 01:41:10
    Перевод: Многоголосый закадровый (iTunes)
    Оригинальная аудиодорожка: Есть
    Cубтитры: Русские, Английские, Украинские
    Режиссёр: Джеррад Пол
    Сценарий: Джеррад Пол, Эндрю Моугел
    Продюсер: Дэвид Бернад, Джек Блэк, Бен Лэтэм-Джонс
    Оператор: Джиллз Натгенс
    Композитор: Эндрю Дост
    Художник: Этан Тобман, Мэган МакЛафлин, Пол Бланчард
    Монтаж: Терел Гибсон
    В ролях: Джек Блэк, Джеймс Марсден, Кэтрин Хан, Джеффри Тэмбор, Расселл Познер, Генри Жебровский, Кайл Борнхаймер, Майк Уайт, Коррина Лайонс, Донна ДюПлантье
    Сборы в США: $669 688
    Мировая премьера: 23 января 2015
    Описание: Герои этой истории — бывшие одноклассники, решившие устроить встречу выпускников. Один из них, в школе занимавшийся организацией мероприятий, решает сделать двадцатилетний юбилей выпуска самым запоминающимся в истории и стремится изо всех сил привезти на него самого популярного парня в школе, а ныне — актера-неудачника, снимающегося главным образом в рекламе, да и то не в самой лучшей.-Качество исходника: BDRemux (HDCLub)
    Качество: BDRip
    Тип: HD (1080p)
    Контейнер: M4V
    Видео: H.264, 1920x800, 2.40:1, 8 000 Kbps, 23.976 fps
    Аудио 1: Русский/Многоголосый закадровый (iTunes), AAC / 2.0 / 156 Kbps / 48.0 KHz
    Аудио 2: Английский/Оригинальная дорожка , AAC / 2.0 / 157 Kbps / 48.0 KHz
    Аудио 3: Английский/Оригинальная дорожка , AC-3 / 5.1 / 640 Kbps / 48.0 KHz
    Субтитры 1: Русские полные
    Субтитры 2: Английские полные
    Субтитры 3: Украинские полные
    -

    iTunes Meta Tags

    Sort Name: D Train
    XID: Apple:vendor_id:2015-837212
    contentID: 990284055
    Copyright: © 2015 Paramount Pictures.
    Screenwriters: Джеррад Пол, Эндрю Моугел
    Producers: Дэвид Бернад, Джек Блэк, Бен Лэтэм-Джонс
    Director: Эндрю Моугел, Джеррад Пол
    Cast: Джек Блэк, Джеймс Марсден, Кэтрин Хан, Джеффри Тэмбор, Расселл Познер, Генри Жебровский, Кайл Борнхаймер, Майк Уайт, Коррина Лайонс, Донна ДюПлантье
    Studio: Paramount Pictures
    Rating: 11
    Long Description: Герои этой истории - бывшие одноклассники, решившие устроить встречу выпускников. Один из них, в школе занимавшийся организацией мероприятий, решает сделать двадцатилетний юбилей выпуска самым запоминающимся в истории и стремится изо всех сил привезти на него самого популярного парня в школе, а ныне - актера-неудачника, снимающегося главным образом в рекламе, да и то не в самой лучшей.
    Description: Герои этой истории - бывшие одноклассники, решившие устроить встречу выпускников. Один из них, в школе занимавшийся организацией мероприятий, решает сделать двадцатилетний юбилей выпуска самым запоминающимся в истории и стремится изо всех сил привезти на него самого популярного парня в школе, а ныне - актера-неудачника, снимающегося главным образом в рекламе, да и то не в самой лучшей.
    Release Date: 2015-01-23T08:00:00Z
    Genre: Comedy
    Artist: Jarrad Paul & Andrew Mogel
    Name: The D Train

    MediaInfo

    General
    Complete name                            : /Users/imac/HandBrake/The D Train (1080p HD).m4v
    Format                                   : MPEG-4
    Codec ID                                 : M4V
    File size                                : 6.33 GiB
    Duration                                 : 1h 41mn
    Overall bit rate mode                    : Variable
    Overall bit rate                         : 8 953 Kbps
    Movie name                               : The D Train
    Performer                                : Jarrad Paul & Andrew Mogel
    Genre                                    : Comedy
    Recorded date                            : UTC 2015-01-23 08:00:00
    Encoded date                             : UTC 2015-09-17 20:52:42
    Tagged date                              : UTC 2015-09-17 20:54:11
    Copyright                                : © 2015 Paramount Pictures.
    Cover                                    : Yes
    sonm                                     : D Train
    desc                                     : Герои этой истории - бывшие одноклассники, решившие устроить встречу выпускников. Один из них, в школе занимавшийся организацией мероприятий, решает сделать двадцатилетний юбилей выпуска самым запоминающимся в истории и стремится изо всех сил привезти на него самого популярного парня в школе, а ныне - актера-неудачника, снимающегося главным образом в рекламе, да и то не в самой лучшей.
    ldes                                     : Герои этой истории - бывшие одноклассники, решившие устроить встречу выпускников. Один из них, в школе занимавшийся организацией мероприятий, решает сделать двадцатилетний юбилей выпуска самым запоминающимся в истории и стремится изо всех сил привезти на него самого популярного парня в школе, а ныне - актера-неудачника, снимающегося главным образом в рекламе, да и то не в самой лучшей.
    hdvd                                     : 2
    stik                                     : 9
    rtng                                     : 0
    cnID                                     : 990284055
    xid                                      : Apple:vendor_id:2015-837212
    iTunEXTC                                 : mpaa|R|400|
    iTunMOVI                                 : <?xml version=\"1.0\" encoding=\"UTF-8\"?> / <!DOCTYPE plist PUBLIC \"-//Apple//DTD PLIST 1.0//EN\" \"http://anonym.to/?http://www.apple.com/DTDs/PropertyList-1.0.dtd\"> / <plist version=\"1.0\"> / <dict> /  <key>cast</key> /  <array> /   <dict> /    <key>name</key> /    <string>Джек Блэк</string> /   </dict> /   <dict> /    <key>name</key> /    <string>Джеймс Марсден</string> /   </dict> /   <dict> /    <key>name</key> /    <string>Кэтрин Хан</string> /   </dict> /   <dict> /    <key>name</key> /    <string>Джеффри Тэмбор</string> /   </dict> /   <dict> /    <key>name</key> /    <string>Расселл Познер</string> /   </dict> /   <dict> /    <key>name</key> /    <string>Генри Жебровский</string> /   </dict> /   <dict> /    <key>name</key> /    <string>Кайл Борнхаймер</string> /   </dict> /   <dict> /    <key>name</key> /    <string>Майк Уайт</string> /   </dict> /   <dict> /    <key>name</key> /    <string>Коррина Лайонс</string> /   </dict> /   <dict> /    <key>name</key> /    <string>Донна ДюПлантье</string> /   </dict> /  </array> /  <key>directors</key> /  <array> /   <dict> /    <key>name</key> /    <string>Эндрю Моугел</string> /   </dict> /   <dict> /    <key>name</key> /    <string>Джеррад Пол</string> /   </dict> /  </array> /  <key>producers</key> /  <array> /   <dict> /    <key>name</key> /    <string>Дэвид Бернад</string> /   </dict> /   <dict> /    <key>name</key> /    <string>Джек Блэк</string> /   </dict> /   <dict> /    <key>name</key> /    <string>Бен Лэтэм-Джонс</string> /   </dict> /  </array> /  <key>screenwriters</key> /  <array> /   <dict> /    <key>name</key> /    <string>Джеррад Пол</string> /   </dict> /   <dict> /    <key>name</key> /    <string>Эндрю Моугел</string> /   </dict> /  </array> /  <key>studio</key> /  <string>Paramount Pictures</string> / </dict> / </plist>
    Video #1
    ID                                       : 1
    Format                                   : AVC
    Format/Info                              : Advanced Video Codec
    Format profile                           : High@L4.0
    Format settings, CABAC                   : Yes
    Format settings, ReFrames                : 4 frames
    Codec ID                                 : avc1
    Codec ID/Info                            : Advanced Video Coding
    Duration                                 : 1h 41mn
    Bit rate mode                            : Variable
    Bit rate                                 : 8 000 Kbps
    Width                                    : 1 920 pixels
    Height                                   : 800 pixels
    Display aspect ratio                     : 2.40:1
    Frame rate mode                          : Variable
    Frame rate                               : 23.976 fps
    Minimum frame rate                       : 23.974 fps
    Maximum frame rate                       : 23.981 fps
    Color space                              : YUV
    Chroma subsampling                       : 4:2:0
    Bit depth                                : 8 bits
    Scan type                                : Progressive
    Bits/(Pixel*Frame)                       : 0.217
    Stream size                              : 5.65 GiB (89%)
    Writing library                          : x264 core 142 r2479 dd79a61
    Encoding settings                        : cabac=1 / ref=4 / deblock=1:-2:-2 / analyse=0x3:0x133 / me=umh / subme=10 / psy=1 / psy_rd=1.00:0.15 / mixed_ref=1 / me_range=32 / chroma_me=1 / trellis=2 / 8x8dct=1 / cqm=0 / deadzone=21,11 / fast_pskip=0 / chroma_qp_offset=-3 / threads=36 / lookahead_threads=6 / sliced_threads=0 / nr=0 / decimate=0 / interlaced=0 / bluray_compat=0 / constrained_intra=0 / bframes=16 / b_pyramid=2 / b_adapt=2 / b_bias=0 / direct=3 / weightb=1 / open_gop=0 / weightp=2 / keyint=240 / keyint_min=24 / scenecut=40 / intra_refresh=0 / rc_lookahead=60 / rc=2pass / mbtree=1 / bitrate=8000 / ratetol=1.0 / qcomp=0.70 / qpmin=0 / qpmax=69 / qpstep=4 / cplxblur=20.0 / qblur=0.5 / vbv_maxrate=25000 / vbv_bufsize=25000 / nal_hrd=none / filler=0 / ip_ratio=1.40 / aq=1:1.00
    Language                                 : English
    Encoded date                             : UTC 2015-09-17 20:52:42
    Tagged date                              : UTC 2015-09-17 20:53:02
    Color primaries                          : BT.709-5, BT.1361, IEC 61966-2-4, SMPTE RP177
    Transfer characteristics                 : BT.709-5, BT.1361
    Matrix coefficients                      : BT.709-5, BT.1361, IEC 61966-2-4 709, SMPTE RP177
    Video #2
    ID                                       : 9
    Format                                   : JPEG
    Codec ID                                 : jpeg
    Duration                                 : 1h 41mn
    Bit rate mode                            : Variable
    Bit rate                                 : 544 bps
    Width                                    : 640 pixels
    Height                                   : 266 pixels
    Display aspect ratio                     : 2.40:1
    Frame rate mode                          : Variable
    Frame rate                               : 0.002 fps
    Minimum frame rate                       : 0.002 fps
    Maximum frame rate                       : 0.003 fps
    Color space                              : YUV
    Chroma subsampling                       : 4:2:0
    Bit depth                                : 8 bits
    Compression mode                         : Lossy
    Bits/(Pixel*Frame)                       : 1.598
    Stream size                              : 465 KiB (0%)
    Language                                 : English
    Encoded date                             : UTC 2015-09-17 20:53:10
    Tagged date                              : UTC 2015-09-17 20:53:10
    Audio #1
    ID                                       : 2
    Format                                   : AAC
    Format/Info                              : Advanced Audio Codec
    Format profile                           : LC
    Codec ID                                 : 40
    Duration                                 : 1h 41mn
    Bit rate mode                            : Variable
    Bit rate                                 : 156 Kbps
    Maximum bit rate                         : 250 Kbps
    Channel(s)                               : 2 channels
    Channel positions                        : Front: L R
    Sampling rate                            : 48.0 KHz
    Compression mode                         : Lossy
    Stream size                              : 113 MiB (2%)
    Language                                 : Russian
    Encoded date                             : UTC 2015-09-17 20:52:42
    Tagged date                              : UTC 2015-09-17 20:53:03
    Audio #2
    ID                                       : 3
    Format                                   : AAC
    Format/Info                              : Advanced Audio Codec
    Format profile                           : LC
    Codec ID                                 : 40
    Duration                                 : 1h 41mn
    Bit rate mode                            : Variable
    Bit rate                                 : 157 Kbps
    Maximum bit rate                         : 251 Kbps
    Channel(s)                               : 2 channels
    Channel positions                        : Front: L R
    Sampling rate                            : 48.0 KHz
    Compression mode                         : Lossy
    Stream size                              : 114 MiB (2%)
    Language                                 : English
    Encoded date                             : UTC 2015-09-17 20:52:42
    Tagged date                              : UTC 2015-09-17 20:53:03
    Audio #3
    ID                                       : 4
    Format                                   : AC-3
    Format/Info                              : Audio Coding 3
    Mode extension                           : CM (complete main)
    Format settings, Endianness              : Big
    Codec ID                                 : ac-3
    Duration                                 : 1h 41mn
    Bit rate mode                            : Constant
    Bit rate                                 : 640 Kbps
    Channel(s)                               : 6 channels
    Channel positions                        : Front: L C R, Side: L R, LFE
    Sampling rate                            : 48.0 KHz
    Bit depth                                : 16 bits
    Compression mode                         : Lossy
    Stream size                              : 463 MiB (7%)
    Language                                 : English
    Encoded date                             : UTC 2015-09-17 20:52:42
    Tagged date                              : UTC 2015-09-17 20:52:46
    Text #1
    ID                                       : 5
    Format                                   : Timed text
    Muxing mode                              : sbtl
    Codec ID                                 : tx3g
    Duration                                 : 1h 36mn
    Bit rate mode                            : Variable
    Bit rate                                 : 103 bps
    Stream size                              : 73.0 KiB (0%)
    Language                                 : Russian
    Encoded date                             : UTC 2015-09-17 20:52:42
    Tagged date                              : UTC 2015-09-17 20:52:42
    Text #2
    ID                                       : 6
    Format                                   : Timed text
    Muxing mode                              : sbtl
    Codec ID                                 : tx3g
    Duration                                 : 1h 35mn
    Bit rate mode                            : Variable
    Bit rate                                 : 75 bps
    Stream size                              : 52.4 KiB (0%)
    Language                                 : English
    Encoded date                             : UTC 2015-09-17 20:52:42
    Tagged date                              : UTC 2015-09-17 20:52:42
    Text #3
    ID                                       : 7
    Format                                   : Timed text
    Muxing mode                              : sbtl
    Codec ID                                 : tx3g
    Duration                                 : 1h 35mn
    Bit rate mode                            : Variable
    Bit rate                                 : 104 bps
    Stream size                              : 73.0 KiB (0%)
    Language                                 : Ukrainian
    Encoded date                             : UTC 2015-09-17 20:52:42
    Tagged date                              : UTC 2015-09-17 20:52:42
    Text #4
    ID                                       : 8
    Format                                   : Apple text
    Codec ID                                 : text
    Duration                                 : 1h 41mn
    Bit rate mode                            : Variable
    Bit rate                                 : 0 bps
    Stream size                              : 327 Bytes (0%)
    Language                                 : English
    Encoded date                             : UTC 2015-09-17 20:53:03
    Tagged date                              : UTC 2015-09-17 20:53:03
    Menu
    00:00:00.000                             : Chapter 1
    00:07:45.382                             : Chapter 2
    00:15:51.868                             : Chapter 3
    00:21:32.333                             : Chapter 4
    00:29:54.543                             : Chapter 5
    00:36:50.625                             : Chapter 6
    00:42:57.158                             : Chapter 7
    00:49:53.866                             : Chapter 8
    00:56:40.647                             : Chapter 9
    01:03:37.605                             : Chapter 10
    01:12:43.484                             : Chapter 11
    01:19:02.696                             : Chapter 12
    01:26:47.994                             : Chapter 13
    01:35:41.319                             : Chapter 14

    x264 лог

    x264 [info]: frame I:1144  Avg QP:13.10  size:190745
    x264 [info]: frame P:28289 Avg QP:16.11  size: 74364
    x264 [info]: frame B:116112 Avg QP:16.39  size: 32221
    x264 [info]: consecutive B-frames:  1.9%  1.6%  8.4%  6.9% 13.4% 50.8%  6.5%  1.0%  1.7%  1.1%  1.1%  0.4%  1.4%  1.6%  0.5%  0.3%  1.3%
    x264 [info]: mb I  I16..4: 13.0% 73.6% 13.5%
    x264 [info]: mb P  I16..4:  2.3% 22.0%  1.2%  P16..4: 34.1% 20.5% 11.6%  0.4%  0.1%    skip: 7.7%
    x264 [info]: mb B  I16..4:  0.4%  4.0%  0.1%  B16..8: 34.6% 14.1%  3.7%  direct: 8.0%  skip:35.1%  L0:42.7% L1:41.7% BI:15.6%
    x264 [info]: 8x8 transform intra:86.1% inter:42.9%
    x264 [info]: direct mvs  spatial:99.3% temporal:0.7%
    x264 [info]: coded y,uvDC,uvAC intra: 88.5% 92.7% 85.6% inter: 27.2% 34.3% 20.2%
    x264 [info]: i16 v,h,dc,p: 44%  9% 11% 37%
    x264 [info]: i8 v,h,dc,ddl,ddr,vr,hd,vl,hu: 12%  9% 20%  9% 10% 10%  9% 10% 11%
    x264 [info]: i4 v,h,dc,ddl,ddr,vr,hd,vl,hu: 15% 10%  6%  9% 14% 14% 12% 10% 10%
    x264 [info]: i8c dc,h,v,p: 62% 13% 13% 12%
    x264 [info]: Weighted P-Frames: Y:1.6% UV:0.5%
    x264 [info]: ref P L0: 47.6%  6.9% 32.2% 12.3%  0.9%  0.0%
    x264 [info]: ref B L0: 80.5% 16.1%  3.4%
    x264 [info]: ref B L1: 89.8% 10.2%
    x264 [info]: kb/s:7990.36

    Скриншоты

    -

    Релиз подготовлен для просмотра на Apple TV, iPad, iPhone, iPod Touch.
    Для просмотра данного релиза на компьютере с ОС Windows рекомендуется использовать VLC media player
    Скачать .torrent

    Скачать торрент-файл бесплатно и на максимальной скорости!

    Как скачивать? · Что такое торрент? · Рейтинг и ограничения

    !ВНИМАНИЕ!
    Сайт не распространяет и не хранит электронные версии произведений, а занимается лишь лишь предоставлением доступа к создаваемому пользователями каталогу ссылок на торрент-файлы, которые содержат только списки хеш-сумм, убедительная просьба с жалобами обращаться напрямую к пользователю. Файлы для обмена на трекере предоставлены пользователями сайта, и администрация не несёт ответственности за их содержание. Просьба не заливать файлы, защищенные авторскими правами, а также файлы нелегального содержания!


    _________________
    [Профиль] [ЛС]
    Показать сообщения:    
    Ответить на тему

    Текущее время: Сегодня, в 06:12

    Часовой пояс: GMT + 2



    Вы не можете начинать темы
    Вы не можете отвечать на сообщения
    Вы не можете редактировать свои сообщения
    Вы не можете удалять свои сообщения
    Вы не можете голосовать в опросах
    Вы не можете прикреплять файлы к сообщениям
    Вы не можете скачивать файлы