BitTorrentTracker PerecTracker.org
BitTorrentTracker PerecTracker.org
    
Регистрация  ·  Вход
 
 · 
Забыли пароль?

  • Полночь в Париже / Midnight in Paris (Вуди Аллен) [2011, США, Испания, фэнтези, мелодрама, комедия, BDRip HD (1080p, 720p), SD (480p)] DUB, Original + SUB (rus, eng)

    Ответить на тему
     
    Автор Сообщение

    Flirldrerve

    Создавать темы 27-Окт-2015 05:18

           

    [Цитировать]

    Полночь в Париже / Midnight in Paris
    7.883 / 10
    -Год выпуска: 2011
    Страна: США, Испания
    Жанр: фэнтези, мелодрама, комедия
    Продолжительность: 93 мин.
    Перевод: Профессиональный дублированный перевод
    Оригинальная аудиодорожка: Есть
    Cубтитры: Русские форсированные, русские полные и английские полные
    Режиссёр: Вуди Аллен
    Сценарий: Вуди Аллен
    Продюсер: Летти Аронсон, Хауме Роурес, Стивен Тененбаум
    Оператор: Дариус Хонджи
    Художник: Анна Зейбель, Жан-Ив Рабье, Соня Гранде
    Монтаж: Алиса Лепселтер
    В ролях: Оуэн Уилсон, Марион Котийяр, Рэйчел МакАдамс, Майкл Шин, Кэти Бейтс, Леа Сейду, Курт Фуллер, Мими Кеннеди, Том Хиддлстон, Кори Столл
    Роли дублировали: Пётр Иващенко, Татьяна Шитова, Рамиля Искандер, Илья Бледный, Ольга Кузнецова
    Бюджет: $17 000 000
    Сборы в США: $56 817 045
    Сборы в мире: + $94 302 174 = $151 119 219
    Сборы в России: $2 331 401
    Мировая премьера: 11 мая 2011
    Премьера (РФ): 6 октября 2011, Централ Партнершип
    Релиз на Blu-Ray: 22 марта 2012, Новый Диск
    Релиз на DVD: 15 марта 2012, Новый Диск
    Описание: Писатель и безнадежный романтик, уверенный в том, что должен был жить в 1920-е годы, приезжает в Париж со своей возлюбленной на каникулы и попадает в прошлое. Встречаясь там с Хемингуэем, Пикассо, супругами Фицджеральдами, Гертрудой Стайн, он понимает, что принадлежит этому времени и хочет остаться там навсегда.-Качество исходника: Blu-Ray 1080p (BlueBird)
    Качество: BDRip
    Тип: 480p 720p 1080p
    Контейнер: m4v
    Видео: 640x480 анаморф 852x480 at 24.000 fps, MPEG-4 AVC, ~1800 kbps avg
    Видео: 1280x720 at 24.000 fps, MPEG-4 AVC, ~5000 kbps avg
    Видео: 1920x1080 at 24.000 fps, MPEG-4 AVC, ~8500 kbps avg
    Аудио#1: Russian: 48 kHz, ААС, 2/0 (L,R), ~128.00 / 192.00 kbps avg |Дубляж|
    Аудио#2: English: 48 kHz, ААС, 2/0 (L,R), ~128.00 / 192.00 kbps avg
    Аудио#3: Russian: 48 kHz, AC3, 3/0 (L,C,R), ~448.00 kbps avg |Дубляж|
    Аудио#4: English: 48 kHz, AC3, 3/0 (L,C,R), ~448.00 kbps avg
    Субтитры №1: Russian: |Форсированные|
    Субтитры №2: Russian: |Полные|
    Субтитры №3: English: |Полные|-

    Знаете ли Вы, что...
  • На постере фильма Оуэн Уилсон изображен гуляющим на фоне знаменитой картины Ван Гога «Звездная ночь» (1889-90 годы).
  • Картина, которую рисует Пикассо в фильме — это «Купальщицы 4» (1928 год). В то время он уже год как был в отношениях с Марией Терезой Вальтер, которая была героиней нескольких его картин, а через пару лет родила ему дочь.
    -

    iTunes Meta Tags for country ru

    Name: Полночь в Париже
    Artist: Woody Allen
    Genre: Comedy
    Release Date: 2011-05-11T08:00:00Z
    Description: Писатель и безнадежный романтик приезжает в Париж со своей возлюбленной на каникулы и попадает в прошлое...
    Long Description: Писатель и безнадежный романтик, уверенный в том, что должен был жить в 1920-е годы, приезжает в Париж со своей возлюбленной на каникулы и попадает в прошлое. Встречаясь там с Хемингуэем, Пикассо, супругами Фицджеральдами, Гертрудой Стайн, он понимает, что принадлежит этому времени и хочет остаться там навсегда.
    Rating: 16+
    Rating Annotation: Rated 16+ Зрителям, не моложе 16 лет
    Studio: Gravier Productions, Mediapro
    Cast: Оуэн Уилсон, Марион Котийяр, Рэйчел МакАдамс, Майкл Шин, Кэти Бейтс, Леа Сейду, Курт Фуллер, Мими Кеннеди, Том Хиддлстон, Кори Столл
    Director: Вуди Аллен
    Producers: Летти Аронсон, Хауме Роурес, Стивен Тененбаум
    Screenwriters: Вуди Аллен
    Copyright: © 2011 Gravier Productions
    contentID: 809922329
    XID: Apple:vendor_id:2011-504465
    Sort Name: Полночь в Париже

    iTunes Meta Tags for country us

    Name: Midnight in Paris
    Artist: Woody Allen
    Genre: Comedy
    Release Date: 2011-05-11T08:00:00Z
    Description: Писатель и безнадежный романтик приезжает в Париж со своей возлюбленной на каникулы и попадает в прошлое...
    Long Description: Писатель и безнадежный романтик, уверенный в том, что должен был жить в 1920-е годы, приезжает в Париж со своей возлюбленной на каникулы и попадает в прошлое. Встречаясь там с Хемингуэем, Пикассо, супругами Фицджеральдами, Гертрудой Стайн, он понимает, что принадлежит этому времени и хочет остаться там навсегда.
    Rating: PG-13
    Rating Annotation: Rated PG-13 Some sexual references and smoking.
    Studio: Gravier Productions, Inc.; Mediaproduccion, S.L.
    Cast: Оуэн Уилсон, Марион Котийяр, Рэйчел МакАдамс, Майкл Шин, Кэти Бейтс, Леа Сейду, Курт Фуллер, Мими Кеннеди, Том Хиддлстон, Кори Столл
    Director: Вуди Аллен
    Producers: Летти Аронсон, Хауме Роурес, Стивен Тененбаум
    Screenwriters: Вуди Аллен
    Copyright: © 2011 Gravier Productions, Inc., Mediaproduccion S.L.U. and Versatil Cinema S.L. All Rights Reserved.
    contentID: 485597050
    XID: Apple:vendor_id:2011-504465
    Sort Name: Midnight in Paris

    MediaInfo 480p Release

    General
    Complete name : Midnight in Paris.m4v
    Format : MPEG-4
    Codec ID : M4V
    File size : 1.36 GiB
    Duration : 1h 33mn
    Overall bit rate mode : Variable
    Overall bit rate : 2 070 Kbps
    Movie name : Midnight in Paris
    Performer : Woody Allen
    Director : Вуди Аллен
    Actor : Оуэн Уилсон / Марион Котийяр / Рэйчел МакАдамс / Майкл Шин / Кэти Бейтс / Леа Сейду / Курт Фуллер / Мими Кеннеди / Том Хиддлстон / Кори Столл
    Screenplay by : Вуди Аллен
    Producer : Летти Аронсон / Хауме Роурес / Стивен Тененбаум
    Production studio : Gravier Productions, Inc.; Mediaproduccion, S.L.
    Genre : Comedy
    ContentType : Short Film
    Description : Писатель и безнадежный романтик приезжает в Париж со своей возлюбленной на каникулы и попадает в прошлое...
    Recorded date : UTC 2011-05-11 07:00:00
    Encoded date : UTC 2012-07-03 18:26:24
    Tagged date : UTC 2015-09-18 10:32:26
    Copyright : © 2011 Gravier Productions, Inc., Mediaproduccion, S.L.U. and Versatil Cinema S.L. All Rights Reserved.
    Cover : Yes
    Rating : None
    Title/Sort : Midnight in Paris
    LongDescription : Писатель и безнадежный романтик, уверенный в том, что должен был жить в 1920-е годы, приезжает в Париж со своей возлюбленной на каникулы и попадает в прошлое. Встречаясь там с Хемингуэем, Пикассо, супругами Фицжеральдами, Гертрудой Стайн он понимает, что принадлежит этому времени и хочет остаться там навсегда.
    AppleStoreCatalogID : 485597050
    Vendor : Apple:vendor_id:2011-504465
    ContentRating : mpaa|PG-13|300|Rated PG-13 Some sexual references and smoking.
    Video #1
    ID : 1
    Format : AVC
    Format/Info : Advanced Video Codec
    Format profile : Baseline@L3
    Format settings, CABAC : No
    Format settings, ReFrames : 2 frames
    Codec ID : avc1
    Codec ID/Info : Advanced Video Coding
    Duration : 1h 33mn
    Bit rate : 1 800 Kbps
    Width : 640 pixels
    Height : 480 pixels
    Display aspect ratio : 16:9
    Frame rate mode : Constant
    Frame rate : 24.000 fps
    Color space : YUV
    Chroma subsampling : 4:2:0
    Bit depth : 8 bits
    Scan type : Progressive
    Bits/(Pixel*Frame) : 0.244
    Stream size : 1.18 GiB (87%)
    Title : Main Program
    Writing library : x264 core 120
    Encoding settings : cabac=0 / ref=2 / deblock=1:0:0 / analyse=0x1:0x111 / me=umh / subme=6 / psy=1 / psy_rd=1.00:0.00 / mixed_ref=1 / me_range=16 / chroma_me=1 / trellis=0 / 8x8dct=0 / cqm=0 / deadzone=21,11 / fast_pskip=1 / chroma_qp_offset=-2 / threads=36 / sliced_threads=0 / nr=0 / decimate=1 / interlaced=0 / bluray_compat=0 / constrained_intra=0 / bframes=0 / weightp=0 / keyint=240 / keyint_min=24 / scenecut=40 / intra_refresh=0 / rc_lookahead=40 / rc=2pass / mbtree=1 / bitrate=1800 / ratetol=1.0 / qcomp=0.60 / qpmin=3 / qpmax=69 / qpstep=4 / cplxblur=20.0 / qblur=0.5 / vbv_maxrate=5000 / vbv_bufsize=5000 / nal_hrd=none / ip_ratio=1.40 / aq=1:1.00
    Language : English
    Encoded date : UTC 2012-07-03 18:26:24
    Tagged date : UTC 2012-07-03 18:27:08
    Color range : Limited
    Color primaries : BT.709
    Transfer characteristics : BT.709
    Matrix coefficients : BT.709
    Video #2
    ID : 8
    Format : JPEG
    Codec ID : jpeg
    Duration : 1h 33mn
    Bit rate mode : Variable
    Bit rate : 733 bps
    Width : 640 pixels
    Height : 360 pixels
    Display aspect ratio : 16:9
    Frame rate mode : Variable
    Frame rate : 0.002 fps
    Minimum frame rate : 0.001 fps
    Maximum frame rate : 0.005 fps
    Color space : YUV
    Chroma subsampling : 4:2:0
    Bit depth : 8 bits
    Compression mode : Lossy
    Bits/(Pixel*Frame) : 1.591
    Stream size : 537 KiB (0%)
    Title : Chapter Images
    Language : English
    Encoded date : UTC 2012-08-03 18:14:30
    Tagged date : UTC 2012-08-03 18:14:31
    Audio #1
    ID : 2
    Format : AAC
    Format/Info : Advanced Audio Codec
    Format profile : LC
    Codec ID : 40
    Duration : 1h 33mn
    Bit rate mode : Variable
    Bit rate : 132 Kbps
    Maximum bit rate : 217 Kbps
    Channel(s) : 2 channels
    Channel positions : Front: L R
    Sampling rate : 48.0 KHz
    Compression mode : Lossy
    Stream size : 88.2 MiB (6%)
    Title : Russian Stereo
    Language : Russian
    Encoded date : UTC 2012-07-03 18:26:24
    Tagged date : UTC 2012-07-03 18:26:33
    Audio #2
    ID : 3
    Format : AAC
    Format/Info : Advanced Audio Codec
    Format profile : LC
    Codec ID : 40
    Duration : 1h 33mn
    Bit rate mode : Variable
    Bit rate : 132 Kbps
    Maximum bit rate : 203 Kbps
    Channel(s) : 2 channels
    Channel positions : Front: L R
    Sampling rate : 48.0 KHz
    Compression mode : Lossy
    Stream size : 88.1 MiB (6%)
    Title : English Stereo
    Language : English
    Encoded date : UTC 2012-07-03 18:26:24
    Tagged date : UTC 2012-07-03 18:27:19
    Text #1
    ID : 4
    Format : Timed Text
    Muxing mode : sbtl
    Codec ID : tx3g
    Duration : 1h 33mn
    Bit rate mode : Variable
    Bit rate : 4 bps
    Stream size : 2.70 KiB (0%)
    Title : Russian Forced Subtitles
    Language : Russian
    Encoded date : UTC 2012-08-03 18:14:21
    Tagged date : UTC 2012-08-03 18:14:21
    Text #2
    ID : 5
    Format : Timed Text
    Muxing mode : sbtl
    Codec ID : tx3g
    Duration : 1h 33mn
    Bit rate mode : Variable
    Bit rate : 153 bps
    Stream size : 105 KiB (0%)
    Title : Russian Subtitles
    Language : Russian
    Encoded date : UTC 2012-08-03 18:14:21
    Tagged date : UTC 2012-08-03 18:14:21
    Text #3
    ID : 6
    Format : Timed Text
    Muxing mode : sbtl
    Codec ID : tx3g
    Duration : 1h 33mn
    Bit rate mode : Variable
    Bit rate : 101 bps
    Stream size : 69.7 KiB (0%)
    Title : English Subtitles
    Language : English
    Encoded date : UTC 2012-08-03 18:14:21
    Tagged date : UTC 2012-08-03 18:14:21
    Menu #1
    00:00:00.000 : Chapter 1
    00:08:57.871 : Chapter 2
    00:15:51.868 : Chapter 3
    00:28:56.818 : Chapter 4
    00:33:49.986 : Chapter 5
    00:41:49.048 : Chapter 6
    00:47:26.469 : Chapter 7
    00:58:08.110 : Chapter 8
    01:05:47.610 : Chapter 9
    01:13:39.457 : Chapter 10
    01:24:44.371 : Chapter 11
    01:30:34.012 : Chapter 12
    Menu #2
    ID : 7
    Codec ID : text
    Duration : 1h 33mn
    Title : Chapter Titles
    Language : English
    Encoded date : UTC 2012-08-03 18:14:21
    Tagged date : UTC 2012-08-03 18:14:21
    00:00:00.000 : Chapter 1
    00:08:57.871 : Chapter 2
    00:15:51.868 : Chapter 3
    00:28:56.818 : Chapter 4
    00:33:49.986 : Chapter 5
    00:41:49.048 : Chapter 6
    00:47:26.469 : Chapter 7
    00:58:08.110 : Chapter 8
    01:05:47.610 : Chapter 9
    01:13:39.457 : Chapter 10
    01:24:44.371 : Chapter 11
    01:30:34.012 : Chapter 12
    Bit rate mode : VBR

    MediaInfo 720p Release

    General
    Complete name : Midnight in Paris (HD).m4v
    Format : MPEG-4
    Codec ID : M4V
    File size : 4.13 GiB
    Duration : 1h 33mn
    Overall bit rate mode : Variable
    Overall bit rate : 6 299 Kbps
    Movie name : Midnight in Paris
    Performer : Woody Allen
    Director : Вуди Аллен
    Actor : Оуэн Уилсон / Марион Котийяр / Рэйчел МакАдамс / Майкл Шин / Кэти Бейтс / Леа Сейду / Курт Фуллер / Мими Кеннеди / Том Хиддлстон / Кори Столл
    Screenplay by : Вуди Аллен
    Producer : Летти Аронсон / Хауме Роурес / Стивен Тененбаум
    Production studio : Gravier Productions, Inc.; Mediaproduccion, S.L.
    Genre : Comedy
    ContentType : Short Film
    Description : Писатель и безнадежный романтик приезжает в Париж со своей возлюбленной на каникулы и попадает в прошлое...
    Recorded date : UTC 2011-05-11 07:00:00
    Encoded date : UTC 2012-07-03 16:55:51
    Tagged date : UTC 2015-09-18 10:29:54
    Copyright : © 2011 Gravier Productions, Inc., Mediaproduccion, S.L.U. and Versatil Cinema S.L. All Rights Reserved.
    Cover : Yes
    Rating : None
    Title/Sort : Midnight in Paris
    LongDescription : Писатель и безнадежный романтик, уверенный в том, что должен был жить в 1920-е годы, приезжает в Париж со своей возлюбленной на каникулы и попадает в прошлое. Встречаясь там с Хемингуэем, Пикассо, супругами Фицжеральдами, Гертрудой Стайн он понимает, что принадлежит этому времени и хочет остаться там навсегда.
    HDVideo : Yes
    AppleStoreCatalogID : 485597050
    Vendor : Apple:vendor_id:2011-504465
    ContentRating : mpaa|PG-13|300|Rated PG-13 Some sexual references and smoking.
    Video #1
    ID : 1
    Format : AVC
    Format/Info : Advanced Video Codec
    Format profile : High@L3.1
    Format settings, CABAC : No
    Format settings, ReFrames : 3 frames
    Codec ID : avc1
    Codec ID/Info : Advanced Video Coding
    Duration : 1h 33mn
    Bit rate : 5 000 Kbps
    Width : 1 280 pixels
    Height : 720 pixels
    Display aspect ratio : 16:9
    Frame rate mode : Constant
    Frame rate : 24.000 fps
    Color space : YUV
    Chroma subsampling : 4:2:0
    Bit depth : 8 bits
    Scan type : Progressive
    Bits/(Pixel*Frame) : 0.226
    Stream size : 3.28 GiB (79%)
    Title : Main Program
    Writing library : x264 core 120
    Encoding settings : cabac=0 / ref=3 / deblock=1:-2:-1 / analyse=0x3:0x113 / me=umh / subme=9 / psy=1 / psy_rd=0.90:0.25 / mixed_ref=1 / me_range=32 / chroma_me=1 / trellis=0 / 8x8dct=1 / cqm=0 / deadzone=6,6 / fast_pskip=0 / chroma_qp_offset=-2 / threads=36 / sliced_threads=0 / nr=0 / decimate=0 / interlaced=0 / bluray_compat=0 / constrained_intra=0 / bframes=3 / b_pyramid=0 / b_adapt=2 / b_bias=0 / direct=1 / weightb=0 / open_gop=0 / weightp=0 / keyint=240 / keyint_min=24 / scenecut=40 / intra_refresh=0 / rc_lookahead=40 / rc=2pass / mbtree=1 / bitrate=5000 / ratetol=1.0 / qcomp=0.60 / qpmin=0 / qpmax=51 / qpstep=4 / cplxblur=20.0 / qblur=0.5 / vbv_maxrate=9500 / vbv_bufsize=9500 / nal_hrd=none / ip_ratio=1.40 / aq=1:1.10
    Language : English
    Encoded date : UTC 2012-07-03 16:55:51
    Tagged date : UTC 2012-07-03 16:57:30
    Color range : Limited
    Color primaries : BT.709
    Transfer characteristics : BT.709
    Matrix coefficients : BT.709
    Video #2
    ID : 10
    Format : JPEG
    Codec ID : jpeg
    Duration : 1h 33mn
    Bit rate mode : Variable
    Bit rate : 792 bps
    Width : 640 pixels
    Height : 360 pixels
    Display aspect ratio : 16:9
    Frame rate mode : Variable
    Frame rate : 0.002 fps
    Minimum frame rate : 0.001 fps
    Maximum frame rate : 0.005 fps
    Color space : YUV
    Chroma subsampling : 4:2:0
    Bit depth : 8 bits
    Compression mode : Lossy
    Bits/(Pixel*Frame) : 1.719
    Stream size : 580 KiB (0%)
    Title : Chapter Images
    Language : English
    Encoded date : UTC 2012-08-03 18:16:24
    Tagged date : UTC 2012-08-03 18:16:24
    Audio #1
    ID : 2
    Format : AAC
    Format/Info : Advanced Audio Codec
    Format profile : LC
    Codec ID : 40
    Duration : 1h 33mn
    Bit rate mode : Variable
    Bit rate : 197 Kbps
    Maximum bit rate : 313 Kbps
    Channel(s) : 2 channels
    Channel positions : Front: L R
    Sampling rate : 48.0 KHz
    Compression mode : Lossy
    Stream size : 132 MiB (3%)
    Title : Russian Stereo
    Language : Russian
    Encoded date : UTC 2012-07-03 16:55:51
    Tagged date : UTC 2012-07-03 16:56:01
    Audio #2
    ID : 3
    Format : AAC
    Format/Info : Advanced Audio Codec
    Format profile : LC
    Codec ID : 40
    Duration : 1h 33mn
    Bit rate mode : Variable
    Bit rate : 197 Kbps
    Maximum bit rate : 296 Kbps
    Channel(s) : 2 channels
    Channel positions : Front: L R
    Sampling rate : 48.0 KHz
    Compression mode : Lossy
    Stream size : 132 MiB (3%)
    Title : English Stereo
    Language : English
    Encoded date : UTC 2012-07-03 16:55:51
    Tagged date : UTC 2012-07-03 16:57:39
    Audio #3
    ID : 4
    Format : AC-3
    Format/Info : Audio Coding 3
    Mode extension : CM (complete main)
    Format settings, Endianness : Big
    Codec ID : ac-3
    Duration : 1h 33mn
    Bit rate mode : Constant
    Bit rate : 448 Kbps
    Channel(s) : 3 channels
    Channel positions : Front: L C R
    Sampling rate : 48.0 KHz
    Bit depth : 16 bits
    Compression mode : Lossy
    Stream size : 301 MiB (7%)
    Title : Russian DD 3.0
    Language : Russian
    Encoded date : UTC 2012-07-03 16:55:51
    Tagged date : UTC 2012-07-03 16:57:48
    Audio #4
    ID : 5
    Format : AC-3
    Format/Info : Audio Coding 3
    Mode extension : CM (complete main)
    Format settings, Endianness : Big
    Codec ID : ac-3
    Duration : 1h 33mn
    Bit rate mode : Constant
    Bit rate : 448 Kbps
    Channel(s) : 3 channels
    Channel positions : Front: L C R
    Sampling rate : 48.0 KHz
    Bit depth : 16 bits
    Compression mode : Lossy
    Stream size : 301 MiB (7%)
    Title : English DD 3.0
    Language : English
    Encoded date : UTC 2012-07-03 16:55:51
    Tagged date : UTC 2012-07-03 16:57:57
    Text #1
    ID : 6
    Format : Timed Text
    Muxing mode : sbtl
    Codec ID : tx3g
    Duration : 1h 33mn
    Bit rate mode : Variable
    Bit rate : 4 bps
    Stream size : 2.70 KiB (0%)
    Title : Russian Forced Subtitles
    Language : Russian
    Encoded date : UTC 2012-08-03 18:16:15
    Tagged date : UTC 2012-08-03 18:16:15
    Text #2
    ID : 7
    Format : Timed Text
    Muxing mode : sbtl
    Codec ID : tx3g
    Duration : 1h 33mn
    Bit rate mode : Variable
    Bit rate : 153 bps
    Stream size : 105 KiB (0%)
    Title : Russian Subtitles
    Language : Russian
    Encoded date : UTC 2012-08-03 18:16:15
    Tagged date : UTC 2012-08-03 18:16:15
    Text #3
    ID : 8
    Format : Timed Text
    Muxing mode : sbtl
    Codec ID : tx3g
    Duration : 1h 33mn
    Bit rate mode : Variable
    Bit rate : 101 bps
    Stream size : 69.7 KiB (0%)
    Title : English Subtitles
    Language : English
    Encoded date : UTC 2012-08-03 18:16:15
    Tagged date : UTC 2012-08-03 18:16:15
    Menu #1
    00:00:00.000 : Chapter 1
    00:08:57.871 : Chapter 2
    00:15:51.868 : Chapter 3
    00:28:56.818 : Chapter 4
    00:33:49.986 : Chapter 5
    00:41:49.048 : Chapter 6
    00:47:26.469 : Chapter 7
    00:58:08.110 : Chapter 8
    01:05:47.610 : Chapter 9
    01:13:39.457 : Chapter 10
    01:24:44.371 : Chapter 11
    01:30:34.012 : Chapter 12
    Menu #2
    ID : 9
    Codec ID : text
    Duration : 1h 33mn
    Title : Chapter Titles
    Language : English
    Encoded date : UTC 2012-08-03 18:16:15
    Tagged date : UTC 2012-08-03 18:16:15
    00:00:00.000 : Chapter 1
    00:08:57.871 : Chapter 2
    00:15:51.868 : Chapter 3
    00:28:56.818 : Chapter 4
    00:33:49.986 : Chapter 5
    00:41:49.048 : Chapter 6
    00:47:26.469 : Chapter 7
    00:58:08.110 : Chapter 8
    01:05:47.610 : Chapter 9
    01:13:39.457 : Chapter 10
    01:24:44.371 : Chapter 11
    01:30:34.012 : Chapter 12
    Bit rate mode : VBR

    MediaInfo 1080p Release

    General
    Complete name : Midnight in Paris (1080p HD).m4v
    Format : MPEG-4
    Codec ID : M4V
    File size : 6.42 GiB
    Duration : 1h 33mn
    Overall bit rate mode : Variable
    Overall bit rate : 9 798 Kbps
    Movie name : Midnight in Paris
    Performer : Woody Allen
    Director : Вуди Аллен
    Actor : Оуэн Уилсон / Марион Котийяр / Рэйчел МакАдамс / Майкл Шин / Кэти Бейтс / Леа Сейду / Курт Фуллер / Мими Кеннеди / Том Хиддлстон / Кори Столл
    Screenplay by : Вуди Аллен
    Producer : Летти Аронсон / Хауме Роурес / Стивен Тененбаум
    Production studio : Gravier Productions, Inc.; Mediaproduccion, S.L.
    Genre : Comedy
    ContentType : Short Film
    Description : Писатель и безнадежный романтик приезжает в Париж со своей возлюбленной на каникулы и попадает в прошлое...
    Recorded date : UTC 2011-05-11 07:00:00
    Encoded date : UTC 2012-07-03 18:01:10
    Tagged date : UTC 2015-09-18 10:13:30
    Copyright : © 2011 Gravier Productions, Inc., Mediaproduccion, S.L.U. and Versatil Cinema S.L. All Rights Reserved.
    Cover : Yes
    Rating : None
    Title/Sort : Midnight in Paris
    LongDescription : Писатель и безнадежный романтик, уверенный в том, что должен был жить в 1920-е годы, приезжает в Париж со своей возлюбленной на каникулы и попадает в прошлое. Встречаясь там с Хемингуэем, Пикассо, супругами Фицжеральдами, Гертрудой Стайн он понимает, что принадлежит этому времени и хочет остаться там навсегда.
    AppleStoreCatalogID : 485597050
    Vendor : Apple:vendor_id:2011-504465
    ContentRating : mpaa|PG-13|300|Rated PG-13 Some sexual references and smoking.
    Video #1
    ID : 1
    Format : AVC
    Format/Info : Advanced Video Codec
    Format profile : High@L4
    Format settings, CABAC : Yes
    Format settings, ReFrames : 4 frames
    Codec ID : avc1
    Codec ID/Info : Advanced Video Coding
    Duration : 1h 33mn
    Bit rate : 8 497 Kbps
    Width : 1 920 pixels
    Height : 1 080 pixels
    Display aspect ratio : 16:9
    Frame rate mode : Constant
    Frame rate : 24.000 fps
    Color space : YUV
    Chroma subsampling : 4:2:0
    Bit depth : 8 bits
    Scan type : Progressive
    Bits/(Pixel*Frame) : 0.171
    Stream size : 5.57 GiB (87%)
    Title : Main Program
    Writing library : x264 core 120
    Encoding settings : cabac=1 / ref=4 / deblock=1:-2:-1 / analyse=0x3:0x133 / me=umh / subme=10 / psy=1 / psy_rd=0.90:0.25 / mixed_ref=1 / me_range=32 / chroma_me=1 / trellis=2 / 8x8dct=1 / cqm=0 / deadzone=6,6 / fast_pskip=0 / chroma_qp_offset=-4 / threads=36 / sliced_threads=0 / nr=0 / decimate=0 / interlaced=0 / bluray_compat=0 / constrained_intra=0 / bframes=4 / b_pyramid=2 / b_adapt=2 / b_bias=0 / direct=3 / weightb=1 / open_gop=0 / weightp=2 / keyint=240 / keyint_min=24 / scenecut=40 / intra_refresh=0 / rc_lookahead=60 / rc=crf / mbtree=1 / crf=21.0 / qcomp=0.60 / qpmin=0 / qpmax=69 / qpstep=4 / vbv_maxrate=25000 / vbv_bufsize=25000 / crf_max=0.0 / nal_hrd=none / ip_ratio=1.40 / aq=1:1.10
    Language : English
    Encoded date : UTC 2012-07-03 18:01:10
    Tagged date : UTC 2012-07-03 18:10:07
    Color range : Limited
    Color primaries : BT.709
    Transfer characteristics : BT.709
    Matrix coefficients : BT.709
    Video #2
    ID : 10
    Format : JPEG
    Codec ID : jpeg
    Duration : 1h 33mn
    Bit rate mode : Variable
    Bit rate : 798 bps
    Width : 640 pixels
    Height : 360 pixels
    Display aspect ratio : 16:9
    Frame rate mode : Variable
    Frame rate : 0.002 fps
    Minimum frame rate : 0.001 fps
    Maximum frame rate : 0.005 fps
    Color space : YUV
    Chroma subsampling : 4:2:0
    Bit depth : 8 bits
    Compression mode : Lossy
    Bits/(Pixel*Frame) : 1.732
    Stream size : 584 KiB (0%)
    Title : Chapter Images
    Language : English
    Encoded date : UTC 2012-08-03 18:31:46
    Tagged date : UTC 2012-08-03 18:31:47
    Audio #1
    ID : 2
    Format : AAC
    Format/Info : Advanced Audio Codec
    Format profile : LC
    Codec ID : 40
    Duration : 1h 33mn
    Bit rate mode : Variable
    Bit rate : 197 Kbps
    Maximum bit rate : 313 Kbps
    Channel(s) : 2 channels
    Channel positions : Front: L R
    Sampling rate : 48.0 KHz
    Compression mode : Lossy
    Stream size : 132 MiB (2%)
    Title : Russian Stereo
    Language : Russian
    Encoded date : UTC 2012-07-03 18:01:10
    Tagged date : UTC 2012-07-03 18:02:51
    Audio #2
    ID : 3
    Format : AAC
    Format/Info : Advanced Audio Codec
    Format profile : LC
    Codec ID : 40
    Duration : 1h 33mn
    Bit rate mode : Variable
    Bit rate : 197 Kbps
    Maximum bit rate : 296 Kbps
    Channel(s) : 2 channels
    Channel positions : Front: L R
    Sampling rate : 48.0 KHz
    Compression mode : Lossy
    Stream size : 132 MiB (2%)
    Title : English Stereo
    Language : English
    Encoded date : UTC 2012-07-03 18:01:10
    Tagged date : UTC 2012-07-03 18:04:16
    Audio #3
    ID : 4
    Format : AC-3
    Format/Info : Audio Coding 3
    Mode extension : CM (complete main)
    Format settings, Endianness : Big
    Codec ID : ac-3
    Duration : 1h 33mn
    Bit rate mode : Constant
    Bit rate : 448 Kbps
    Channel(s) : 3 channels
    Channel positions : Front: L C R
    Sampling rate : 48.0 KHz
    Bit depth : 16 bits
    Compression mode : Lossy
    Stream size : 301 MiB (5%)
    Title : Russian DD 3.0
    Language : Russian
    Encoded date : UTC 2012-07-03 18:01:10
    Tagged date : UTC 2012-07-03 18:05:41
    Audio #4
    ID : 5
    Format : AC-3
    Format/Info : Audio Coding 3
    Mode extension : CM (complete main)
    Format settings, Endianness : Big
    Codec ID : ac-3
    Duration : 1h 33mn
    Bit rate mode : Constant
    Bit rate : 448 Kbps
    Channel(s) : 3 channels
    Channel positions : Front: L C R
    Sampling rate : 48.0 KHz
    Bit depth : 16 bits
    Compression mode : Lossy
    Stream size : 301 MiB (5%)
    Title : English DD 3.0
    Language : English
    Encoded date : UTC 2012-07-03 18:01:10
    Tagged date : UTC 2012-07-03 18:07:05
    Text #1
    ID : 6
    Format : Timed Text
    Muxing mode : sbtl
    Codec ID : tx3g
    Duration : 1h 33mn
    Bit rate mode : Variable
    Bit rate : 4 bps
    Stream size : 2.70 KiB (0%)
    Title : Russian Forced Subtitles
    Language : Russian
    Encoded date : UTC 2012-08-03 18:31:01
    Tagged date : UTC 2012-08-03 18:31:02
    Text #2
    ID : 7
    Format : Timed Text
    Muxing mode : sbtl
    Codec ID : tx3g
    Duration : 1h 33mn
    Bit rate mode : Variable
    Bit rate : 153 bps
    Stream size : 105 KiB (0%)
    Title : Russian Subtitles
    Language : Russian
    Encoded date : UTC 2012-08-03 18:31:01
    Tagged date : UTC 2012-08-03 18:31:17
    Text #3
    ID : 8
    Format : Timed Text
    Muxing mode : sbtl
    Codec ID : tx3g
    Duration : 1h 33mn
    Bit rate mode : Variable
    Bit rate : 101 bps
    Stream size : 69.7 KiB (0%)
    Title : English Subtitles
    Language : English
    Encoded date : UTC 2012-08-03 18:31:01
    Tagged date : UTC 2012-08-03 18:31:26
    Menu #1
    00:00:00.000 : Chapter 1
    00:08:57.871 : Chapter 2
    00:15:51.868 : Chapter 3
    00:28:56.818 : Chapter 4
    00:33:49.986 : Chapter 5
    00:41:49.048 : Chapter 6
    00:47:26.469 : Chapter 7
    00:58:08.110 : Chapter 8
    01:05:47.610 : Chapter 9
    01:13:39.457 : Chapter 10
    01:24:44.371 : Chapter 11
    01:30:34.012 : Chapter 12
    Menu #2
    ID : 9
    Codec ID : text
    Duration : 1h 33mn
    Title : Chapter Titles
    Language : English
    Encoded date : UTC 2012-08-03 18:31:26
    Tagged date : UTC 2012-08-03 18:31:26
    00:00:00.000 : Chapter 1
    00:08:57.871 : Chapter 2
    00:15:51.868 : Chapter 3
    00:28:56.818 : Chapter 4
    00:33:49.986 : Chapter 5
    00:41:49.048 : Chapter 6
    00:47:26.469 : Chapter 7
    00:58:08.110 : Chapter 8
    01:05:47.610 : Chapter 9
    01:13:39.457 : Chapter 10
    01:24:44.371 : Chapter 11
    01:30:34.012 : Chapter 12
    Bit rate mode : VBR

    x264 лог 480p Release

    HandBrakeCLI -i "/MIDNIGHT_IN_PARIS_BDLUBIRD/BDMV/STREAM/00005.m2ts" -t 1 -o "Midnight in Paris.m4v" -f mp4 -I  -O  -w 640 -l 480 --crop 0:0:0:0 --custom-anamorphic  --modulus 4 --pixel-aspect 852:640  -e x264 -b 1800 -2  -a none  -x cabac=0:ref=2:me=umh:bframes=0:weightp=0:subq=6:8x8dct=0:trellis=0:vbv-maxrate=5000:vbv-bufsize=5000 --verbose=1
    x264 [info]: frame I:875   Avg QP:15.64  size: 51523  PSNR Mean Y:47.98 U:49.70 V:50.53 Avg:48.55 Global:47.54
    x264 [info]: frame P:134254 Avg QP:18.89  size:  9094  PSNR Mean Y:45.34 U:46.55 V:47.54 Avg:45.80 Global:44.83
    x264 [info]: mb I  I16..4: 20.1%  0.0% 79.9%
    x264 [info]: mb P  I16..4:  0.3%  0.0%  0.8%  P16..4: 47.1% 22.6% 10.2%  0.0%  0.0%    skip:19.0%
    x264 [info]: coded y,uvDC,uvAC intra: 74.0% 86.7% 78.1% inter: 26.8% 35.5% 17.3%
    x264 [info]: i16 v,h,dc,p: 55%  8%  8% 29%
    x264 [info]: i4 v,h,dc,ddl,ddr,vr,hd,vl,hu: 31% 12% 14%  6%  8% 10%  6%  8%  5%
    x264 [info]: i8c dc,h,v,p: 47% 12% 30% 11%
    x264 [info]: ref P L0: 71.1% 28.9%
    x264 [info]: SSIM Mean Y:0.9841740 (18.006db)
    x264 [info]: PSNR Mean Y:45.358 U:46.570 V:47.555 Avg:45.820 Global:44.843 kb/s:1798.71

    x264 лог 720p Release

    HandBrakeCLI -i "/MIDNIGHT_IN_PARIS_BDLUBIRD/BDMV/STREAM/00005.m2ts" -t 1 -o "Midnight in Paris (HD).m4v" -f mp4 -4  -O  -w 1280 -l 720 --crop 0:0:0:0 --modulus 16 -e x264 -b 5000 -2  -a none  -x cabac=0:ref=3:me=umh:b-pyramid=none:b-adapt=2:weightb=0:trellis=0:weightp=0:vbv-maxrate=9500:vbv-bufsize=9500:subq=9:merange=32:deblock=-2,-1:qcomp=0.60:qpmin=0:qpmax=51:fast_pskip=0:aq-strength=1.1:no-dct-decimate=1:psy-rd=0.90,0.25:deadzone-inter=6:deadzone-intra=6 --verbose=1
    x264 [info]: frame I:829   Avg QP:16.53  size:139011  PSNR Mean Y:47.49 U:48.82 V:50.07 Avg:48.01 Global:47.22
    x264 [info]: frame P:45111 Avg QP:19.54  size: 57879  PSNR Mean Y:46.01 U:46.89 V:48.47 Avg:46.44 Global:45.18
    x264 [info]: frame B:89189 Avg QP:22.08  size:  8873  PSNR Mean Y:44.06 U:45.52 V:47.64 Avg:44.68 Global:43.81
    x264 [info]: consecutive B-frames:  2.1%  5.9% 71.7% 20.4%
    x264 [info]: mb I  I16..4: 12.9% 59.0% 28.1%
    x264 [info]: mb P  I16..4:  0.9%  3.7%  1.0%  P16..4: 48.0% 26.3% 12.6%  0.0%  0.0%    skip: 7.5%
    x264 [info]: mb B  I16..4:  0.1%  0.2%  0.1%  B16..8: 37.8%  6.9%  1.0%  direct: 2.9%  skip:51.1%  L0:38.9% L1:49.8% BI:11.3%
    x264 [info]: 8x8 transform intra:63.9% inter:40.3%
    x264 [info]: coded y,uvDC,uvAC intra: 84.0% 86.7% 72.2% inter: 29.3% 24.4% 17.1%
    x264 [info]: i16 v,h,dc,p: 48% 10%  9% 33%
    x264 [info]: i8 v,h,dc,ddl,ddr,vr,hd,vl,hu: 10%  7%  6% 11% 15% 15% 13% 12% 10%
    x264 [info]: i4 v,h,dc,ddl,ddr,vr,hd,vl,hu: 11%  8%  4% 11% 16% 16% 13% 11%  9%
    x264 [info]: i8c dc,h,v,p: 52% 14% 20% 14%
    x264 [info]: ref P L0: 69.1% 18.5% 12.4%
    x264 [info]: ref B L0: 83.5% 16.5%
    x264 [info]: SSIM Mean Y:0.9759513 (16.189db)
    x264 [info]: PSNR Mean Y:44.733 U:45.997 V:47.932 Avg:45.285 Global:44.240 kb/s:4998.10

    x264 лог 1080p Release

    HandBrakeCLI -i "/MIDNIGHT_IN_PARIS_BDLUBIRD/BDMV/STREAM/00005.m2ts" -t 1 -o "Midnight in Paris (1080p HD).m4v" -f mp4 -4  -O  -w 1920 -l 1080 --crop 0:0:0:0 --modulus 16 -e x264 -q 21 -a none  -x  ref=4:bframes=4:b-adapt=2:direct=auto:me=umh:merange=32:subq=10:rc-lookahead=60:analyse=all:trellis=2:deblock=-2,-1:qcomp=0.60:qpmin=0:qpmax=69:fast_pskip=0:aq-strength=1.1:no-dct-decimate=1:psy-rd=0.90,0.25:deadzone-inter=6:deadzone-intra=6:vbv-maxrate=25000:vbv-bufsize=25000 --verbose=1
    x264 [info]: frame I:809   Avg QP:18.96  size:240643  PSNR Mean Y:48.02 U:50.83 V:51.66 Avg:48.81 Global:47.82
    x264 [info]: frame P:33298 Avg QP:22.47  size: 82507  PSNR Mean Y:44.98 U:47.98 V:49.52 Avg:45.86 Global:44.61
    x264 [info]: frame B:101022 Avg QP:24.13  size: 30073  PSNR Mean Y:43.52 U:46.10 V:48.26 Avg:44.37 Global:43.46
    x264 [info]: consecutive B-frames:  1.4%  1.0% 17.5% 29.7% 50.4%
    x264 [info]: mb I  I16..4: 21.4% 60.6% 18.0%
    x264 [info]: mb P  I16..4:  1.8%  5.9%  0.3%  P16..4: 55.6% 14.8% 12.0%  0.3%  0.1%    skip: 9.3%
    x264 [info]: mb B  I16..4:  0.3%  0.6%  0.0%  B16..8: 53.6%  5.7%  1.0%  direct: 5.2%  skip:33.6%  L0:45.5% L1:49.8% BI: 4.7%
    x264 [info]: 8x8 transform intra:68.5% inter:66.1%
    x264 [info]: direct mvs  spatial:100.0% temporal:0.0%
    x264 [info]: coded y,uvDC,uvAC intra: 81.4% 90.3% 78.2% inter: 19.8% 38.4% 25.1%
    x264 [info]: i16 v,h,dc,p: 32% 11% 26% 32%
    x264 [info]: i8 v,h,dc,ddl,ddr,vr,hd,vl,hu: 12%  7%  9% 10% 14% 13% 13% 12% 12%
    x264 [info]: i4 v,h,dc,ddl,ddr,vr,hd,vl,hu: 13% 10%  6%  9% 13% 13% 13% 11% 13%
    x264 [info]: i8c dc,h,v,p: 59% 11% 13% 17%
    x264 [info]: Weighted P-Frames: Y:0.7% UV:0.5%
    x264 [info]: ref P L0: 46.6% 10.1% 30.6% 10.6%  2.1%  0.0%
    x264 [info]: ref B L0: 82.8% 14.2%  3.0%
    x264 [info]: ref B L1: 90.0% 10.0%
    x264 [info]: SSIM Mean Y:0.9674807 (14.879db)
    x264 [info]: PSNR Mean Y:43.907 U:46.587 V:48.587 Avg:44.766 Global:43.738 kb/s:8496.84

    Скриншоты 480p Release

    Скриншоты 720p Release

    Скриншоты 1080p Release

    Цитата:
    • Это старый релиз ovsyannikov.ivan, который был закрыт. Я лишь привел его к сегодняшним реалиям .
    -

    Релиз подготовлен для просмотра на Apple TV, iPad, iPhone, iPod Touch.
    Для просмотра данного релиза на компьютере с ОС Windows рекомендуется использовать VLC media player
    Скачать .torrent

    Скачать торрент-файл бесплатно и на максимальной скорости!

    Как скачивать? · Что такое торрент? · Рейтинг и ограничения

    !ВНИМАНИЕ!
    Сайт не распространяет и не хранит электронные версии произведений, а занимается лишь лишь предоставлением доступа к создаваемому пользователями каталогу ссылок на торрент-файлы, которые содержат только списки хеш-сумм, убедительная просьба с жалобами обращаться напрямую к пользователю. Файлы для обмена на трекере предоставлены пользователями сайта, и администрация не несёт ответственности за их содержание. Просьба не заливать файлы, защищенные авторскими правами, а также файлы нелегального содержания!


  • _________________
    [Профиль] [ЛС]
    Показать сообщения:    
    Ответить на тему

    Текущее время: Сегодня, в 05:07

    Часовой пояс: GMT + 2



    Вы не можете начинать темы
    Вы не можете отвечать на сообщения
    Вы не можете редактировать свои сообщения
    Вы не можете удалять свои сообщения
    Вы не можете голосовать в опросах
    Вы не можете прикреплять файлы к сообщениям
    Вы не можете скачивать файлы