BitTorrentTracker PerecTracker.org
BitTorrentTracker PerecTracker.org
    
Регистрация  ·  Вход
 
 · 
Забыли пароль?

  • Стой! Или моя мама будет стрелять / Stop! Or My Mom Will Shoot (Роджер Споттисвуд) [1992, США, боевик, комедия, BDRip HD (720p), SD (480p)] MVO, DVO, AVO, Original + SUB (rus, eng)

    Ответить на тему
     
    Автор Сообщение

    Flirldrerve

    Создавать темы 27-Окт-2015 05:18

           

    [Цитировать]

    Стой! Или моя мама будет стрелять / Stop! Or My Mom Will Shoot
    "Detective Joe Bomowski's mom is in town for a visit. She did the laundry, washed the windows and scrubbed the floors. Now, she's gonna clean up the streets"
    6.672 / 10
    -Год выпуска: 1992
    Страна: США
    Жанр: боевик, комедия
    Продолжительность: 87 мин.
    Перевод: Многоголосый закадровый перевод, двухголосый закадровый перевод и одноголосый закадровый авторский перевод
    Оригинальная аудиодорожка: Есть
    Cубтитры: Русские полные и английские полные
    Режиссёр: Роджер Споттисвуд
    Сценарий: Блейк Снайдер, Уильям Осборн, Уильям Дэвис
    Продюсер: Тодд Блэк, Майкл С. Гросс, Арт Левинсон
    Оператор: Фрэнк Тайди
    Композитор: Алан Сильвестри
    Художник: Чарльз Розен, Дайан Йэтс, Мари Френс
    Монтаж: Марк Конте, Луис Фриман-Фокс
    В ролях: Сильвестр Сталлоне, Эстель Гетти, ДжоБет Уильямс, Роджер Рис, Мартин Ферреро, Гейлард Сартейн, Джон Уэсли, Эл Фэнн, Элла Джойс, Дж. Кеннет Кэмпбелл
    Сборы в США: $28 411 210
    Сборы в мире: + $42 200 000 = $70 611 210
    Мировая премьера: 21 февраля 1992
    Описание: У сержанта полиции Лос-Анджелеса Джо Борновски жизнь перевернулась вверх дном после того, как его милая мамаша Тутти решила навестить любимого сыночка. К огромной радости подружки и непосредственного начальника Джо, лейтенанта Гвен Харпер, Тутти сразу приводит в порядок его холостяцкую берлогу и начинает налаживать "хозяйство".
    Как вы прекрасно понимаете, бравый сержант не в восторге от всех этих нововведений. А тут еще, в дополнение ко всем проблемам, неугомонная Тутти оказывается свидетельницей убийства и требует... чтобы сын позволил ей участвовать в расследовании!
    В итоге Джо получает нового напарника - собственную мамулю, которая решает задать преступникам солидную трепку!-Качество исходника: Blu-Ray 1080p
    Качество: BDRip
    Тип: 480p 720p
    Контейнер: m4v
    Видео: 640x462 анаморф 852x462 at 23.976 fps, MPEG-4 AVC, ~1800 kbps avg
    Видео: 1280x694 at 23.976 fps, MPEG-4 AVC, ~5000 kbps avg
    Аудио#1: Russian: 48 kHz, ААС, 2/0 (L,R), ~128.00 / 192.00 kbps avg |Двухголосый закадровый, Премьер Видео|
    Аудио#2: Russian: 48 kHz, ААС, 2/0 (L,R), ~128.00 / 192.00 kbps avg |Двухголосый закадровый, R5 Universal Pictures / OPT / CTC|
    Аудио#3: Russian: 48 kHz, ААС, 2/0 (L,R), ~128.00 / 192.00 kbps avg |Многоголосый закадровый|
    Аудио#4: Russian: 48 kHz, ААС, 2/0 (L,R), ~128.00 / 192.00 kbps avg |Одноголосый закадровый, А. Михалёв|
    Аудио#5: Ukrainian: 48 kHz, ААС, 2/0 (L,R), ~128.00 / 192.00 kbps avg |Многоголосый закадровый, ТК "Україна"|
    Аудио#6: Ukrainian: 48 kHz, ААС, 2/0 (L,R), ~128.00 / 192.00 kbps avg |Многоголосый закадровый, ТК "Новий"|
    Аудио#7: English: 48 kHz, ААС, 2/0 (L,R), ~128.00 / 192.00 kbps avg
    Аудио#8: Russian: 48 kHz, AC3, 3/2 (L,C,R,l,r) + LFE ch, ~448.00 kbps avg |Многоголосый закадровый|
    Аудио#9: Russian: 48 kHz, AC3, 3/2 (L,C,R,l,r) + LFE ch, ~448.00 kbps avg |Одноголосый закадровый, А. Михалёв|
    Аудио#10: English: 48 kHz, AC3, 3/2 (L,C,R,l,r) + LFE ch, ~448.00 kbps avg
    Субтитры №1: Russian: |Полные|
    Субтитры №1: English: |Полные|-

    Знаете ли Вы, что...

    • Сталлоне, по собственным словам, считает данный фильм худшим в своей карьере.

    -

    iTunes Meta Tags for country us

    Name: Stop! Or My Mom Will Shoot
    Artist: Roger Spottiswoode
    Genre: Comedy
    Release Date: 1992-02-21T08:00:00Z
    Description: У сержанта полиции Лос-Анджелеса Джо Борновски жизнь перевернулась вверх дном после того, как его милая мамаша Тутти решила навестить любимого сыночка. К огромной радости подружки и непосредственного начальника Джо, лейтенанта Гвен Харпер, Тутти сразу приводит в порядок его холостяцкую берлогу и начинает налаживать "хозяйство"...
    Long Description: У сержанта полиции Лос-Анджелеса Джо Борновски жизнь перевернулась вверх дном после того, как его милая мамаша Тутти решила навестить любимого сыночка. К огромной радости подружки и непосредственного начальника Джо, лейтенанта Гвен Харпер, Тутти сразу приводит в порядок его холостяцкую берлогу и начинает налаживать "хозяйство".
    Как вы прекрасно понимаете, бравый сержант не в восторге от всех этих нововведений. А тут еще, в дополнение ко всем проблемам, неугомонная Тутти оказывается свидетельницей убийства и требует... чтобы сын позволил ей участвовать в расследовании!
    В итоге Джо получает нового напарника - собственную мамулю, которая решает задать преступникам солидную трепку!
    Rating: PG-13
    Rating Annotation: Rated PG-13 For a scene of nudity.
    Studio: Universal Pictures
    Cast: Сильвестр Сталлоне, Эстель Гетти, ДжоБет Уильямс, Роджер Рис, Мартин Ферреро, Гейлард Сартейн, Джон Уэсли, Эл Фэнн, Элла Джойс, Дж. Кеннет Кэмпбелл
    Director: Роджер Споттисвуд
    Producers: Тодд Блэк, Майкл С. Гросс, Арт Левинсон
    Screenwriters: Блейк Снайдер, Уильям Осборн, Уильям Дэвис
    Copyright: © 1992 Universal City Studios, Inc. All Rights Reserved.
    contentID: 356105109
    XID: Apple:vendor_id:1992-9556
    Sort Name: Stop! Or My Mom Will Shoot

    iTunes Meta Tags for country ru

    Name: Стой! или моя Мама Будет Стрелять
    Artist: Roger Spottiswoode
    Genre: Comedy
    Release Date: 1992-02-21T08:00:00Z
    Description: У сержанта полиции Лос-Анджелеса Джо Борновски жизнь перевернулась вверх дном после того, как его милая мамаша Тутти решила навестить любимого сыночка. К огромной радости подружки и непосредственного начальника Джо, лейтенанта Гвен Харпер, Тутти сразу приводит в порядок его холостяцкую берлогу и начинает налаживать "хозяйство"...
    Long Description: У сержанта полиции Лос-Анджелеса Джо Борновски жизнь перевернулась вверх дном после того, как его милая мамаша Тутти решила навестить любимого сыночка. К огромной радости подружки и непосредственного начальника Джо, лейтенанта Гвен Харпер, Тутти сразу приводит в порядок его холостяцкую берлогу и начинает налаживать "хозяйство".
    Как вы прекрасно понимаете, бравый сержант не в восторге от всех этих нововведений. А тут еще, в дополнение ко всем проблемам, неугомонная Тутти оказывается свидетельницей убийства и требует... чтобы сын позволил ей участвовать в расследовании!
    В итоге Джо получает нового напарника - собственную мамулю, которая решает задать преступникам солидную трепку!
    Rating: 12+
    Studio: Universal Pictures
    Cast: Сильвестр Сталлоне, Эстель Гетти, ДжоБет Уильямс, Роджер Рис, Мартин Ферреро, Гейлард Сартейн, Джон Уэсли, Эл Фэнн, Элла Джойс, Дж. Кеннет Кэмпбелл
    Director: Роджер Споттисвуд
    Producers: Тодд Блэк, Майкл С. Гросс, Арт Левинсон
    Screenwriters: Блейк Снайдер, Уильям Осборн, Уильям Дэвис
    Copyright: © 1992 Universal Studios. All Rights Reserved.
    contentID: 937971764
    XID: Apple:vendor_id:1992-9556
    Sort Name: Стой! или моя Мама Будет Стрелять

    MediaInfo 480p Release

    General
    Complete name : Stop! Or My Mom Will Shoot.m4v
    Format : MPEG-4
    Codec ID : M4V
    File size : 1.63 GiB
    Duration : 1h 27mn
    Overall bit rate mode : Variable
    Overall bit rate : 2 682 Kbps
    Movie name : Stop! Or My Mom Will Shoot
    Performer : Roger Spottiswoode
    Director : Роджер Споттисвуд
    Actor : Сильвестр Сталлоне / Эстель Гетти / ДжоБет Уильямс / Роджер Рис / Мартин Ферреро / Гейлард Сартейн / Джон Уэсли / Эл Фэнн / Элла Джойс / Дж. Кеннет Кэмпбелл
    Screenplay by : Блейк Снайдер / Уильям Осборн / Уильям Дэвис
    Producer : Тодд Блэк / Майкл С. Гросс / Арт Левинсон
    Production studio : Universal Pictures
    Genre : Comedy
    ContentType : Short Film
    Description : У сержанта полиции Лос-Анджелеса Джо Борновски жизнь перевернулась вверх дном после того, как его милая мамаша Тутти решила навестить любимого сыночка. К огромной радости подружки и непосредственного начальника Джо, лейтенанта Гвен Харпер, Тутти сразу приводит в порядок его холостяцкую берлогу и начинает налаживать "хозяйство"...
    Recorded date : UTC 1992-02-21 08:00:00
    Encoded date : UTC 2015-09-15 06:33:31
    Tagged date : UTC 2015-09-15 06:34:25
    Copyright : © 1992 Universal City Studios, Inc. All Rights Reserved.
    Cover : Yes
    Rating : None
    Title/Sort : Stop! Or My Mom Will Shoot
    LongDescription : У сержанта полиции Лос-Анджелеса Джо Борновски жизнь перевернулась вверх дном после того, как его милая мамаша Тутти решила навестить любимого сыночка. К огромной радости подружки и непосредственного начальника Джо, лейтенанта Гвен Харпер, Тутти сразу приводит в порядок его холостяцкую берлогу и начинает налаживать "хозяйство". / Как вы прекрасно понимаете, бравый сержант не в восторге от всех этих нововведений. А тут еще, в дополнение ко всем проблемам, неугомонная Тутти оказывается свидетельницей убийства и требует... чтобы сын позволил ей участвовать в расследовании! / В итоге Джо получает нового напарника - собственную мамулю, которая решает задать преступникам солидную трепку!
    AppleStoreCatalogID : 356105109
    Vendor : Apple:vendor_id:1992-9556
    ContentRating : mpaa|PG-13|300|Rated PG-13 For a scene of nudity.
    Video #1
    ID : 1
    Format : AVC
    Format/Info : Advanced Video Codec
    Format profile : Baseline@L3
    Format settings, CABAC : No
    Format settings, ReFrames : 2 frames
    Codec ID : avc1
    Codec ID/Info : Advanced Video Coding
    Duration : 1h 27mn
    Bit rate : 1 800 Kbps
    Width : 640 pixels
    Height : 462 pixels
    Display aspect ratio : 1.85:1
    Frame rate mode : Variable
    Frame rate : 23.976 fps
    Minimum frame rate : 23.974 fps
    Maximum frame rate : 23.981 fps
    Color space : YUV
    Chroma subsampling : 4:2:0
    Bit depth : 8 bits
    Scan type : Progressive
    Bits/(Pixel*Frame) : 0.254
    Stream size : 1.10 GiB (67%)
    Title : Main Program
    Writing library : x264 core 130 r2273 b3065e6
    Encoding settings : cabac=0 / ref=2 / deblock=1:0:0 / analyse=0x1:0x111 / me=umh / subme=6 / psy=1 / psy_rd=1.00:0.00 / mixed_ref=1 / me_range=16 / chroma_me=1 / trellis=0 / 8x8dct=0 / cqm=0 / deadzone=21,11 / fast_pskip=1 / chroma_qp_offset=-2 / threads=18 / lookahead_threads=3 / sliced_threads=0 / nr=0 / decimate=1 / interlaced=0 / bluray_compat=0 / constrained_intra=0 / bframes=0 / weightp=0 / keyint=240 / keyint_min=24 / scenecut=40 / intra_refresh=0 / rc_lookahead=40 / rc=2pass / mbtree=1 / bitrate=1800 / ratetol=1.0 / qcomp=0.60 / qpmin=0 / qpmax=69 / qpstep=4 / cplxblur=20.0 / qblur=0.5 / vbv_maxrate=5000 / vbv_bufsize=5000 / nal_hrd=none / ip_ratio=1.40 / aq=1:1.00
    Language : English
    Encoded date : UTC 2015-09-15 06:33:31
    Tagged date : UTC 2015-09-15 06:33:35
    Color range : Limited
    Color primaries : BT.709
    Transfer characteristics : BT.709
    Matrix coefficients : BT.709
    Video #2
    ID : 12
    Format : JPEG
    Codec ID : jpeg
    Duration : 1h 27mn
    Bit rate mode : Variable
    Bit rate : 286 bps
    Width : 640 pixels
    Height : 347 pixels
    Display aspect ratio : 1.85:1
    Frame rate mode : Variable
    Frame rate : 0.001 fps
    Minimum frame rate : 0.001 fps
    Maximum frame rate : 2.398 fps
    Color space : YUV
    Chroma subsampling : 4:2:0
    Bit depth : 8 bits
    Compression mode : Lossy
    Bits/(Pixel*Frame) : 1.288
    Stream size : 244 KiB (0%)
    Title : Chapter Images
    Language : English
    Encoded date : UTC 2015-09-15 06:33:42
    Tagged date : UTC 2015-09-15 06:33:42
    Audio #1
    ID : 2
    Format : AAC
    Format/Info : Advanced Audio Codec
    Format profile : LC
    Codec ID : 40
    Duration : 1h 27mn
    Bit rate mode : Variable
    Bit rate : 132 Kbps
    Maximum bit rate : 211 Kbps
    Channel(s) : 2 channels
    Channel positions : Front: L R
    Sampling rate : 48.0 KHz
    Compression mode : Lossy
    Stream size : 81.7 MiB (5%)
    Title : Russian DVO Premier Video Stereo
    Language : Russian
    Encoded date : UTC 2015-09-15 06:33:31
    Tagged date : UTC 2015-09-15 06:33:40
    Audio #2
    ID : 3
    Format : AAC
    Format/Info : Advanced Audio Codec
    Format profile : LC
    Codec ID : 40
    Duration : 1h 27mn
    Bit rate mode : Variable
    Bit rate : 119 Kbps
    Maximum bit rate : 149 Kbps
    Channel(s) : 2 channels
    Channel positions : Front: L R
    Sampling rate : 48.0 KHz
    Compression mode : Lossy
    Stream size : 74.1 MiB (4%)
    Title : Russian DVO R5 Universal Pictures / OPT / CTC Stereo
    Language : Russian
    Encoded date : UTC 2015-09-15 06:33:31
    Tagged date : UTC 2015-09-15 06:33:40
    Audio #3
    ID : 4
    Format : AAC
    Format/Info : Advanced Audio Codec
    Format profile : LC
    Codec ID : 40
    Duration : 1h 27mn
    Bit rate mode : Variable
    Bit rate : 132 Kbps
    Maximum bit rate : 205 Kbps
    Channel(s) : 2 channels
    Channel positions : Front: L R
    Sampling rate : 48.0 KHz
    Compression mode : Lossy
    Stream size : 82.3 MiB (5%)
    Title : Russian MVO Stereo
    Language : Russian
    Encoded date : UTC 2015-09-15 06:33:31
    Tagged date : UTC 2015-09-15 06:33:40
    Audio #4
    ID : 5
    Format : AAC
    Format/Info : Advanced Audio Codec
    Format profile : LC
    Codec ID : 40
    Duration : 1h 27mn
    Bit rate mode : Variable
    Bit rate : 132 Kbps
    Maximum bit rate : 221 Kbps
    Channel(s) : 2 channels
    Channel positions : Front: L R
    Sampling rate : 48.0 KHz
    Compression mode : Lossy
    Stream size : 81.7 MiB (5%)
    Title : Russian AVO A.Mihalev Stereo
    Language : Russian
    Encoded date : UTC 2015-09-15 06:33:31
    Tagged date : UTC 2015-09-15 06:33:40
    Audio #5
    ID : 6
    Format : AAC
    Format/Info : Advanced Audio Codec
    Format profile : LC
    Codec ID : 40
    Duration : 1h 27mn
    Bit rate mode : Variable
    Bit rate : 118 Kbps
    Maximum bit rate : 150 Kbps
    Channel(s) : 2 channels
    Channel positions : Front: L R
    Sampling rate : 48.0 KHz
    Compression mode : Lossy
    Stream size : 73.5 MiB (4%)
    Title : Ukrainian MVO TK Ukraina Stereo
    Language : Ukrainian
    Encoded date : UTC 2015-09-15 06:33:31
    Tagged date : UTC 2015-09-15 06:33:40
    Audio #6
    ID : 7
    Format : AAC
    Format/Info : Advanced Audio Codec
    Format profile : LC
    Codec ID : 40
    Duration : 1h 27mn
    Bit rate mode : Variable
    Bit rate : 105 Kbps
    Maximum bit rate : 125 Kbps
    Channel(s) : 2 channels
    Channel positions : Front: L R
    Sampling rate : 48.0 KHz
    Compression mode : Lossy
    Stream size : 65.6 MiB (4%)
    Title : Ukrainian MVO TK Noviy Stereo
    Language : Ukrainian
    Encoded date : UTC 2015-09-15 06:33:31
    Tagged date : UTC 2015-09-15 06:33:40
    Audio #7
    ID : 8
    Format : AAC
    Format/Info : Advanced Audio Codec
    Format profile : LC
    Codec ID : 40
    Duration : 1h 27mn
    Bit rate mode : Variable
    Bit rate : 132 Kbps
    Maximum bit rate : 205 Kbps
    Channel(s) : 2 channels
    Channel positions : Front: L R
    Sampling rate : 48.0 KHz
    Compression mode : Lossy
    Stream size : 82.3 MiB (5%)
    Title : English Stereo
    Language : English
    Encoded date : UTC 2015-09-15 06:33:31
    Tagged date : UTC 2015-09-15 06:33:40
    Text #1
    ID : 9
    Format : Timed Text
    Muxing mode : sbtl
    Codec ID : tx3g
    Duration : 1h 23mn
    Bit rate mode : Variable
    Bit rate : 91 bps
    Stream size : 55.8 KiB (0%)
    Title : Russian Subtitle
    Language : Russian
    Encoded date : UTC 2015-09-15 06:33:31
    Tagged date : UTC 2015-09-15 06:33:31
    Text #2
    ID : 10
    Format : Timed Text
    Muxing mode : sbtl
    Codec ID : tx3g
    Duration : 1h 23mn
    Bit rate mode : Variable
    Bit rate : 57 bps
    Stream size : 34.7 KiB (0%)
    Title : English Subtitle
    Language : English
    Encoded date : UTC 2015-09-15 06:33:31
    Tagged date : UTC 2015-09-15 06:33:31
    Menu #1
    00:00:00.000 : 1
    00:00:00.417 : 2
    00:16:05.965 : 3
    00:32:49.050 : 4
    00:49:33.512 : 5
    01:05:22.043 : 6
    01:16:20.034 : 7
    Menu #2
    ID : 11
    Codec ID : text
    Duration : 1h 27mn
    Title : Chapter Titles
    Language : English
    Encoded date : UTC 2015-09-15 06:33:40
    Tagged date : UTC 2015-09-15 06:33:40
    Bit rate mode : CBR
    00:00:00.000 : 1
    00:00:00.417 : 2
    00:16:05.965 : 3
    00:32:49.050 : 4
    00:49:33.512 : 5
    01:05:22.043 : 6
    01:16:20.034 : 7

    MediaInfo 720p Release

    General
    Complete name : Stop! Or My Mom Will Shoot (HD).m4v
    Format : MPEG-4
    Codec ID : M4V
    File size : 4.65 GiB
    Duration : 1h 27mn
    Overall bit rate mode : Variable
    Overall bit rate : 7 631 Kbps
    Movie name : Stop! Or My Mom Will Shoot
    Performer : Roger Spottiswoode
    Director : Роджер Споттисвуд
    Actor : Сильвестр Сталлоне / Эстель Гетти / ДжоБет Уильямс / Роджер Рис / Мартин Ферреро / Гейлард Сартейн / Джон Уэсли / Эл Фэнн / Элла Джойс / Дж. Кеннет Кэмпбелл
    Screenplay by : Блейк Снайдер / Уильям Осборн / Уильям Дэвис
    Producer : Тодд Блэк / Майкл С. Гросс / Арт Левинсон
    Production studio : Universal Pictures
    Genre : Comedy
    ContentType : Short Film
    Description : У сержанта полиции Лос-Анджелеса Джо Борновски жизнь перевернулась вверх дном после того, как его милая мамаша Тутти решила навестить любимого сыночка. К огромной радости подружки и непосредственного начальника Джо, лейтенанта Гвен Харпер, Тутти сразу приводит в порядок его холостяцкую берлогу и начинает налаживать "хозяйство"...
    Recorded date : UTC 1992-02-21 08:00:00
    Encoded date : UTC 2015-09-14 21:44:39
    Tagged date : UTC 2015-09-15 06:30:48
    Copyright : © 1992 Universal City Studios, Inc. All Rights Reserved.
    Cover : Yes
    Rating : None
    Title/Sort : Stop! Or My Mom Will Shoot
    LongDescription : У сержанта полиции Лос-Анджелеса Джо Борновски жизнь перевернулась вверх дном после того, как его милая мамаша Тутти решила навестить любимого сыночка. К огромной радости подружки и непосредственного начальника Джо, лейтенанта Гвен Харпер, Тутти сразу приводит в порядок его холостяцкую берлогу и начинает налаживать "хозяйство". / Как вы прекрасно понимаете, бравый сержант не в восторге от всех этих нововведений. А тут еще, в дополнение ко всем проблемам, неугомонная Тутти оказывается свидетельницей убийства и требует... чтобы сын позволил ей участвовать в расследовании! / В итоге Джо получает нового напарника - собственную мамулю, которая решает задать преступникам солидную трепку!
    HDVideo : Yes
    AppleStoreCatalogID : 356105109
    Vendor : Apple:vendor_id:1992-9556
    ContentRating : mpaa|PG-13|300|Rated PG-13 For a scene of nudity.
    Video #1
    ID : 1
    Format : AVC
    Format/Info : Advanced Video Codec
    Format profile : High@L3.1
    Format settings, CABAC : No
    Format settings, ReFrames : 3 frames
    Codec ID : avc1
    Codec ID/Info : Advanced Video Coding
    Duration : 1h 27mn
    Source duration : 1h 27mn
    Bit rate : 5 000 Kbps
    Width : 1 280 pixels
    Height : 694 pixels
    Display aspect ratio : 1.85:1
    Frame rate mode : Variable
    Frame rate : 23.976 fps
    Minimum frame rate : 23.974 fps
    Maximum frame rate : 23.981 fps
    Color space : YUV
    Chroma subsampling : 4:2:0
    Bit depth : 8 bits
    Scan type : Progressive
    Bits/(Pixel*Frame) : 0.235
    Stream size : 3.04 GiB (65%)
    Source stream size : 3.04 GiB (65%)
    Title : Main Program
    Writing library : x264 core 130 r2273 b3065e6
    Encoding settings : cabac=0 / ref=3 / deblock=1:-3:-2 / analyse=0x3:0x113 / me=umh / subme=9 / psy=1 / psy_rd=1.00:0.25 / mixed_ref=1 / me_range=32 / chroma_me=1 / trellis=0 / 8x8dct=1 / cqm=0 / deadzone=21,11 / fast_pskip=0 / chroma_qp_offset=-2 / threads=18 / lookahead_threads=1 / sliced_threads=0 / nr=0 / decimate=0 / interlaced=0 / bluray_compat=0 / constrained_intra=0 / bframes=3 / b_pyramid=0 / b_adapt=2 / b_bias=0 / direct=1 / weightb=0 / open_gop=0 / weightp=0 / keyint=240 / keyint_min=24 / scenecut=40 / intra_refresh=0 / rc_lookahead=40 / rc=2pass / mbtree=1 / bitrate=5000 / ratetol=1.0 / qcomp=0.60 / qpmin=0 / qpmax=69 / qpstep=4 / cplxblur=20.0 / qblur=0.5 / vbv_maxrate=9500 / vbv_bufsize=9500 / nal_hrd=none / ip_ratio=1.40 / aq=1:0.80
    Language : English
    Encoded date : UTC 2015-09-14 21:44:39
    Tagged date : UTC 2015-09-14 21:44:51
    Color range : Limited
    Color primaries : BT.709
    Transfer characteristics : BT.709
    Matrix coefficients : BT.709
    Video #2
    ID : 15
    Format : JPEG
    Codec ID : jpeg
    Duration : 1h 27mn
    Bit rate mode : Variable
    Bit rate : 304 bps
    Width : 640 pixels
    Height : 347 pixels
    Display aspect ratio : 1.85:1
    Frame rate mode : Variable
    Frame rate : 0.001 fps
    Minimum frame rate : 0.001 fps
    Maximum frame rate : 2.398 fps
    Color space : YUV
    Chroma subsampling : 4:2:0
    Bit depth : 8 bits
    Compression mode : Lossy
    Bits/(Pixel*Frame) : 1.369
    Stream size : 259 KiB (0%)
    Title : Chapter Images
    Language : English
    Encoded date : UTC 2015-09-15 06:29:50
    Tagged date : UTC 2015-09-15 06:29:50
    Audio #1
    ID : 2
    Format : AAC
    Format/Info : Advanced Audio Codec
    Format profile : LC
    Codec ID : 40
    Duration : 1h 27mn
    Bit rate mode : Variable
    Bit rate : 192 Kbps
    Maximum bit rate : 303 Kbps
    Channel(s) : 2 channels
    Channel positions : Front: L R
    Sampling rate : 48.0 KHz
    Compression mode : Lossy
    Stream size : 121 MiB (3%)
    Title : Russian DVO Premier Video Stereo
    Language : Russian
    Encoded date : UTC 2015-09-14 21:44:39
    Tagged date : UTC 2015-09-14 21:44:58
    Audio #2
    ID : 3
    Format : AAC
    Format/Info : Advanced Audio Codec
    Format profile : LC
    Codec ID : 40
    Duration : 1h 27mn
    Bit rate mode : Variable
    Bit rate : 171 Kbps
    Maximum bit rate : 229 Kbps
    Channel(s) : 2 channels
    Channel positions : Front: L R
    Sampling rate : 48.0 KHz
    Compression mode : Lossy
    Stream size : 107 MiB (2%)
    Title : Russian DVO R5 Universal Pictures / OPT / CTC Stereo
    Language : Russian
    Encoded date : UTC 2015-09-14 21:44:39
    Tagged date : UTC 2015-09-14 21:44:58
    Audio #3
    ID : 4
    Format : AAC
    Format/Info : Advanced Audio Codec
    Format profile : LC
    Codec ID : 40
    Duration : 1h 27mn
    Bit rate mode : Variable
    Bit rate : 198 Kbps
    Maximum bit rate : 280 Kbps
    Channel(s) : 2 channels
    Channel positions : Front: L R
    Sampling rate : 48.0 KHz
    Compression mode : Lossy
    Stream size : 123 MiB (3%)
    Title : Russian MVO Stereo
    Language : Russian
    Encoded date : UTC 2015-09-14 21:44:39
    Tagged date : UTC 2015-09-14 21:44:58
    Audio #4
    ID : 5
    Format : AAC
    Format/Info : Advanced Audio Codec
    Format profile : LC
    Codec ID : 40
    Duration : 1h 27mn
    Bit rate mode : Variable
    Bit rate : 197 Kbps
    Maximum bit rate : 306 Kbps
    Channel(s) : 2 channels
    Channel positions : Front: L R
    Sampling rate : 48.0 KHz
    Compression mode : Lossy
    Stream size : 123 MiB (3%)
    Title : Russian AVO A.Mihalev Stereo
    Language : Russian
    Encoded date : UTC 2015-09-14 21:44:39
    Tagged date : UTC 2015-09-14 21:44:58
    Audio #5
    ID : 6
    Format : AAC
    Format/Info : Advanced Audio Codec
    Format profile : LC
    Codec ID : 40
    Duration : 1h 27mn
    Bit rate mode : Variable
    Bit rate : 168 Kbps
    Maximum bit rate : 243 Kbps
    Channel(s) : 2 channels
    Channel positions : Front: L R
    Sampling rate : 48.0 KHz
    Compression mode : Lossy
    Stream size : 105 MiB (2%)
    Title : Ukrainian MVO TK Ukraina Stereo
    Language : Ukrainian
    Encoded date : UTC 2015-09-14 21:44:39
    Tagged date : UTC 2015-09-14 21:44:58
    Audio #6
    ID : 7
    Format : AAC
    Format/Info : Advanced Audio Codec
    Format profile : LC
    Codec ID : 40
    Duration : 1h 27mn
    Bit rate mode : Variable
    Bit rate : 151 Kbps
    Maximum bit rate : 184 Kbps
    Channel(s) : 2 channels
    Channel positions : Front: L R
    Sampling rate : 48.0 KHz
    Compression mode : Lossy
    Stream size : 94.3 MiB (2%)
    Title : Ukrainian MVO TK Noviy Stereo
    Language : Ukrainian
    Encoded date : UTC 2015-09-14 21:44:39
    Tagged date : UTC 2015-09-14 21:44:58
    Audio #7
    ID : 8
    Format : AAC
    Format/Info : Advanced Audio Codec
    Format profile : LC
    Codec ID : 40
    Duration : 1h 27mn
    Bit rate mode : Variable
    Bit rate : 198 Kbps
    Maximum bit rate : 285 Kbps
    Channel(s) : 2 channels
    Channel positions : Front: L R
    Sampling rate : 48.0 KHz
    Compression mode : Lossy
    Stream size : 123 MiB (3%)
    Title : English Stereo
    Language : English
    Encoded date : UTC 2015-09-14 21:44:39
    Tagged date : UTC 2015-09-14 21:44:58
    Audio #8
    ID : 9
    Format : AC-3
    Format/Info : Audio Coding 3
    Mode extension : CM (complete main)
    Format settings, Endianness : Big
    Codec ID : ac-3
    Duration : 1h 27mn
    Bit rate mode : Constant
    Bit rate : 448 Kbps
    Channel(s) : 6 channels
    Channel positions : Front: L C R, Side: L R, LFE
    Sampling rate : 48.0 KHz
    Bit depth : 16 bits
    Compression mode : Lossy
    Stream size : 279 MiB (6%)
    Title : Russian MVO DD 5.1
    Language : Russian
    Encoded date : UTC 2015-09-14 21:44:39
    Tagged date : UTC 2015-09-14 21:44:53
    Audio #9
    ID : 10
    Format : AC-3
    Format/Info : Audio Coding 3
    Mode extension : CM (complete main)
    Format settings, Endianness : Big
    Codec ID : ac-3
    Duration : 1h 27mn
    Bit rate mode : Constant
    Bit rate : 448 Kbps
    Channel(s) : 6 channels
    Channel positions : Front: L C R, Side: L R, LFE
    Sampling rate : 48.0 KHz
    Bit depth : 16 bits
    Compression mode : Lossy
    Stream size : 279 MiB (6%)
    Title : Russian AVO A.Mihalev DD 5.1
    Language : Russian
    Encoded date : UTC 2015-09-14 21:44:39
    Tagged date : UTC 2015-09-14 21:44:53
    Audio #10
    ID : 11
    Format : AC-3
    Format/Info : Audio Coding 3
    Mode extension : CM (complete main)
    Format settings, Endianness : Big
    Codec ID : ac-3
    Duration : 1h 27mn
    Bit rate mode : Constant
    Bit rate : 448 Kbps
    Channel(s) : 6 channels
    Channel positions : Front: L C R, Side: L R, LFE
    Sampling rate : 48.0 KHz
    Bit depth : 16 bits
    Compression mode : Lossy
    Stream size : 279 MiB (6%)
    Title : English DD 5.1
    Language : English
    Encoded date : UTC 2015-09-14 21:44:39
    Tagged date : UTC 2015-09-14 21:44:53
    Text #1
    ID : 12
    Format : Timed Text
    Muxing mode : sbtl
    Codec ID : tx3g
    Duration : 1h 23mn
    Bit rate mode : Variable
    Bit rate : 91 bps
    Stream size : 55.8 KiB (0%)
    Title : Russian Subtitle
    Language : Russian
    Encoded date : UTC 2015-09-15 06:28:39
    Tagged date : UTC 2015-09-15 06:28:39
    Text #2
    ID : 13
    Format : Timed Text
    Muxing mode : sbtl
    Codec ID : tx3g
    Duration : 1h 23mn
    Bit rate mode : Variable
    Bit rate : 57 bps
    Stream size : 34.7 KiB (0%)
    Title : English Subtitle
    Language : English
    Encoded date : UTC 2015-09-15 06:28:39
    Tagged date : UTC 2015-09-15 06:28:39
    Menu #1
    00:00:00.000 : 1
    00:00:00.417 : 2
    00:16:05.965 : 3
    00:32:49.050 : 4
    00:49:33.512 : 5
    01:05:22.043 : 6
    01:16:20.034 : 7
    Menu #2
    ID : 14
    Codec ID : text
    Duration : 1h 27mn
    Title : Chapter Titles
    Language : English
    Encoded date : UTC 2015-09-15 06:29:48
    Tagged date : UTC 2015-09-15 06:29:48
    Bit rate mode : CBR
    00:00:00.000 : 1
    00:00:00.417 : 2
    00:16:05.965 : 3
    00:32:49.050 : 4
    00:49:33.512 : 5
    01:05:22.043 : 6
    01:16:20.034 : 7

    x264 лог 480p Release

    HandBrakeCLI -i "/STOP_OMMW_SHOOT_BLUEBIRD/BDMV/STREAM/00004.m2ts" -t 1 -o "Stop.or.my.Mother.480p.eng.m4v" -f mp4 -I -O -w 640 -l 462 --crop 20:20:0:0 --custom-anamorphic --modulus 2 --pixel-aspect 852:640 -e x264 -b 1800 -2 -a none -x cabac=0:ref=2:me=umh:bframes=0:weightp=0:subq=6:8x8dct=0:trellis=0:vbv-maxrate=5000:vbv-bufsize=5000 --verbose=1
    x264 [info]: frame I:2268  Avg QP:17.21  size: 29587  PSNR Mean Y:47.06 U:51.16 V:51.57 Avg:47.98 Global:47.36
    x264 [info]: frame P:123266 Avg QP:19.64  size:  9009  PSNR Mean Y:43.98 U:48.93 V:48.57 Avg:44.89 Global:44.39
    x264 [info]: mb I  I16..4: 25.9%  0.0% 74.1%
    x264 [info]: mb P  I16..4:  1.1%  0.0%  2.7%  P16..4: 48.0% 23.7%  9.6%  0.0%  0.0%    skip:14.9%
    x264 [info]: coded y,uvDC,uvAC intra: 72.4% 74.7% 48.5% inter: 31.2% 27.9% 4.8%
    x264 [info]: i16 v,h,dc,p: 44% 15%  9% 32%
    x264 [info]: i4 v,h,dc,ddl,ddr,vr,hd,vl,hu: 28% 16% 16%  6%  8%  9%  6%  7%  5%
    x264 [info]: i8c dc,h,v,p: 51% 16% 26%  7%
    x264 [info]: ref P L0: 75.8% 24.2%
    x264 [info]: SSIM Mean Y:0.9836518 (17.865db)
    x264 [info]: PSNR Mean Y:44.036 U:48.967 V:48.620 Avg:44.946 Global:44.429 kb/s:1799.36

    x264 лог 720p Release

    HandBrakeCLI -i "/STOP_OMMW_SHOOT_BLUEBIRD/BDMV/STREAM/00004.m2ts" -t 1 -o "Stop.or.my.Mother.720p.eng.m4v" -f mp4 -4 -O -w 1280 -l 694 --crop 20:20:0:0 --modulus 2 -e x264 -b 5000 -2 -a none -x cabac=0:ref=3:me=umh:b-pyramid=none:b-adapt=2:weightb=0:trellis=0:weightp=0:vbv-maxrate=9500:vbv-bufsize=9500:subq=9:merange=32:deblock=-3,-2:qcomp=0.60:qpmin=0:qpmax=69:fast_pskip=0:aq-strength=0.8:no-dct-decimate=1:psy-rd=1.00,0.25 --verbose=1
    x264 [info]: frame I:1185  Avg QP:15.59  size:116175  PSNR Mean Y:48.64 U:51.92 V:52.16 Avg:49.44 Global:49.16
    x264 [info]: frame P:42968 Avg QP:17.99  size: 46696  PSNR Mean Y:46.25 U:50.71 V:50.50 Avg:47.17 Global:46.73
    x264 [info]: frame B:81381 Avg QP:20.60  size: 13818  PSNR Mean Y:44.73 U:50.22 V:50.09 Avg:45.78 Global:45.29
    x264 [info]: consecutive B-frames:  2.3% 20.1% 41.0% 36.6%
    x264 [info]: mb I  I16..4:  5.4% 59.7% 34.8%
    x264 [info]: mb P  I16..4:  2.9% 11.8%  4.5%  P16..4: 42.7% 24.3%  9.5%  0.0%  0.0%    skip: 4.2%
    x264 [info]: mb B  I16..4:  0.4%  1.5%  0.5%  B16..8: 43.0% 12.4%  1.9%  direct: 7.8%  skip:32.6%  L0:37.2% L1:47.4% BI:15.3%
    x264 [info]: 8x8 transform intra:61.6% inter:46.3%
    x264 [info]: coded y,uvDC,uvAC intra: 80.5% 76.0% 45.8% inter: 29.1% 27.7% 9.8%
    x264 [info]: i16 v,h,dc,p: 38% 16% 10% 37%
    x264 [info]: i8 v,h,dc,ddl,ddr,vr,hd,vl,hu: 12%  9%  6% 10% 14% 14% 13% 11% 11%
    x264 [info]: i4 v,h,dc,ddl,ddr,vr,hd,vl,hu: 13% 10%  4% 11% 16% 15% 12% 10%  9%
    x264 [info]: i8c dc,h,v,p: 47% 20% 22% 10%
    x264 [info]: ref P L0: 70.7% 17.8% 11.5%
    x264 [info]: ref B L0: 83.5% 16.5%
    x264 [info]: SSIM Mean Y:0.9836108 (17.854db)
    x264 [info]: PSNR Mean Y:45.290 U:50.408 V:50.251 Avg:46.293 Global:45.757 kb/s:4994.23

    Скриншоты 480p Release

    Скриншоты 720p Release

    -

    Релиз подготовлен для просмотра на Apple TV, iPad, iPhone, iPod Touch.
    Для просмотра данного релиза на компьютере с ОС Windows рекомендуется использовать VLC media player
    Скачать .torrent

    Скачать торрент-файл бесплатно и на максимальной скорости!

    Как скачивать? · Что такое торрент? · Рейтинг и ограничения

    !ВНИМАНИЕ!
    Сайт не распространяет и не хранит электронные версии произведений, а занимается лишь лишь предоставлением доступа к создаваемому пользователями каталогу ссылок на торрент-файлы, которые содержат только списки хеш-сумм, убедительная просьба с жалобами обращаться напрямую к пользователю. Файлы для обмена на трекере предоставлены пользователями сайта, и администрация не несёт ответственности за их содержание. Просьба не заливать файлы, защищенные авторскими правами, а также файлы нелегального содержания!


    _________________
    [Профиль] [ЛС]
    Показать сообщения:    
    Ответить на тему

    Текущее время: Сегодня, в 10:48

    Часовой пояс: GMT + 2



    Вы не можете начинать темы
    Вы не можете отвечать на сообщения
    Вы не можете редактировать свои сообщения
    Вы не можете удалять свои сообщения
    Вы не можете голосовать в опросах
    Вы не можете прикреплять файлы к сообщениям
    Вы не можете скачивать файлы