BitTorrentTracker PerecTracker.org
BitTorrentTracker PerecTracker.org
    
Регистрация  ·  Вход
 
 · 
Забыли пароль?

  • [ATV3] Алоха / Aloha (Кэмерон Кроу / Cameron Crowe ) [2015, США, Драма, мелодрама, комедия, WEB-DL, HD (1080p)] DUB + Original + sub (rus, ukr, eng)

    Ответить на тему
     
    Автор Сообщение

    Flirldrerve

    Создавать темы 27-Окт-2015 05:18

           

    [Цитировать]

    Алоха / Aloha
    «Sometimes you have to say goodbye before you can say hello»
    5.996 / 10 5.50 / 10
    -Год выпуска: 2015
    Страна: США
    Жанр: Драма, мелодрама, комедия
    Продолжительность: 01:45:21
    Перевод: Дублированный (iTunes)
    Оригинальная аудиодорожка: Есть
    Cубтитры: Русские форсированные, Украинские форсированные, , Английские форсированные, Русские, Украинские
    Режиссёр: Кэмерон Кроу
    Сценарий: Кэмерон Кроу
    Продюсер: Кэмерон Кроу, Скотт Рудин, Эли Буш
    Оператор: Эрик Готье
    Композитор: Йоун Тоур Биргиссон, Алекс Сомерс
    Художник: Клэй А. Гриффит, Питер Борк, Дебора Линн Скотт
    Монтаж: Джо Хатшинг
    В ролях: Брэдли Купер, Эмма Стоун, Рэйчел МакАдамс, Билл Мюррей, Джон Красински, Дэнни МакБрайд, Алек Болдуин, Билл Кэмп, Джейден Либерер, Даниэль Роуз Расселл
    Бюджет: $37 000 000
    Сборы в США: $21 067 116
    Сборы в мире: + $5 182 904 = $26 250 020
    Мировая премьера: 27 мая 2015
    Описание: 37-летний дискредитированный американский консультант по оружию Брайн Джилкрест не нравится практически всем окружающим его людям. Его единственный друг - техник по имени Джереми - супер умный и хорошо осведомленный компьютерщик.В ответ на агрессию со стороны Китая Джилкреста отправляют на бездействующую военную базу на Гавайях, чтобы оттуда он контролировал запуск современного спутника-шпиона. Это задание сведет его с девушкой по имени Трейси...-Качество исходника: WEB-DL 1080p (BlueBird)
    Качество: WEB-DL
    Тип: HD (1080p)
    Контейнер: M4V
    Видео: H.264, 1916x1034, 1.85:1, 5 087 Kbps, 23.976 fps
    Аудио 1: Русский/Дублированный (iTunes), AAC / 2.0 / 156 Kbps / 48.0 KHz
    Аудио 2: Английский/Оригинальная дорожка , AAC / 2.0 / 156 Kbps / 48.0 KHz
    Аудио 3: Украинский/Дублированный (iTunes), AAC / 2.0 / 158 Kbps / 48.0 KHz
    Аудио 4: Русский/Дублированный (iTunes), AC-3 / 5.1 / 384 Kbps / 48.0 KHz
    Субтитры 1: Русские форсированные
    Субтитры 2: Украинские форсированные
    Субтитры 3: Английские форсированные
    Субтитры 4: Русские полные
    Субтитры 5: Украинские полные
    -

    iTunes Meta Tags

    General
    Complete name : /Users/imac/HandBrake/Aloha.WEB.DL.1080p.m4v
    Format : MPEG-4
    Codec ID : M4V
    File size : 4.38 GiB
    Duration : 1h 45mn
    Overall bit rate mode : Variable
    Overall bit rate : 5 949 Kbps
    Movie name : Aloha
    Performer : Cameron Crowe
    Director : Кэмерон Кроу
    Actor : Брэдли Купер / Эмма Стоун / Рэйчел МакАдамс / Билл Мюррей / Джон Красински / Дэнни МакБрайд / Алек Болдуин / Билл Кэмп / Джейден Либерер / Даниэль Роуз Расселл
    Screenplay by : Кэмерон Кроу
    Producer : Кэмерон Кроу / Скотт Рудин / Эли Буш
    Production studio : Columbia Pictures
    Genre : Comedy
    ContentType : Short Film
    Description : 37-летний дискредитированный американский консультант по оружию Брайн Джилкрест не нравится практически всем окружающим его людям. Его единственный друг - техник по имени Джереми - супер умный и хорошо осведомленный компьютерщик. / В ответ на агрессию со стороны Китая Джилкреста отправляют на бездействующую военную базу на Гавайях, чтобы оттуда он контролировал запуск современного спутника-шпиона. Это задание сведет его с девушкой по имени Трейси...
    Recorded date : UTC 2015-05-27 08:00:00
    Encoded date : UTC 2015-09-23 11:01:31
    Tagged date : UTC 2015-09-23 11:12:27
    Cover : Yes
    Rating : None
    Title/Sort : Aloha
    LongDescription : 37-летний дискредитированный американский консультант по оружию Брайн Джилкрест не нравится практически всем окружающим его людям. Его единственный друг - техник по имени Джереми - супер умный и хорошо осведомленный компьютерщик. / В ответ на агрессию со стороны Китая Джилкреста отправляют на бездействующую военную базу на Гавайях, чтобы оттуда он контролировал запуск современного спутника-шпиона. Это задание сведет его с девушкой по имени Трейси...
    AppleStoreCatalogID : 993999211
    Vendor : Apple:vendor_id:2015-430568
    ContentRating : mpaa|PG-13|300|
    Video #1
    ID : 1
    Format : AVC
    Format/Info : Advanced Video Codec
    Format profile : High@L4
    Format settings, CABAC : Yes
    Format settings, ReFrames : 4 frames
    Codec ID : avc1
    Codec ID/Info : Advanced Video Coding
    Duration : 1h 45mn
    Bit rate : 5 087 Kbps
    Width : 1 916 pixels
    Height : 1 034 pixels
    Display aspect ratio : 1.85:1
    Frame rate mode : Constant
    Frame rate : 23.976 fps
    Color space : YUV
    Chroma subsampling : 4:2:0
    Bit depth : 8 bits
    Scan type : Progressive
    Bits/(Pixel*Frame) : 0.107
    Stream size : 3.74 GiB (86%)
    Title : Main Program
    Language : English
    Encoded date : UTC 2015-09-23 11:01:31
    Tagged date : UTC 2015-09-23 11:01:43
    Color range : Limited
    Color primaries : BT.709
    Transfer characteristics : BT.709
    Matrix coefficients : BT.709
    Video #2
    ID : 12
    Format : JPEG
    Codec ID : jpeg
    Duration : 1h 45mn
    Bit rate mode : Variable
    Bit rate : 585 bps
    Width : 640 pixels
    Height : 345 pixels
    Display aspect ratio : 1.85:1
    Frame rate mode : Variable
    Frame rate : 0.002 fps
    Minimum frame rate : 0.001 fps
    Maximum frame rate : 0.003 fps
    Color space : YUV
    Chroma subsampling : 4:2:0
    Bit depth : 8 bits
    Compression mode : Lossy
    Bits/(Pixel*Frame) : 1.325
    Stream size : 428 KiB (0%)
    Language : English
    Encoded date : UTC 2015-09-23 11:01:51
    Tagged date : UTC 2015-09-23 11:01:52
    Audio #1
    ID : 2
    Format : AAC
    Format/Info : Advanced Audio Codec
    Format profile : LC
    Codec ID : 40
    Duration : 1h 44mn
    Bit rate mode : Variable
    Bit rate : 156 Kbps
    Maximum bit rate : 231 Kbps
    Channel(s) : 2 channels
    Channel positions : Front: L R
    Sampling rate : 48.0 KHz
    Compression mode : Lossy
    Stream size : 117 MiB (3%)
    Title : Russian Stereo
    Language : Russian
    Encoded date : UTC 2015-09-23 11:01:31
    Tagged date : UTC 2015-09-23 11:01:46
    Audio #2
    ID : 3
    Format : AAC
    Format/Info : Advanced Audio Codec
    Format profile : LC
    Codec ID : 40
    Duration : 1h 44mn
    Bit rate mode : Variable
    Bit rate : 156 Kbps
    Maximum bit rate : 268 Kbps
    Channel(s) : 2 channels
    Channel positions : Front: L R
    Sampling rate : 48.0 KHz
    Compression mode : Lossy
    Stream size : 117 MiB (3%)
    Title : English Stereo
    Language : English
    Encoded date : UTC 2015-09-23 11:01:31
    Tagged date : UTC 2015-09-23 11:01:46
    Audio #3
    ID : 4
    Format : AAC
    Format/Info : Advanced Audio Codec
    Format profile : LC
    Codec ID : 40
    Duration : 1h 44mn
    Bit rate mode : Variable
    Bit rate : 158 Kbps
    Maximum bit rate : 258 Kbps
    Channel(s) : 2 channels
    Channel positions : Front: L R
    Sampling rate : 48.0 KHz
    Compression mode : Lossy
    Stream size : 118 MiB (3%)
    Title : Ukranian Stereo
    Language : Ukrainian
    Encoded date : UTC 2015-09-23 11:01:31
    Tagged date : UTC 2015-09-23 11:01:46
    Audio #4
    ID : 5
    Format : AC-3
    Format/Info : Audio Coding 3
    Mode extension : CM (complete main)
    Format settings, Endianness : Big
    Codec ID : ac-3
    Duration : 1h 44mn
    Bit rate mode : Constant
    Bit rate : 384 Kbps
    Channel(s) : 6 channels
    Channel positions : Front: L C R, Side: L R, LFE
    Sampling rate : 48.0 KHz
    Bit depth : 16 bits
    Compression mode : Lossy
    Stream size : 288 MiB (6%)
    Title : Russian DD 5.1
    Language : Russian
    Encoded date : UTC 2015-09-23 11:01:31
    Tagged date : UTC 2015-09-23 11:01:35
    Text #1
    ID : 6
    Format : Timed Text
    Muxing mode : sbtl
    Codec ID : tx3g
    Duration : 1h 44mn
    Bit rate mode : Variable
    Bit rate : 1 bps
    Stream size : 520 Bytes (0%)
    Title : Russian forced
    Language : Russian
    Encoded date : UTC 2015-09-23 11:01:31
    Tagged date : UTC 2015-09-23 11:01:31
    Text #2
    ID : 7
    Format : Timed Text
    Muxing mode : sbtl
    Codec ID : tx3g
    Duration : 1h 44mn
    Bit rate mode : Variable
    Bit rate : 1 bps
    Stream size : 473 Bytes (0%)
    Title : Ukranian forced
    Language : Ukrainian
    Encoded date : UTC 2015-09-23 11:01:31
    Tagged date : UTC 2015-09-23 11:01:31
    Text #3
    ID : 8
    Format : Timed Text
    Muxing mode : sbtl
    Codec ID : tx3g
    Duration : 1h 44mn
    Bit rate mode : Variable
    Bit rate : 107 bps
    Stream size : 81.7 KiB (0%)
    Title : Russian full
    Language : Russian
    Encoded date : UTC 2015-09-23 11:01:31
    Tagged date : UTC 2015-09-23 11:01:31
    Text #4
    ID : 9
    Format : Timed Text
    Muxing mode : sbtl
    Codec ID : tx3g
    Duration : 1h 44mn
    Bit rate mode : Variable
    Bit rate : 111 bps
    Stream size : 84.7 KiB (0%)
    Title : Ukranian full
    Language : Ukrainian
    Encoded date : UTC 2015-09-23 11:01:31
    Tagged date : UTC 2015-09-23 11:01:31
    Text #5
    ID : 10
    Format : Timed Text
    Muxing mode : sbtl
    Codec ID : tx3g
    Duration : 1h 31mn
    Bit rate mode : Variable
    Bit rate : 0 bps
    Stream size : 247 Bytes (0%)
    Title : English forced
    Language : English
    Encoded date : UTC 2015-09-23 11:01:31
    Tagged date : UTC 2015-09-23 11:01:31
    Menu #1
    00:00:00.000 : 1
    00:09:57.000 : 2
    00:20:18.000 : 3
    00:29:47.000 : 4
    00:41:44.000 : 5
    00:50:15.000 : 6
    00:59:00.000 : 7
    01:05:22.000 : 8
    01:12:16.000 : 9
    01:21:16.000 : 10
    01:30:26.000 : 11
    01:38:38.000 : 12
    Menu #2
    ID : 11
    Codec ID : text
    Duration : 1h 45mn
    Language : English
    Encoded date : UTC 2015-09-23 11:01:46
    Tagged date : UTC 2015-09-23 11:01:46
    00:00:00.000 : 1
    00:09:57.000 : 2
    00:20:18.000 : 3
    00:29:47.000 : 4
    00:41:44.000 : 5
    00:50:15.000 : 6
    00:59:00.000 : 7
    01:05:22.000 : 8
    01:12:16.000 : 9
    01:21:16.000 : 10
    01:30:26.000 : 11
    01:38:38.000 : 12
    Bit rate mode : VBR

    MediaInfo

    General
    Complete name : /Users/imac/HandBrake/Aloha.WEB.DL.1080p.m4v
    Format : MPEG-4
    Codec ID : M4V
    File size : 4.38 GiB
    Duration : 1h 45mn
    Overall bit rate mode : Variable
    Overall bit rate : 5 949 Kbps
    Movie name : Aloha
    Performer : Cameron Crowe
    Director : Кэмерон Кроу
    Actor : Брэдли Купер / Эмма Стоун / Рэйчел МакАдамс / Билл Мюррей / Джон Красински / Дэнни МакБрайд / Алек Болдуин / Билл Кэмп / Джейден Либерер / Даниэль Роуз Расселл
    Screenplay by : Кэмерон Кроу
    Producer : Кэмерон Кроу / Скотт Рудин / Эли Буш
    Production studio : Columbia Pictures
    Genre : Comedy
    ContentType : Short Film
    Description : 37-летний дискредитированный американский консультант по оружию Брайн Джилкрест не нравится практически всем окружающим его людям. Его единственный друг - техник по имени Джереми - супер умный и хорошо осведомленный компьютерщик. / В ответ на агрессию со стороны Китая Джилкреста отправляют на бездействующую военную базу на Гавайях, чтобы оттуда он контролировал запуск современного спутника-шпиона. Это задание сведет его с девушкой по имени Трейси...
    Recorded date : UTC 2015-05-27 08:00:00
    Encoded date : UTC 2015-09-23 11:01:31
    Tagged date : UTC 2015-09-23 11:12:27
    Cover : Yes
    Rating : None
    Title/Sort : Aloha
    LongDescription : 37-летний дискредитированный американский консультант по оружию Брайн Джилкрест не нравится практически всем окружающим его людям. Его единственный друг - техник по имени Джереми - супер умный и хорошо осведомленный компьютерщик. / В ответ на агрессию со стороны Китая Джилкреста отправляют на бездействующую военную базу на Гавайях, чтобы оттуда он контролировал запуск современного спутника-шпиона. Это задание сведет его с девушкой по имени Трейси...
    AppleStoreCatalogID : 993999211
    Vendor : Apple:vendor_id:2015-430568
    ContentRating : mpaa|PG-13|300|
    Video #1
    ID : 1
    Format : AVC
    Format/Info : Advanced Video Codec
    Format profile : High@L4
    Format settings, CABAC : Yes
    Format settings, ReFrames : 4 frames
    Codec ID : avc1
    Codec ID/Info : Advanced Video Coding
    Duration : 1h 45mn
    Bit rate : 5 087 Kbps
    Width : 1 916 pixels
    Height : 1 034 pixels
    Display aspect ratio : 1.85:1
    Frame rate mode : Constant
    Frame rate : 23.976 fps
    Color space : YUV
    Chroma subsampling : 4:2:0
    Bit depth : 8 bits
    Scan type : Progressive
    Bits/(Pixel*Frame) : 0.107
    Stream size : 3.74 GiB (86%)
    Title : Main Program
    Language : English
    Encoded date : UTC 2015-09-23 11:01:31
    Tagged date : UTC 2015-09-23 11:01:43
    Color range : Limited
    Color primaries : BT.709
    Transfer characteristics : BT.709
    Matrix coefficients : BT.709
    Video #2
    ID : 12
    Format : JPEG
    Codec ID : jpeg
    Duration : 1h 45mn
    Bit rate mode : Variable
    Bit rate : 585 bps
    Width : 640 pixels
    Height : 345 pixels
    Display aspect ratio : 1.85:1
    Frame rate mode : Variable
    Frame rate : 0.002 fps
    Minimum frame rate : 0.001 fps
    Maximum frame rate : 0.003 fps
    Color space : YUV
    Chroma subsampling : 4:2:0
    Bit depth : 8 bits
    Compression mode : Lossy
    Bits/(Pixel*Frame) : 1.325
    Stream size : 428 KiB (0%)
    Language : English
    Encoded date : UTC 2015-09-23 11:01:51
    Tagged date : UTC 2015-09-23 11:01:52
    Audio #1
    ID : 2
    Format : AAC
    Format/Info : Advanced Audio Codec
    Format profile : LC
    Codec ID : 40
    Duration : 1h 44mn
    Bit rate mode : Variable
    Bit rate : 156 Kbps
    Maximum bit rate : 231 Kbps
    Channel(s) : 2 channels
    Channel positions : Front: L R
    Sampling rate : 48.0 KHz
    Compression mode : Lossy
    Stream size : 117 MiB (3%)
    Title : Russian Stereo
    Language : Russian
    Encoded date : UTC 2015-09-23 11:01:31
    Tagged date : UTC 2015-09-23 11:01:46
    Audio #2
    ID : 3
    Format : AAC
    Format/Info : Advanced Audio Codec
    Format profile : LC
    Codec ID : 40
    Duration : 1h 44mn
    Bit rate mode : Variable
    Bit rate : 156 Kbps
    Maximum bit rate : 268 Kbps
    Channel(s) : 2 channels
    Channel positions : Front: L R
    Sampling rate : 48.0 KHz
    Compression mode : Lossy
    Stream size : 117 MiB (3%)
    Title : English Stereo
    Language : English
    Encoded date : UTC 2015-09-23 11:01:31
    Tagged date : UTC 2015-09-23 11:01:46
    Audio #3
    ID : 4
    Format : AAC
    Format/Info : Advanced Audio Codec
    Format profile : LC
    Codec ID : 40
    Duration : 1h 44mn
    Bit rate mode : Variable
    Bit rate : 158 Kbps
    Maximum bit rate : 258 Kbps
    Channel(s) : 2 channels
    Channel positions : Front: L R
    Sampling rate : 48.0 KHz
    Compression mode : Lossy
    Stream size : 118 MiB (3%)
    Title : Ukranian Stereo
    Language : Ukrainian
    Encoded date : UTC 2015-09-23 11:01:31
    Tagged date : UTC 2015-09-23 11:01:46
    Audio #4
    ID : 5
    Format : AC-3
    Format/Info : Audio Coding 3
    Mode extension : CM (complete main)
    Format settings, Endianness : Big
    Codec ID : ac-3
    Duration : 1h 44mn
    Bit rate mode : Constant
    Bit rate : 384 Kbps
    Channel(s) : 6 channels
    Channel positions : Front: L C R, Side: L R, LFE
    Sampling rate : 48.0 KHz
    Bit depth : 16 bits
    Compression mode : Lossy
    Stream size : 288 MiB (6%)
    Title : Russian DD 5.1
    Language : Russian
    Encoded date : UTC 2015-09-23 11:01:31
    Tagged date : UTC 2015-09-23 11:01:35
    Text #1
    ID : 6
    Format : Timed Text
    Muxing mode : sbtl
    Codec ID : tx3g
    Duration : 1h 44mn
    Bit rate mode : Variable
    Bit rate : 1 bps
    Stream size : 520 Bytes (0%)
    Title : Russian forced
    Language : Russian
    Encoded date : UTC 2015-09-23 11:01:31
    Tagged date : UTC 2015-09-23 11:01:31
    Text #2
    ID : 7
    Format : Timed Text
    Muxing mode : sbtl
    Codec ID : tx3g
    Duration : 1h 44mn
    Bit rate mode : Variable
    Bit rate : 1 bps
    Stream size : 473 Bytes (0%)
    Title : Ukranian forced
    Language : Ukrainian
    Encoded date : UTC 2015-09-23 11:01:31
    Tagged date : UTC 2015-09-23 11:01:31
    Text #3
    ID : 8
    Format : Timed Text
    Muxing mode : sbtl
    Codec ID : tx3g
    Duration : 1h 44mn
    Bit rate mode : Variable
    Bit rate : 107 bps
    Stream size : 81.7 KiB (0%)
    Title : Russian full
    Language : Russian
    Encoded date : UTC 2015-09-23 11:01:31
    Tagged date : UTC 2015-09-23 11:01:31
    Text #4
    ID : 9
    Format : Timed Text
    Muxing mode : sbtl
    Codec ID : tx3g
    Duration : 1h 44mn
    Bit rate mode : Variable
    Bit rate : 111 bps
    Stream size : 84.7 KiB (0%)
    Title : Ukranian full
    Language : Ukrainian
    Encoded date : UTC 2015-09-23 11:01:31
    Tagged date : UTC 2015-09-23 11:01:31
    Text #5
    ID : 10
    Format : Timed Text
    Muxing mode : sbtl
    Codec ID : tx3g
    Duration : 1h 31mn
    Bit rate mode : Variable
    Bit rate : 0 bps
    Stream size : 247 Bytes (0%)
    Title : English forced
    Language : English
    Encoded date : UTC 2015-09-23 11:01:31
    Tagged date : UTC 2015-09-23 11:01:31
    Menu #1
    00:00:00.000 : 1
    00:09:57.000 : 2
    00:20:18.000 : 3
    00:29:47.000 : 4
    00:41:44.000 : 5
    00:50:15.000 : 6
    00:59:00.000 : 7
    01:05:22.000 : 8
    01:12:16.000 : 9
    01:21:16.000 : 10
    01:30:26.000 : 11
    01:38:38.000 : 12
    Menu #2
    ID : 11
    Codec ID : text
    Duration : 1h 45mn
    Language : English
    Encoded date : UTC 2015-09-23 11:01:46
    Tagged date : UTC 2015-09-23 11:01:46
    00:00:00.000 : 1
    00:09:57.000 : 2
    00:20:18.000 : 3
    00:29:47.000 : 4
    00:41:44.000 : 5
    00:50:15.000 : 6
    00:59:00.000 : 7
    01:05:22.000 : 8
    01:12:16.000 : 9
    01:21:16.000 : 10
    01:30:26.000 : 11
    01:38:38.000 : 12
    Bit rate mode : VBR

    Скриншоты

    -

    Релиз подготовлен для просмотра на Apple TV, iPad, iPhone, iPod Touch.
    Для просмотра данного релиза на компьютере с ОС Windows рекомендуется использовать VLC media player
    Скачать .torrent

    Скачать торрент-файл бесплатно и на максимальной скорости!

    Как скачивать? · Что такое торрент? · Рейтинг и ограничения

    !ВНИМАНИЕ!
    Сайт не распространяет и не хранит электронные версии произведений, а занимается лишь лишь предоставлением доступа к создаваемому пользователями каталогу ссылок на торрент-файлы, которые содержат только списки хеш-сумм, убедительная просьба с жалобами обращаться напрямую к пользователю. Файлы для обмена на трекере предоставлены пользователями сайта, и администрация не несёт ответственности за их содержание. Просьба не заливать файлы, защищенные авторскими правами, а также файлы нелегального содержания!


    _________________
    [Профиль] [ЛС]
    Показать сообщения:    
    Ответить на тему

    Текущее время: Сегодня, в 21:55

    Часовой пояс: GMT + 2



    Вы не можете начинать темы
    Вы не можете отвечать на сообщения
    Вы не можете редактировать свои сообщения
    Вы не можете удалять свои сообщения
    Вы не можете голосовать в опросах
    Вы не можете прикреплять файлы к сообщениям
    Вы не можете скачивать файлы