BitTorrentTracker PerecTracker.org
BitTorrentTracker PerecTracker.org
    
Регистрация  ·  Вход
 
 · 
Забыли пароль?

  • Служители закона / U.S. Marshals (Стюарт Бейрд) [1998, США, боевик, триллер, криминал, BDRip HD (720p), SD (480p)] DUB, MVO, AVO, Original + SUB (rus, eng)

    Ответить на тему
     
    Автор Сообщение

    Flirldrerve

    Создавать темы 27-Окт-2015 05:18

           

    [Цитировать]

    Служители закона / U.S. Marshals
    "Полицейский, которого не остановить, возвращается. Но на этот раз он преследует не только беглеца"
    7.329 / 10
    -Год выпуска: 1998
    Страна: США
    Жанр: боевик, триллер, криминал
    Продолжительность: 131 мин.
    Перевод: Профессиональный дублированный перевод, многоголосый закадровый перевод и одноголосый закадровый авторский перевод
    Оригинальная аудиодорожка: Есть
    Cубтитры: Русские полные и английские полные SDH
    Режиссёр: Стюарт Бейрд
    Сценарий: Джон Пог, Рой Хаггинс
    Продюсер: Энн Копельсон, Арнольд Копельсон, Кит Бариш
    Оператор: Анджей Бартковяк
    Композитор: Джерри Голдсмит
    Художник: Мехер Ахмад, Брюс Алан Миллер, Марк Вортингтон
    Монтаж: Терри Роулингс
    В ролях: Томми Ли Джонс, Уэсли Снайпс, Роберт Дауни мл., Джо Пантольяно, Дэниэл Робак, Том Вуд, ЛаТаня Ричардсон Джексон, Ирен Жакоб, Кейт Неллиган, Патрик Мэлахайд
    Роли дублировали: Рудольф Панков, Владимир Вихров, Всеволод Кузнецов, Владимир Еремин, Вячеслав Баранов
    Бюджет: $60 000 000
    Сборы в США: $57 167 405
    Сборы в мире: + $45 200 000 = $102 367 405
    Мировая премьера: 6 марта 1998
    Премьера (РФ): 20 апреля 1999, Кармен-Премьер
    Релиз на DVD: 17 октября 2000, Мост-Видео
    Описание: Самолет, перевозивший заключенных, терпит аварию и совершает вынужденную посадку. Воспользовавшись ситуацией, из-под конвоя бежит особо опасный арестант - бывший секретный агент, обвиненный в убийстве двух других агентов. Но не только полиция и группа Джерарда идут по его следу; беглец представляет интерес и кое для кого еще. Он слишком много знает, и этот кое-кто желал бы его убрать...-Качество исходника: Blu-Ray 1080p (BlueBird)
    Качество: BDRip
    Тип: 480p 720p
    Контейнер: m4v
    Видео: 640x480 анаморф 852x480 at 23.976 fps, MPEG-4 AVC, ~1800 kbps avg
    Видео: 1280x720 at 23.976 fps, MPEG-4 AVC, ~7000 kbps avg
    Аудио#1: Russian: 48 kHz, ААС, 2/0 (L,R), ~128.00 / 192.00 kbps avg |Дубляж, R5|
    Аудио#2: Russian: 48 kHz, ААС, 2/0 (L,R), ~128.00 / 192.00 kbps avg |Дубляж, Варус Видео|
    Аудио#3: Russian: 48 kHz, ААС, 2/0 (L,R), ~128.00 / 192.00 kbps avg |Многоголосый закадровый, НТВ|
    Аудио#4: Russian: 48 kHz, ААС, 2/0 (L,R), ~128.00 / 192.00 kbps avg |Одноголосый закадровый, А. Кашкин|
    Аудио#5: Russian: 48 kHz, ААС, 2/0 (L,R), ~128.00 / 192.00 kbps avg |Одноголосый закадровый, А. Гаврилов|
    Аудио#6: Russian: 48 kHz, ААС, 2/0 (L,R), ~128.00 / 192.00 kbps avg |Одноголосый закадровый, Ю. Живов|
    Аудио#7: English: 48 kHz, ААС, 2/0 (L,R), ~128.00 / 192.00 kbps avg
    Аудио#8: English: 48 kHz, ААС, 2/0 (L,R), ~128.00 / 192.00 kbps avg |Комментарии|
    Аудио#9: Russian: 48 kHz, AC3, 3/2 (L,C,R,l,r) + LFE ch, ~384.00 kbps avg |Дубляж, R5|
    Аудио#10: Russian: 48 kHz, AC3, 3/2 (L,C,R,l,r) + LFE ch, ~640.00 kbps avg |Одноголосый закадровый, А. Гаврилов|
    Аудио#11: Russian: 48 kHz, AC3, 3/2 (L,C,R,l,r) + LFE ch, ~640.00 kbps avg |Одноголосый закадровый, Ю. Живов|
    Аудио#12: English: 48 kHz, AC3, 3/2 (L,C,R,l,r) + LFE ch, ~640.00 kbps avg
    Субтитры №1: Russian: |Полные|
    Субтитры №2: English: |Полные, SDH|-

    iTunes Meta Tags for country ru

    Name: Служители закона
    Artist: Stuart Baird
    Genre: Action & Adventure
    Release Date: 1998-03-06T08:00:00Z
    Description: Самолет, перевозивший заключенных, терпит аварию и совершает вынужденную посадку. Воспользовавшись ситуацией, из-под конвоя бежит особо опасный арестант - бывший секретный агент, обвиненный в убийстве двух других агентов. Но не только полиция и группа Джерарда идут по его следу; беглец представляет интерес и кое для кого еще. Он слишком много знает, и этот кое-кто желал бы его убрать...
    Long Description: Самолет, перевозивший заключенных, терпит аварию и совершает вынужденную посадку. Воспользовавшись ситуацией, из-под конвоя бежит особо опасный арестант - бывший секретный агент, обвиненный в убийстве двух других агентов. Но не только полиция и группа Джерарда идут по его следу; беглец представляет интерес и кое для кого еще. Он слишком много знает, и этот кое-кто желал бы его убрать...
    Rating: 16+
    Studio: Warner Bros.
    Cast: Томми Ли Джонс, Уэсли Снайпс, Роберт Дауни мл., Джо Пантольяно, Дэниэл Робак, Том Вуд, ЛаТаня Ричардсон Джексон, Ирен Жакоб, Кейт Неллиган, Патрик Мэлахайд
    Director: Стюарт Бейрд
    Producers: Энн Копельсон, Арнольд Копельсон, Кит Бариш
    Screenwriters: Джон Пог, Рой Хаггинс
    Copyright: © 1998 Warner Bros Entertainment Inc. Все права защищены.
    contentID: 606826521
    XID: Apple:vendor_id:1998-3901
    Sort Name: Служители закона

    iTunes Meta Tags for country us

    Name: U.S. Marshals
    Artist: Stuart Baird
    Genre: Action & Adventure
    Release Date: 1998-03-06T08:00:00Z
    Description: Самолет, перевозивший заключенных, терпит аварию и совершает вынужденную посадку. Воспользовавшись ситуацией, из-под конвоя бежит особо опасный арестант - бывший секретный агент, обвиненный в убийстве двух других агентов. Но не только полиция и группа Джерарда идут по его следу; беглец представляет интерес и кое для кого еще. Он слишком много знает, и этот кое-кто желал бы его убрать...
    Long Description: Самолет, перевозивший заключенных, терпит аварию и совершает вынужденную посадку. Воспользовавшись ситуацией, из-под конвоя бежит особо опасный арестант - бывший секретный агент, обвиненный в убийстве двух других агентов. Но не только полиция и группа Джерарда идут по его следу; беглец представляет интерес и кое для кого еще. Он слишком много знает, и этот кое-кто желал бы его убрать...
    Rating: PG-13
    Rating Annotation: Rated PG-13 for some scenes of violence and brief language.
    Studio: Warner Bros.
    Cast: Томми Ли Джонс, Уэсли Снайпс, Роберт Дауни мл., Джо Пантольяно, Дэниэл Робак, Том Вуд, ЛаТаня Ричардсон Джексон, Ирен Жакоб, Кейт Неллиган, Патрик Мэлахайд
    Director: Стюарт Бейрд
    Producers: Энн Копельсон, Арнольд Копельсон, Кит Бариш
    Screenwriters: Джон Пог, Рой Хаггинс
    Copyright: © 1998 Warner Bros Entertainment Inc. All Rights Reserved
    contentID: 279599153
    XID: Apple:vendor_id:1998-3901
    Sort Name: U.S. Marshals

    MediaInfo 480p Release

    General
    Complete name : U.S. Marshals.m4v
    Format : MPEG-4
    Codec ID : M4V
    File size : 2.62 GiB
    Duration : 2h 11mn
    Overall bit rate mode : Variable
    Overall bit rate : 2 859 Kbps
    Movie name : U.S. Marshals
    Performer : Stuart Baird
    Director : Стюарт Бейрд
    Actor : Томми Ли Джонс / Уэсли Снайпс / Роберт Дауни мл. / Джо Пантольяно / Дэниэл Робак / Том Вуд / ЛаТаня Ричардсон Джексон / Ирен Жакоб / Кейт Неллиган / Патрик Мэлахайд
    Screenplay by : Джон Пог / Рой Хаггинс
    Producer : Энн Копельсон / Арнольд Копельсон / Кит Бариш
    Production studio : Warner Bros.
    Genre : Action & Adventure
    ContentType : Short Film
    Description : Самолет, перевозивший заключенных, терпит аварию и совершает вынужденную посадку. Воспользовавшись ситуацией, из-под конвоя бежит особо опасный арестант - бывший секретный агент, обвиненный в убийстве двух других агентов. Но не только полиция и группа Джерарда идут по его следу; беглец представляет интерес и кое для кого еще. Он слишком много знает, и этот кое-кто желал бы его убрать...
    Recorded date : UTC 1998-03-06 08:00:00
    Encoded date : UTC 2015-09-25 08:09:12
    Tagged date : UTC 2015-09-25 08:12:52
    Copyright : © 1998 Warner Bros Entertainment Inc. All Rights Reserved
    Cover : Yes
    Rating : None
    Title/Sort : U.S. Marshals
    LongDescription : Самолет, перевозивший заключенных, терпит аварию и совершает вынужденную посадку. Воспользовавшись ситуацией, из-под конвоя бежит особо опасный арестант - бывший секретный агент, обвиненный в убийстве двух других агентов. Но не только полиция и группа Джерарда идут по его следу; беглец представляет интерес и кое для кого еще. Он слишком много знает, и этот кое-кто желал бы его убрать...
    AppleStoreCatalogID : 279599153
    Vendor : Apple:vendor_id:1998-3901
    ContentRating : mpaa|PG-13|300|Rated PG-13 for some scenes of violence and brief language.
    Video #1
    ID : 1
    Format : AVC
    Format/Info : Advanced Video Codec
    Format profile : Baseline@L3
    Format settings, CABAC : No
    Format settings, ReFrames : 2 frames
    Codec ID : avc1
    Codec ID/Info : Advanced Video Coding
    Duration : 2h 11mn
    Bit rate : 1 800 Kbps
    Width : 640 pixels
    Height : 480 pixels
    Display aspect ratio : 16:9
    Frame rate mode : Variable
    Frame rate : 23.976 fps
    Minimum frame rate : 23.974 fps
    Maximum frame rate : 23.981 fps
    Color space : YUV
    Chroma subsampling : 4:2:0
    Bit depth : 8 bits
    Scan type : Progressive
    Bits/(Pixel*Frame) : 0.244
    Stream size : 1.64 GiB (63%)
    Title : Main Program
    Writing library : x264 core 130 r2273 b3065e6
    Encoding settings : cabac=0 / ref=2 / deblock=1:0:0 / analyse=0x1:0x111 / me=umh / subme=6 / psy=1 / psy_rd=1.00:0.00 / mixed_ref=1 / me_range=16 / chroma_me=1 / trellis=0 / 8x8dct=0 / cqm=0 / deadzone=21,11 / fast_pskip=1 / chroma_qp_offset=-2 / threads=18 / lookahead_threads=3 / sliced_threads=0 / nr=0 / decimate=1 / interlaced=0 / bluray_compat=0 / constrained_intra=0 / bframes=0 / weightp=0 / keyint=240 / keyint_min=24 / scenecut=40 / intra_refresh=0 / rc_lookahead=40 / rc=2pass / mbtree=1 / bitrate=1800 / ratetol=1.0 / qcomp=0.60 / qpmin=0 / qpmax=69 / qpstep=4 / cplxblur=20.0 / qblur=0.5 / vbv_maxrate=5000 / vbv_bufsize=5000 / nal_hrd=none / ip_ratio=1.40 / aq=1:1.00
    Language : English
    Encoded date : UTC 2015-09-25 08:09:12
    Tagged date : UTC 2015-09-25 08:09:18
    Color range : Limited
    Color primaries : BT.709
    Transfer characteristics : BT.709
    Matrix coefficients : BT.709
    Video #2
    ID : 13
    Format : JPEG
    Codec ID : jpeg
    Duration : 2h 11mn
    Bit rate mode : Variable
    Bit rate : 1 866 bps
    Width : 640 pixels
    Height : 360 pixels
    Display aspect ratio : 16:9
    Frame rate mode : Variable
    Frame rate : 0.005 fps
    Minimum frame rate : 0.002 fps
    Maximum frame rate : 0.011 fps
    Color space : YUV
    Chroma subsampling : 4:2:0
    Bit depth : 8 bits
    Compression mode : Lossy
    Bits/(Pixel*Frame) : 1.620
    Stream size : 1.78 MiB (0%)
    Title : Chapter Images
    Language : English
    Encoded date : UTC 2015-09-25 08:09:34
    Tagged date : UTC 2015-09-25 08:09:34
    Audio #1
    ID : 2
    Format : AAC
    Format/Info : Advanced Audio Codec
    Format profile : LC
    Codec ID : 40
    Duration : 2h 11mn
    Bit rate mode : Variable
    Bit rate : 132 Kbps
    Maximum bit rate : 207 Kbps
    Channel(s) : 2 channels
    Channel positions : Front: L R
    Sampling rate : 48.0 KHz
    Compression mode : Lossy
    Stream size : 123 MiB (5%)
    Title : Russian DUB R5 Stereo
    Language : Russian
    Encoded date : UTC 2015-09-25 08:09:12
    Tagged date : UTC 2015-09-25 08:09:27
    Audio #2
    ID : 3
    Format : AAC
    Format/Info : Advanced Audio Codec
    Format profile : LC
    Codec ID : 40
    Duration : 2h 11mn
    Bit rate mode : Variable
    Bit rate : 132 Kbps
    Maximum bit rate : 180 Kbps
    Channel(s) : 2 channels
    Channel positions : Front: L R
    Sampling rate : 48.0 KHz
    Compression mode : Lossy
    Stream size : 123 MiB (5%)
    Title : Russian DUB Varus Video Stereo
    Language : Russian
    Encoded date : UTC 2015-09-25 08:09:12
    Tagged date : UTC 2015-09-25 08:09:27
    Audio #3
    ID : 4
    Format : AAC
    Format/Info : Advanced Audio Codec
    Format profile : LC
    Codec ID : 40
    Duration : 2h 11mn
    Bit rate mode : Variable
    Bit rate : 128 Kbps
    Maximum bit rate : 186 Kbps
    Channel(s) : 2 channels
    Channel positions : Front: L R
    Sampling rate : 48.0 KHz
    Compression mode : Lossy
    Stream size : 120 MiB (4%)
    Title : Russian MVO HTB Stereo
    Language : Russian
    Encoded date : UTC 2015-09-25 08:09:12
    Tagged date : UTC 2015-09-25 08:09:27
    Audio #4
    ID : 5
    Format : AAC
    Format/Info : Advanced Audio Codec
    Format profile : LC
    Codec ID : 40
    Duration : 2h 11mn
    Bit rate mode : Variable
    Bit rate : 128 Kbps
    Maximum bit rate : 195 Kbps
    Channel(s) : 2 channels
    Channel positions : Front: L R
    Sampling rate : 48.0 KHz
    Compression mode : Lossy
    Stream size : 120 MiB (4%)
    Title : Russian AVO A.Kashkin Stereo
    Language : Russian
    Encoded date : UTC 2015-09-25 08:09:13
    Tagged date : UTC 2015-09-25 08:09:27
    Audio #5
    ID : 6
    Format : AAC
    Format/Info : Advanced Audio Codec
    Format profile : LC
    Codec ID : 40
    Duration : 2h 11mn
    Bit rate mode : Variable
    Bit rate : 132 Kbps
    Maximum bit rate : 223 Kbps
    Channel(s) : 2 channels
    Channel positions : Front: L R
    Sampling rate : 48.0 KHz
    Compression mode : Lossy
    Stream size : 124 MiB (5%)
    Title : Russian AVO A.Gavrilov Stereo
    Language : Russian
    Encoded date : UTC 2015-09-25 08:09:13
    Tagged date : UTC 2015-09-25 08:09:27
    Audio #6
    ID : 7
    Format : AAC
    Format/Info : Advanced Audio Codec
    Format profile : LC
    Codec ID : 40
    Duration : 2h 11mn
    Bit rate mode : Variable
    Bit rate : 132 Kbps
    Maximum bit rate : 224 Kbps
    Channel(s) : 2 channels
    Channel positions : Front: L R
    Sampling rate : 48.0 KHz
    Compression mode : Lossy
    Stream size : 124 MiB (5%)
    Title : Russian AVO U.Zhivov Stereo
    Language : Russian
    Encoded date : UTC 2015-09-25 08:09:13
    Tagged date : UTC 2015-09-25 08:09:27
    Audio #7
    ID : 8
    Format : AAC
    Format/Info : Advanced Audio Codec
    Format profile : LC
    Codec ID : 40
    Duration : 2h 11mn
    Bit rate mode : Variable
    Bit rate : 132 Kbps
    Maximum bit rate : 223 Kbps
    Channel(s) : 2 channels
    Channel positions : Front: L R
    Sampling rate : 48.0 KHz
    Compression mode : Lossy
    Stream size : 124 MiB (5%)
    Title : English Stereo
    Language : English
    Encoded date : UTC 2015-09-25 08:09:13
    Tagged date : UTC 2015-09-25 08:09:27
    Audio #8
    ID : 9
    Format : AAC
    Format/Info : Advanced Audio Codec
    Format profile : LC
    Codec ID : 40
    Duration : 2h 11mn
    Bit rate mode : Variable
    Bit rate : 132 Kbps
    Maximum bit rate : 210 Kbps
    Channel(s) : 2 channels
    Channel positions : Front: L R
    Sampling rate : 48.0 KHz
    Compression mode : Lossy
    Stream size : 123 MiB (5%)
    Title : English Commentary Stereo
    Language : English
    Encoded date : UTC 2015-09-25 08:09:13
    Tagged date : UTC 2015-09-25 08:09:27
    Text #1
    ID : 10
    Format : Timed Text
    Muxing mode : sbtl
    Codec ID : tx3g
    Duration : 2h 3mn
    Bit rate mode : Variable
    Bit rate : 72 bps
    Stream size : 65.1 KiB (0%)
    Title : Russian R5 Subtitle
    Language : Russian
    Encoded date : UTC 2015-09-25 08:09:13
    Tagged date : UTC 2015-09-25 08:09:13
    Text #2
    ID : 11
    Format : Timed Text
    Muxing mode : sbtl
    Codec ID : tx3g
    Duration : 2h 3mn
    Bit rate mode : Variable
    Bit rate : 60 bps
    Stream size : 54.3 KiB (0%)
    Title : English SDH Subtitle
    Language : English
    Encoded date : UTC 2015-09-25 08:09:13
    Tagged date : UTC 2015-09-25 08:09:13
    Menu #1
    00:00:00.000 : On Camera
    00:01:35.095 : An Accident
    00:03:37.425 : Extra Crispy Bust
    00:07:00.837 : Celebrate!
    00:09:51.591 : Mistaken Identity
    00:11:35.569 : Escort Duty
    00:13:20.090 : Into the Unfriendly Skies
    00:15:37.770 : Bathroom Break
    00:18:45.499 : Mayday
    00:21:42.801 : Unhappy Landing
    00:23:38.667 : Last Men Out
    00:27:23.558 : A Fugitive
    00:31:07.866 : New Team Player
    00:35:55.528 : Hostages; Seen it Before
    00:40:11.200 : Drive, Mark Said
    00:42:45.020 : Swamp Search
    00:45:10.666 : Caught Off Guard
    00:49:35.347 : Taking it Personally
    00:52:05.664 : A Matter of Trust
    00:55:05.969 : Next Move
    00:58:24.417 : Questioning Marie
    01:02:18.693 : Deadly Connection
    01:05:19.165 : What's Going On Here?
    01:10:31.352 : The Name's Sheridan
    01:13:35.619 : Got 'im - Almost
    01:16:48.520 : Double Pursuit
    01:22:58.932 : Trail to a Cemetery
    01:25:53.940 : Fall Guy
    01:29:53.262 : A Sniper Strikes
    01:32:18.241 : The Chase
    01:34:52.645 : Senior Citizen Hotel
    01:38:04.003 : Walked Right Into It
    01:40:35.779 : Swing to Freedom
    01:42:40.445 : We Lost Him
    01:44:20.754 : The Great Sam Gerard
    01:49:26.142 : Cargo Apprehended
    01:54:40.498 : Weapons Check
    01:57:28.166 : The Real Traitor
    02:01:14.517 : In from the Cold
    02:03:48.295 : End Credits
    Menu #2
    ID : 12
    Codec ID : text
    Duration : 2h 11mn
    Title : Chapter Titles
    Language : English
    Encoded date : UTC 2015-09-25 08:09:27
    Tagged date : UTC 2015-09-25 08:09:27
    00:00:00.000 : On Camera
    00:01:35.095 : An Accident
    00:03:37.425 : Extra Crispy Bust
    00:07:00.837 : Celebrate!
    00:09:51.591 : Mistaken Identity
    00:11:35.569 : Escort Duty
    00:13:20.090 : Into the Unfriendly Skies
    00:15:37.770 : Bathroom Break
    00:18:45.499 : Mayday
    00:21:42.801 : Unhappy Landing
    00:23:38.667 : Last Men Out
    00:27:23.558 : A Fugitive
    00:31:07.866 : New Team Player
    00:35:55.528 : Hostages; Seen it Before
    00:40:11.200 : Drive, Mark Said
    00:42:45.020 : Swamp Search
    00:45:10.666 : Caught Off Guard
    00:49:35.347 : Taking it Personally
    00:52:05.664 : A Matter of Trust
    00:55:05.969 : Next Move
    00:58:24.417 : Questioning Marie
    01:02:18.693 : Deadly Connection
    01:05:19.165 : What's Going On Here?
    01:10:31.352 : The Name's Sheridan
    01:13:35.619 : Got 'im - Almost
    01:16:48.520 : Double Pursuit
    01:22:58.932 : Trail to a Cemetery
    01:25:53.940 : Fall Guy
    01:29:53.262 : A Sniper Strikes
    01:32:18.241 : The Chase
    01:34:52.645 : Senior Citizen Hotel
    01:38:04.003 : Walked Right Into It
    01:40:35.779 : Swing to Freedom
    01:42:40.445 : We Lost Him
    01:44:20.754 : The Great Sam Gerard
    01:49:26.142 : Cargo Apprehended
    01:54:40.498 : Weapons Check
    01:57:28.166 : The Real Traitor
    02:01:14.517 : In from the Cold
    02:03:48.295 : End Credits
    Bit rate mode : VBR

    MediaInfo 720p Release

    General
    Complete name : U.S. Marshals (HD).m4v
    Format : MPEG-4
    Codec ID : M4V
    File size : 9.89 GiB
    Duration : 2h 11mn
    Overall bit rate mode : Variable
    Overall bit rate : 10.8 Mbps
    Movie name : U.S. Marshals
    Performer : Stuart Baird
    Director : Стюарт Бейрд
    Actor : Томми Ли Джонс / Уэсли Снайпс / Роберт Дауни мл. / Джо Пантольяно / Дэниэл Робак / Том Вуд / ЛаТаня Ричардсон Джексон / Ирен Жакоб / Кейт Неллиган / Патрик Мэлахайд
    Screenplay by : Джон Пог / Рой Хаггинс
    Producer : Энн Копельсон / Арнольд Копельсон / Кит Бариш
    Production studio : Warner Bros.
    Genre : Action & Adventure
    ContentType : Short Film
    Description : Самолет, перевозивший заключенных, терпит аварию и совершает вынужденную посадку. Воспользовавшись ситуацией, из-под конвоя бежит особо опасный арестант - бывший секретный агент, обвиненный в убийстве двух других агентов. Но не только полиция и группа Джерарда идут по его следу; беглец представляет интерес и кое для кого еще. Он слишком много знает, и этот кое-кто желал бы его убрать...
    Recorded date : UTC 1998-03-06 08:00:00
    Encoded date : UTC 2015-09-25 07:13:14
    Tagged date : UTC 2015-09-25 08:01:00
    Copyright : © 1998 Warner Bros Entertainment Inc. All Rights Reserved
    Cover : Yes
    Rating : None
    Title/Sort : U.S. Marshals
    LongDescription : Самолет, перевозивший заключенных, терпит аварию и совершает вынужденную посадку. Воспользовавшись ситуацией, из-под конвоя бежит особо опасный арестант - бывший секретный агент, обвиненный в убийстве двух других агентов. Но не только полиция и группа Джерарда идут по его следу; беглец представляет интерес и кое для кого еще. Он слишком много знает, и этот кое-кто желал бы его убрать...
    HDVideo : Yes
    AppleStoreCatalogID : 279599153
    Vendor : Apple:vendor_id:1998-3901
    ContentRating : mpaa|PG-13|300|Rated PG-13 for some scenes of violence and brief language.
    Video #1
    ID : 1
    Format : AVC
    Format/Info : Advanced Video Codec
    Format profile : High@L3.1
    Format settings, CABAC : No
    Format settings, ReFrames : 3 frames
    Codec ID : avc1
    Codec ID/Info : Advanced Video Coding
    Duration : 2h 11mn
    Bit rate : 7 000 Kbps
    Width : 1 280 pixels
    Height : 720 pixels
    Display aspect ratio : 16:9
    Frame rate mode : Variable
    Frame rate : 23.976 fps
    Minimum frame rate : 23.974 fps
    Maximum frame rate : 23.981 fps
    Color space : YUV
    Chroma subsampling : 4:2:0
    Bit depth : 8 bits
    Scan type : Progressive
    Bits/(Pixel*Frame) : 0.317
    Stream size : 6.39 GiB (65%)
    Title : Main Program
    Writing library : x264 core 130 r2273 b3065e6
    Encoding settings : cabac=0 / ref=3 / deblock=1:-3:-2 / analyse=0x3:0x113 / me=umh / subme=9 / psy=1 / psy_rd=0.80:0.25 / mixed_ref=1 / me_range=32 / chroma_me=1 / trellis=0 / 8x8dct=1 / cqm=0 / deadzone=6,6 / fast_pskip=0 / chroma_qp_offset=-2 / threads=18 / lookahead_threads=1 / sliced_threads=0 / nr=0 / decimate=0 / interlaced=0 / bluray_compat=0 / constrained_intra=0 / bframes=3 / b_pyramid=0 / b_adapt=2 / b_bias=0 / direct=1 / weightb=0 / open_gop=0 / weightp=0 / keyint=240 / keyint_min=24 / scenecut=40 / intra_refresh=0 / rc_lookahead=40 / rc=2pass / mbtree=1 / bitrate=7000 / ratetol=1.0 / qcomp=0.80 / qpmin=0 / qpmax=69 / qpstep=4 / cplxblur=20.0 / qblur=0.5 / vbv_maxrate=9500 / vbv_bufsize=9500 / nal_hrd=none / ip_ratio=1.10 / aq=1:0.50
    Language : English
    Encoded date : UTC 2015-09-25 07:13:15
    Tagged date : UTC 2015-09-25 07:13:36
    Color range : Limited
    Color primaries : BT.709
    Transfer characteristics : BT.709
    Matrix coefficients : BT.709
    Video #2
    ID : 17
    Format : JPEG
    Codec ID : jpeg
    Duration : 2h 11mn
    Bit rate mode : Variable
    Bit rate : 2 028 bps
    Width : 640 pixels
    Height : 360 pixels
    Display aspect ratio : 16:9
    Frame rate mode : Variable
    Frame rate : 0.005 fps
    Minimum frame rate : 0.002 fps
    Maximum frame rate : 0.011 fps
    Color space : YUV
    Chroma subsampling : 4:2:0
    Bit depth : 8 bits
    Compression mode : Lossy
    Bits/(Pixel*Frame) : 1.760
    Stream size : 1.93 MiB (0%)
    Title : Chapter Images
    Language : English
    Encoded date : UTC 2015-09-25 08:00:21
    Tagged date : UTC 2015-09-25 08:00:21
    Audio #1
    ID : 2
    Format : AAC
    Format/Info : Advanced Audio Codec
    Format profile : LC
    Codec ID : 40
    Duration : 2h 11mn
    Bit rate mode : Variable
    Bit rate : 197 Kbps
    Maximum bit rate : 299 Kbps
    Channel(s) : 2 channels
    Channel positions : Front: L R
    Sampling rate : 48.0 KHz
    Compression mode : Lossy
    Stream size : 185 MiB (2%)
    Title : Russian DUB R5 Stereo
    Language : Russian
    Encoded date : UTC 2015-09-25 07:13:15
    Tagged date : UTC 2015-09-25 07:13:40
    Audio #2
    ID : 3
    Format : AAC
    Format/Info : Advanced Audio Codec
    Format profile : LC
    Codec ID : 40
    Duration : 2h 11mn
    Bit rate mode : Variable
    Bit rate : 197 Kbps
    Maximum bit rate : 310 Kbps
    Channel(s) : 2 channels
    Channel positions : Front: L R
    Sampling rate : 48.0 KHz
    Compression mode : Lossy
    Stream size : 185 MiB (2%)
    Title : Russian DUB Varus Video Stereo
    Language : Russian
    Encoded date : UTC 2015-09-25 07:16:37
    Tagged date : UTC 2015-09-25 07:16:43
    Audio #3
    ID : 4
    Format : AAC
    Format/Info : Advanced Audio Codec
    Format profile : LC
    Codec ID : 40
    Duration : 2h 11mn
    Bit rate mode : Variable
    Bit rate : 128 Kbps
    Maximum bit rate : 186 Kbps
    Channel(s) : 2 channels
    Channel positions : Front: L R
    Sampling rate : 48.0 KHz
    Compression mode : Lossy
    Stream size : 120 MiB (1%)
    Title : Russian MVO HTB Stereo
    Language : Russian
    Encoded date : UTC 2015-09-25 07:19:00
    Tagged date : UTC 2015-09-25 07:19:14
    Audio #4
    ID : 5
    Format : AAC
    Format/Info : Advanced Audio Codec
    Format profile : LC
    Codec ID : 40
    Duration : 2h 11mn
    Bit rate mode : Variable
    Bit rate : 187 Kbps
    Maximum bit rate : 267 Kbps
    Channel(s) : 2 channels
    Channel positions : Front: L R
    Sampling rate : 48.0 KHz
    Compression mode : Lossy
    Stream size : 176 MiB (2%)
    Title : Russian AVO A.Kashkin Stereo
    Language : Russian
    Encoded date : UTC 2015-09-25 07:19:00
    Tagged date : UTC 2015-09-25 07:19:14
    Audio #5
    ID : 6
    Format : AAC
    Format/Info : Advanced Audio Codec
    Format profile : LC
    Codec ID : 40
    Duration : 2h 11mn
    Bit rate mode : Variable
    Bit rate : 197 Kbps
    Maximum bit rate : 327 Kbps
    Channel(s) : 2 channels
    Channel positions : Front: L R
    Sampling rate : 48.0 KHz
    Compression mode : Lossy
    Stream size : 185 MiB (2%)
    Title : Russian AVO A.Gavrilov Stereo
    Language : Russian
    Encoded date : UTC 2015-09-25 07:19:00
    Tagged date : UTC 2015-09-25 07:19:14
    Audio #6
    ID : 7
    Format : AAC
    Format/Info : Advanced Audio Codec
    Format profile : LC
    Codec ID : 40
    Duration : 2h 11mn
    Bit rate mode : Variable
    Bit rate : 197 Kbps
    Maximum bit rate : 327 Kbps
    Channel(s) : 2 channels
    Channel positions : Front: L R
    Sampling rate : 48.0 KHz
    Compression mode : Lossy
    Stream size : 185 MiB (2%)
    Title : Russian AVO U.Zhivov Stereo
    Language : Russian
    Encoded date : UTC 2015-09-25 07:19:00
    Tagged date : UTC 2015-09-25 07:19:14
    Audio #7
    ID : 8
    Format : AAC
    Format/Info : Advanced Audio Codec
    Format profile : LC
    Codec ID : 40
    Duration : 2h 11mn
    Bit rate mode : Variable
    Bit rate : 198 Kbps
    Maximum bit rate : 329 Kbps
    Channel(s) : 2 channels
    Channel positions : Front: L R
    Sampling rate : 48.0 KHz
    Compression mode : Lossy
    Stream size : 186 MiB (2%)
    Title : English Stereo
    Language : English
    Encoded date : UTC 2015-09-25 07:19:00
    Tagged date : UTC 2015-09-25 07:19:14
    Audio #8
    ID : 9
    Format : AAC
    Format/Info : Advanced Audio Codec
    Format profile : LC
    Codec ID : 40
    Duration : 2h 11mn
    Bit rate mode : Variable
    Bit rate : 197 Kbps
    Maximum bit rate : 311 Kbps
    Channel(s) : 2 channels
    Channel positions : Front: L R
    Sampling rate : 48.0 KHz
    Compression mode : Lossy
    Stream size : 185 MiB (2%)
    Title : English Commentary Stereo
    Language : English
    Encoded date : UTC 2015-09-25 07:19:00
    Tagged date : UTC 2015-09-25 07:19:14
    Audio #9
    ID : 10
    Format : AC-3
    Format/Info : Audio Coding 3
    Mode extension : CM (complete main)
    Format settings, Endianness : Big
    Codec ID : ac-3
    Duration : 2h 11mn
    Bit rate mode : Constant
    Bit rate : 384 Kbps
    Channel(s) : 6 channels
    Channel positions : Front: L C R, Side: L R, LFE
    Sampling rate : 48.0 KHz
    Bit depth : 16 bits
    Compression mode : Lossy
    Stream size : 360 MiB (4%)
    Title : Russian DUB R5 DD 5.1
    Language : Russian
    Encoded date : UTC 2015-09-25 07:25:32
    Tagged date : UTC 2015-09-25 07:33:56
    Audio #10
    ID : 11
    Format : AC-3
    Format/Info : Audio Coding 3
    Mode extension : CM (complete main)
    Format settings, Endianness : Big
    Codec ID : ac-3
    Duration : 2h 11mn
    Bit rate mode : Constant
    Bit rate : 640 Kbps
    Channel(s) : 6 channels
    Channel positions : Front: L C R, Side: L R, LFE
    Sampling rate : 48.0 KHz
    Bit depth : 16 bits
    Compression mode : Lossy
    Stream size : 600 MiB (6%)
    Title : Russian AVO A.Gavrilov DD 5.1
    Language : Russian
    Encoded date : UTC 2015-09-25 07:36:38
    Tagged date : UTC 2015-09-25 07:36:44
    Audio #11
    ID : 12
    Format : AC-3
    Format/Info : Audio Coding 3
    Mode extension : CM (complete main)
    Format settings, Endianness : Big
    Codec ID : ac-3
    Duration : 2h 11mn
    Bit rate mode : Constant
    Bit rate : 640 Kbps
    Channel(s) : 6 channels
    Channel positions : Front: L C R, Side: L R, LFE
    Sampling rate : 48.0 KHz
    Bit depth : 16 bits
    Compression mode : Lossy
    Stream size : 600 MiB (6%)
    Title : Russian AVO U.Zhivov DD 5.1
    Language : Russian
    Encoded date : UTC 2015-09-25 07:36:38
    Tagged date : UTC 2015-09-25 07:36:44
    Audio #12
    ID : 13
    Format : AC-3
    Format/Info : Audio Coding 3
    Mode extension : CM (complete main)
    Format settings, Endianness : Big
    Codec ID : ac-3
    Duration : 2h 11mn
    Bit rate mode : Constant
    Bit rate : 640 Kbps
    Channel(s) : 6 channels
    Channel positions : Front: L C R, Side: L R, LFE
    Sampling rate : 48.0 KHz
    Bit depth : 16 bits
    Compression mode : Lossy
    Stream size : 600 MiB (6%)
    Title : English DD 5.1
    Language : English
    Encoded date : UTC 2015-09-25 07:59:33
    Tagged date : UTC 2015-09-25 07:59:37
    Text #1
    ID : 14
    Format : Timed Text
    Muxing mode : sbtl
    Codec ID : tx3g
    Duration : 2h 3mn
    Bit rate mode : Variable
    Bit rate : 72 bps
    Stream size : 65.1 KiB (0%)
    Title : Russian R5 Subtitle
    Language : Russian
    Encoded date : UTC 2015-09-25 08:00:07
    Tagged date : UTC 2015-09-25 08:00:07
    Text #2
    ID : 15
    Format : Timed Text
    Muxing mode : sbtl
    Codec ID : tx3g
    Duration : 2h 3mn
    Bit rate mode : Variable
    Bit rate : 60 bps
    Stream size : 54.3 KiB (0%)
    Title : English SDH Subtitle
    Language : English
    Encoded date : UTC 2015-09-25 08:00:07
    Tagged date : UTC 2015-09-25 08:00:07
    Menu #1
    00:00:00.000 : On Camera
    00:01:35.095 : An Accident
    00:03:37.425 : Extra Crispy Bust
    00:07:00.837 : Celebrate!
    00:09:51.591 : Mistaken Identity
    00:11:35.569 : Escort Duty
    00:13:20.090 : Into the Unfriendly Skies
    00:15:37.770 : Bathroom Break
    00:18:45.499 : Mayday
    00:21:42.801 : Unhappy Landing
    00:23:38.667 : Last Men Out
    00:27:23.558 : A Fugitive
    00:31:07.866 : New Team Player
    00:35:55.528 : Hostages; Seen it Before
    00:40:11.200 : Drive, Mark Said
    00:42:45.020 : Swamp Search
    00:45:10.666 : Caught Off Guard
    00:49:35.347 : Taking it Personally
    00:52:05.664 : A Matter of Trust
    00:55:05.969 : Next Move
    00:58:24.417 : Questioning Marie
    01:02:18.693 : Deadly Connection
    01:05:19.165 : What's Going On Here?
    01:10:31.352 : The Name's Sheridan
    01:13:35.619 : Got 'im - Almost
    01:16:48.520 : Double Pursuit
    01:22:58.932 : Trail to a Cemetery
    01:25:53.940 : Fall Guy
    01:29:53.262 : A Sniper Strikes
    01:32:18.241 : The Chase
    01:34:52.645 : Senior Citizen Hotel
    01:38:04.003 : Walked Right Into It
    01:40:35.779 : Swing to Freedom
    01:42:40.445 : We Lost Him
    01:44:20.754 : The Great Sam Gerard
    01:49:26.142 : Cargo Apprehended
    01:54:40.498 : Weapons Check
    01:57:28.166 : The Real Traitor
    02:01:14.517 : In from the Cold
    02:03:48.295 : End Credits
    Menu #2
    ID : 16
    Codec ID : text
    Duration : 2h 11mn
    Title : Chapter Titles
    Language : English
    Encoded date : UTC 2015-09-25 08:00:07
    Tagged date : UTC 2015-09-25 08:00:07
    00:00:00.000 : On Camera
    00:01:35.095 : An Accident
    00:03:37.425 : Extra Crispy Bust
    00:07:00.837 : Celebrate!
    00:09:51.591 : Mistaken Identity
    00:11:35.569 : Escort Duty
    00:13:20.090 : Into the Unfriendly Skies
    00:15:37.770 : Bathroom Break
    00:18:45.499 : Mayday
    00:21:42.801 : Unhappy Landing
    00:23:38.667 : Last Men Out
    00:27:23.558 : A Fugitive
    00:31:07.866 : New Team Player
    00:35:55.528 : Hostages; Seen it Before
    00:40:11.200 : Drive, Mark Said
    00:42:45.020 : Swamp Search
    00:45:10.666 : Caught Off Guard
    00:49:35.347 : Taking it Personally
    00:52:05.664 : A Matter of Trust
    00:55:05.969 : Next Move
    00:58:24.417 : Questioning Marie
    01:02:18.693 : Deadly Connection
    01:05:19.165 : What's Going On Here?
    01:10:31.352 : The Name's Sheridan
    01:13:35.619 : Got 'im - Almost
    01:16:48.520 : Double Pursuit
    01:22:58.932 : Trail to a Cemetery
    01:25:53.940 : Fall Guy
    01:29:53.262 : A Sniper Strikes
    01:32:18.241 : The Chase
    01:34:52.645 : Senior Citizen Hotel
    01:38:04.003 : Walked Right Into It
    01:40:35.779 : Swing to Freedom
    01:42:40.445 : We Lost Him
    01:44:20.754 : The Great Sam Gerard
    01:49:26.142 : Cargo Apprehended
    01:54:40.498 : Weapons Check
    01:57:28.166 : The Real Traitor
    02:01:14.517 : In from the Cold
    02:03:48.295 : End Credits
    Bit rate mode : VBR

    x264 лог 480p Release

    HandBrakeCLI -i "/USMarshals.BlueBird/BDMV/STREAM/00100.m2ts" -t 1 -o "U.S.Marshal.480p.eng.m4v" -f mp4 -I -O -w 640 -l 480 --crop 0:0:0:0 --custom-anamorphic --modulus 16 --pixel-aspect 852:640 -e x264 -b 1800 -2 -a none -x cabac=0:ref=2:me=umh:bframes=0:weightp=0:subq=6:8x8dct=0:trellis=0:vbv-maxrate=5000:vbv-bufsize=5000 --verbose=1
    x264 [info]: frame I:5297  Avg QP:18.50  size: 28635  PSNR Mean Y:45.89 U:48.04 V:49.77 Avg:46.62 Global:44.54
    x264 [info]: frame P:183320 Avg QP:20.59  size:  8795  PSNR Mean Y:43.25 U:45.68 V:47.33 Avg:44.02 Global:43.40
    x264 [info]: mb I  I16..4: 24.1%  0.0% 75.9%
    x264 [info]: mb P  I16..4:  1.0%  0.0%  3.3%  P16..4: 49.4% 21.6%  9.0%  0.0%  0.0%    skip:15.7%
    x264 [info]: coded y,uvDC,uvAC intra: 74.6% 79.4% 57.3% inter: 28.4% 28.7% 5.9%
    x264 [info]: i16 v,h,dc,p: 37% 16%  9% 39%
    x264 [info]: i4 v,h,dc,ddl,ddr,vr,hd,vl,hu: 25% 17% 16%  7%  8%  9%  7%  7%  5%
    x264 [info]: i8c dc,h,v,p: 52% 17% 22%  9%
    x264 [info]: ref P L0: 74.0% 26.0%
    x264 [info]: SSIM Mean Y:0.9775413 (16.486db)
    x264 [info]: PSNR Mean Y:43.324 U:45.742 V:47.403 Avg:44.097 Global:43.432 kb/s:1793.80

    x264 лог 720p Release

    HandBrakeCLI -i /USMarshals.BlueBird/BDMV/STREAM/00100.m2ts -t 1 -o U.S.Marshal.720p.eng.m4v -f mp4 -4 -O -w 1280 -l 720 --crop 0:0:0:0 --modulus 16 -e x264 -b 7000 -2 -a none -x cabac=0:ref=3:me=umh:b-pyramid=none:b-adapt=2:weightb=0:trellis=0:weightp=0:vbv-maxrate=9500:vbv-bufsize=9500:subq=9:merange=32:deblock=-3,-2:qcomp=0.80:qpmin=0:qpmax=69:fast_pskip=0:aq-strength=0.5:no-dct-decimate=1:psy-rd=0.80,0.25:ipratio=1.1:pbratio=1.1:deadzone-inter=6:deadzone-intra=6 --verbose=1
    x264 [info]: frame I:2288  Avg QP:19.26  size: 95041  PSNR Mean Y:46.56 U:47.40 V:49.49 Avg:47.05 Global:46.67
    x264 [info]: frame P:65692 Avg QP:20.53  size: 60108  PSNR Mean Y:45.15 U:46.14 V:48.59 Avg:45.70 Global:45.11
    x264 [info]: frame B:120637 Avg QP:21.85  size: 22304  PSNR Mean Y:43.98 U:45.17 V:48.29 Avg:44.62 Global:43.97
    x264 [info]: consecutive B-frames:  3.3% 23.3% 33.3% 40.2%
    x264 [info]: mb I  I16..4:  8.1% 67.8% 24.1%
    x264 [info]: mb P  I16..4:  2.4% 16.1%  3.6%  P16..4: 44.2% 21.9%  8.9%  0.0%  0.0%    skip: 3.0%
    x264 [info]: mb B  I16..4:  0.2%  2.2%  0.5%  B16..8: 31.8% 10.2%  1.7%  direct: 9.1%  skip:44.3%  L0:34.2% L1:37.2% BI:28.6%
    x264 [info]: 8x8 transform intra:72.7% inter:46.6%
    x264 [info]: coded y,uvDC,uvAC intra: 89.5% 85.1% 66.4% inter: 41.9% 31.1% 16.0%
    x264 [info]: i16 v,h,dc,p: 27% 15%  9% 49%
    x264 [info]: i8 v,h,dc,ddl,ddr,vr,hd,vl,hu:  8% 10%  5% 11% 15% 14% 14% 11% 11%
    x264 [info]: i4 v,h,dc,ddl,ddr,vr,hd,vl,hu: 10% 12%  3% 11% 16% 15% 14% 10%  9%
    x264 [info]: i8c dc,h,v,p: 53% 17% 17% 12%
    x264 [info]: ref P L0: 68.5% 19.2% 12.3%
    x264 [info]: ref B L0: 81.9% 18.1%
    x264 [info]: SSIM Mean Y:0.9751776 (16.052db)
    x264 [info]: PSNR Mean Y:44.421 U:45.537 V:48.412 Avg:45.027 Global:44.360 kb/s:6972.69

    Скриншоты 480p Release

    Скриншоты 720p Release

    Цитата:
    • BD-Remux лежал на винте почти 2 года и вот до него дошли руки ... Из ремукса я взял только видео;
    • Все звуковые дорожки взяты из раздачи;
    • Субтитры взяты из нее же. Все ошибки при распознавании аккуратно исправлены.
    -

    Релиз подготовлен для просмотра на Apple TV, iPad, iPhone, iPod Touch.
    Для просмотра данного релиза на компьютере с ОС Windows рекомендуется использовать VLC media player
    Скачать .torrent

    Скачать торрент-файл бесплатно и на максимальной скорости!

    Как скачивать? · Что такое торрент? · Рейтинг и ограничения

    !ВНИМАНИЕ!
    Сайт не распространяет и не хранит электронные версии произведений, а занимается лишь лишь предоставлением доступа к создаваемому пользователями каталогу ссылок на торрент-файлы, которые содержат только списки хеш-сумм, убедительная просьба с жалобами обращаться напрямую к пользователю. Файлы для обмена на трекере предоставлены пользователями сайта, и администрация не несёт ответственности за их содержание. Просьба не заливать файлы, защищенные авторскими правами, а также файлы нелегального содержания!


    _________________
    [Профиль] [ЛС]
    Показать сообщения:    
    Ответить на тему

    Текущее время: Сегодня, в 16:00

    Часовой пояс: GMT + 2



    Вы не можете начинать темы
    Вы не можете отвечать на сообщения
    Вы не можете редактировать свои сообщения
    Вы не можете удалять свои сообщения
    Вы не можете голосовать в опросах
    Вы не можете прикреплять файлы к сообщениям
    Вы не можете скачивать файлы