BitTorrentTracker PerecTracker.org
BitTorrentTracker PerecTracker.org
    
Регистрация  ·  Вход
 
 · 
Забыли пароль?

  • [ATV3] Алоха / Aloha (Кэмерон Кроу / Cameron Crowe ) [2015, США, Драма, мелодрама, комедия, BDRip, HD (1080p)] DUB + Original + sub (rus, ukr, eng)

    Ответить на тему
     
    Автор Сообщение

    Flirldrerve

    Создавать темы 27-Окт-2015 05:18

           

    [Цитировать]

    Алоха / Aloha
    «Sometimes you have to say goodbye before you can say hello»
    6.066 / 10 5.50 / 10
    -Год выпуска: 2015
    Страна: США
    Жанр: Драма, мелодрама, комедия
    Продолжительность: 01:44:38
    Перевод: Дублированный (iTunes)
    Оригинальная аудиодорожка: Есть
    Cубтитры: Русские форсированные, Украинские форсированные, Русские, Украинские, Английские
    Режиссёр: Кэмерон Кроу
    Сценарий: Кэмерон Кроу
    Продюсер: Кэмерон Кроу, Скотт Рудин, Эли Буш
    Оператор: Эрик Готье
    Композитор: Йоун Тоур Биргиссон, Алекс Сомерс
    Художник: Клэй А. Гриффит, Питер Борк, Дебора Линн Скотт
    Монтаж: Джо Хатшинг
    В ролях: Брэдли Купер, Эмма Стоун, Рэйчел МакАдамс, Билл Мюррей, Джон Красински, Дэнни МакБрайд, Алек Болдуин, Билл Кэмп, Джейден Либерер, Даниэль Роуз Расселл
    Бюджет: $37 000 000
    Сборы в США: $21 067 116
    Сборы в мире: + $5 182 904 = $26 250 020
    Мировая премьера: 27 мая 2015
    Описание: 37-летний дискредитированный американский консультант по оружию Брайн Джилкрест не нравится практически всем окружающим его людям. Его единственный друг - техник по имени Джереми - супер умный и хорошо осведомленный компьютерщик.В ответ на агрессию со стороны Китая Джилкреста отправляют на бездействующую военную базу на Гавайях, чтобы оттуда он контролировал запуск современного спутника-шпиона. Это задание сведет его с девушкой по имени Трейси...-Качество исходника: BDRemux (HDClub)
    Качество: BDRip
    Тип: HD (1080p)
    Контейнер: M4V
    Видео: H.264, 1920x1040, 1.85:1, 8 000 Kbps, 23.976 fps
    Аудио 1: Русский/Дублированный (iTunes), AAC / 2.0 / 156 Kbps / 48.0 KHz
    Аудио 2: Английский/Оригинальная дорожка , AAC / 2.0 / 158 Kbps / 48.0 KHz
    Аудио 3: Украинский/Дублированный (iTunes), AAC / 2.0 / 157 Kbps / 48.0 KHz
    Аудио 4: Русский/Дублированный (iTunes), AC-3 / 5.1 / 384 Kbps / 48.0 KHz
    Аудио 5: Английский/Оригинальная дорожка , AC-3 / 5.1 / 640 Kbps / 48.0 KHz
    Субтитры 1: Русские форсированные
    Субтитры 2: Украинские форсированные
    Субтитры 3: Русские полные
    Субтитры 4: Украинские полные
    Субтитры 5: Английские полные
    -

    iTunes Meta Tags

    Sort Name: Aloha
    XID: Apple:vendor_id:2015-430568
    contentID: 993999211
    Screenwriters: Кэмерон Кроу
    Producers: Кэмерон Кроу, Скотт Рудин, Эли Буш
    Director: Кэмерон Кроу
    Cast: Брэдли Купер, Эмма Стоун, Рэйчел МакАдамс, Билл Мюррей, Джон Красински, Дэнни МакБрайд, Алек Болдуин, Билл Кэмп, Джейден Либерер, Даниэль Роуз Расселл
    Studio: Columbia Pictures
    Rating: 10
    Long Description: 37-летний дискредитированный американский консультант по оружию Брайн Джилкрест не нравится практически всем окружающим его людям. Его единственный друг - техник по имени Джереми - супер умный и хорошо осведомленный компьютерщик.
    В ответ на агрессию со стороны Китая Джилкреста отправляют на бездействующую военную базу на Гавайях, чтобы оттуда он контролировал запуск современного спутника-шпиона. Это задание сведет его с девушкой по имени Трейси...
    Description: 37-летний дискредитированный американский консультант по оружию Брайн Джилкрест не нравится практически всем окружающим его людям. Его единственный друг - техник по имени Джереми - супер умный и хорошо осведомленный компьютерщик.
    В ответ на агрессию со стороны Китая Джилкреста отправляют на бездействующую военную базу на Гавайях, чтобы оттуда он контролировал запуск современного спутника-шпиона. Это задание сведет его с девушкой по имени Трейси...
    Release Date: 2015-05-27T08:00:00Z
    Genre: Comedy
    Artist: Cameron Crowe
    Name: Aloha

    MediaInfo

    General
    Complete name : /Users/imac/HandBrake/Aloha (1080p HD).m4v
    Format : MPEG-4
    Codec ID : M4V
    File size : 6.95 GiB
    Duration : 1h 44mn
    Overall bit rate mode : Variable
    Overall bit rate : 9 507 Kbps
    Movie name : Aloha
    Performer : Cameron Crowe
    Director : Кэмерон Кроу
    Actor : Брэдли Купер / Эмма Стоун / Рэйчел МакАдамс / Билл Мюррей / Джон Красински / Дэнни МакБрайд / Алек Болдуин / Билл Кэмп / Джейден Либерер / Даниэль Роуз Расселл
    Screenplay by : Кэмерон Кроу
    Producer : Кэмерон Кроу / Скотт Рудин / Эли Буш
    Production studio : Columbia Pictures
    Genre : Comedy
    ContentType : Short Film
    Description : 37-летний дискредитированный американский консультант по оружию Брайн Джилкрест не нравится практически всем окружающим его людям. Его единственный друг - техник по имени Джереми - супер умный и хорошо осведомленный компьютерщик. / В ответ на агрессию со стороны Китая Джилкреста отправляют на бездействующую военную базу на Гавайях, чтобы оттуда он контролировал запуск современного спутника-шпиона. Это задание сведет его с девушкой по имени Трейси...
    Recorded date : UTC 2015-05-27 08:00:00
    Encoded date : UTC 2015-09-27 19:42:42
    Tagged date : UTC 2015-09-27 19:45:16
    Cover : Yes
    Rating : None
    Title/Sort : Aloha
    LongDescription : 37-летний дискредитированный американский консультант по оружию Брайн Джилкрест не нравится практически всем окружающим его людям. Его единственный друг - техник по имени Джереми - супер умный и хорошо осведомленный компьютерщик. / В ответ на агрессию со стороны Китая Джилкреста отправляют на бездействующую военную базу на Гавайях, чтобы оттуда он контролировал запуск современного спутника-шпиона. Это задание сведет его с девушкой по имени Трейси...
    AppleStoreCatalogID : 993999211
    Vendor : Apple:vendor_id:2015-430568
    ContentRating : mpaa|PG-13|300|
    Video #1
    ID : 1
    Format : AVC
    Format/Info : Advanced Video Codec
    Format profile : High@L4
    Format settings, CABAC : Yes
    Format settings, ReFrames : 4 frames
    Codec ID : avc1
    Codec ID/Info : Advanced Video Coding
    Duration : 1h 44mn
    Bit rate : 8 000 Kbps
    Width : 1 920 pixels
    Height : 1 040 pixels
    Display aspect ratio : 1.85:1
    Frame rate mode : Variable
    Frame rate : 23.976 fps
    Minimum frame rate : 23.974 fps
    Maximum frame rate : 23.981 fps
    Color space : YUV
    Chroma subsampling : 4:2:0
    Bit depth : 8 bits
    Scan type : Progressive
    Bits/(Pixel*Frame) : 0.167
    Stream size : 5.85 GiB (84%)
    Title : Main Program
    Writing library : x264 core 142 r2479 dd79a61
    Encoding settings : cabac=1 / ref=4 / deblock=1:-2:-2 / analyse=0x3:0x133 / me=umh / subme=10 / psy=1 / psy_rd=1.00:0.15 / mixed_ref=1 / me_range=32 / chroma_me=1 / trellis=2 / 8x8dct=1 / cqm=0 / deadzone=21,11 / fast_pskip=0 / chroma_qp_offset=-3 / threads=36 / lookahead_threads=8 / sliced_threads=0 / nr=0 / decimate=0 / interlaced=0 / bluray_compat=0 / constrained_intra=0 / bframes=16 / b_pyramid=2 / b_adapt=2 / b_bias=0 / direct=3 / weightb=1 / open_gop=0 / weightp=2 / keyint=240 / keyint_min=24 / scenecut=40 / intra_refresh=0 / rc_lookahead=60 / rc=2pass / mbtree=1 / bitrate=8000 / ratetol=1.0 / qcomp=0.70 / qpmin=0 / qpmax=69 / qpstep=4 / cplxblur=20.0 / qblur=0.5 / vbv_maxrate=25000 / vbv_bufsize=25000 / nal_hrd=none / filler=0 / ip_ratio=1.40 / aq=1:1.00
    Language : English
    Encoded date : UTC 2015-09-27 19:42:42
    Tagged date : UTC 2015-09-27 19:43:02
    Color range : Limited
    Color primaries : BT.709
    Transfer characteristics : BT.709
    Matrix coefficients : BT.709
    Video #2
    ID : 13
    Format : JPEG
    Codec ID : jpeg
    Duration : 1h 44mn
    Bit rate mode : Variable
    Bit rate : 1 274 bps
    Width : 640 pixels
    Height : 346 pixels
    Display aspect ratio : 1.85:1
    Frame rate mode : Variable
    Frame rate : 0.003 fps
    Minimum frame rate : 0.002 fps
    Maximum frame rate : 0.004 fps
    Color space : YUV
    Chroma subsampling : 4:2:0
    Bit depth : 8 bits
    Compression mode : Lossy
    Bits/(Pixel*Frame) : 1.918
    Stream size : 829 KiB (0%)
    Language : English
    Encoded date : UTC 2015-09-27 19:43:12
    Tagged date : UTC 2015-09-27 19:43:13
    Audio #1
    ID : 2
    Format : AAC
    Format/Info : Advanced Audio Codec
    Format profile : LC
    Codec ID : 40
    Duration : 1h 44mn
    Bit rate mode : Variable
    Bit rate : 156 Kbps
    Maximum bit rate : 232 Kbps
    Channel(s) : 2 channels
    Channel positions : Front: L R
    Sampling rate : 48.0 KHz
    Compression mode : Lossy
    Stream size : 117 MiB (2%)
    Title : Russian Stereo
    Language : Russian
    Encoded date : UTC 2015-09-27 19:42:42
    Tagged date : UTC 2015-09-27 19:43:04
    Audio #2
    ID : 3
    Format : AAC
    Format/Info : Advanced Audio Codec
    Format profile : LC
    Codec ID : 40
    Duration : 1h 44mn
    Bit rate mode : Variable
    Bit rate : 158 Kbps
    Maximum bit rate : 237 Kbps
    Channel(s) : 2 channels
    Channel positions : Front: L R
    Sampling rate : 48.0 KHz
    Compression mode : Lossy
    Stream size : 118 MiB (2%)
    Title : English Stereo
    Language : English
    Encoded date : UTC 2015-09-27 19:42:42
    Tagged date : UTC 2015-09-27 19:43:04
    Audio #3
    ID : 4
    Format : AAC
    Format/Info : Advanced Audio Codec
    Format profile : LC
    Codec ID : 40
    Duration : 1h 44mn
    Bit rate mode : Variable
    Bit rate : 157 Kbps
    Maximum bit rate : 248 Kbps
    Channel(s) : 2 channels
    Channel positions : Front: L R
    Sampling rate : 48.0 KHz
    Compression mode : Lossy
    Stream size : 118 MiB (2%)
    Title : Ukrainian Stereo
    Language : Ukrainian
    Encoded date : UTC 2015-09-27 19:42:42
    Tagged date : UTC 2015-09-27 19:43:04
    Audio #4
    ID : 5
    Format : AC-3
    Format/Info : Audio Coding 3
    Mode extension : CM (complete main)
    Format settings, Endianness : Big
    Codec ID : ac-3
    Duration : 1h 44mn
    Bit rate mode : Constant
    Bit rate : 384 Kbps
    Channel(s) : 6 channels
    Channel positions : Front: L C R, Side: L R, LFE
    Sampling rate : 48.0 KHz
    Bit depth : 16 bits
    Compression mode : Lossy
    Stream size : 287 MiB (4%)
    Title : Russian DD 5.1
    Language : Russian
    Encoded date : UTC 2015-09-27 19:42:42
    Tagged date : UTC 2015-09-27 19:42:48
    Audio #5
    ID : 6
    Format : AC-3
    Format/Info : Audio Coding 3
    Mode extension : CM (complete main)
    Format settings, Endianness : Big
    Codec ID : ac-3
    Duration : 1h 44mn
    Bit rate mode : Constant
    Bit rate : 640 Kbps
    Channel(s) : 6 channels
    Channel positions : Front: L C R, Side: L R, LFE
    Sampling rate : 48.0 KHz
    Bit depth : 16 bits
    Compression mode : Lossy
    Stream size : 479 MiB (7%)
    Title : English DD 5.1
    Language : English
    Encoded date : UTC 2015-09-27 19:42:42
    Tagged date : UTC 2015-09-27 19:42:48
    Text #1
    ID : 7
    Format : Timed Text
    Muxing mode : sbtl
    Codec ID : tx3g
    Duration : 1h 44mn
    Bit rate mode : Variable
    Bit rate : 1 bps
    Stream size : 520 Bytes (0%)
    Title : Russian forced
    Language : Russian
    Encoded date : UTC 2015-09-27 19:42:42
    Tagged date : UTC 2015-09-27 19:42:42
    Text #2
    ID : 8
    Format : Timed Text
    Muxing mode : sbtl
    Codec ID : tx3g
    Duration : 1h 44mn
    Bit rate mode : Variable
    Bit rate : 1 bps
    Stream size : 473 Bytes (0%)
    Title : Ukrainian forced
    Language : Ukrainian
    Encoded date : UTC 2015-09-27 19:42:42
    Tagged date : UTC 2015-09-27 19:42:42
    Text #3
    ID : 9
    Format : Timed Text
    Muxing mode : sbtl
    Codec ID : tx3g
    Duration : 1h 44mn
    Bit rate mode : Variable
    Bit rate : 107 bps
    Stream size : 81.7 KiB (0%)
    Title : Russian full
    Language : Russian
    Encoded date : UTC 2015-09-27 19:42:42
    Tagged date : UTC 2015-09-27 19:42:42
    Text #4
    ID : 10
    Format : Timed Text
    Muxing mode : sbtl
    Codec ID : tx3g
    Duration : 1h 44mn
    Bit rate mode : Variable
    Bit rate : 111 bps
    Stream size : 84.7 KiB (0%)
    Title : Ukranian full
    Language : Ukrainian
    Encoded date : UTC 2015-09-27 19:42:42
    Tagged date : UTC 2015-09-27 19:42:42
    Text #5
    ID : 11
    Format : Timed Text
    Muxing mode : sbtl
    Codec ID : tx3g
    Duration : 1h 44mn
    Bit rate mode : Variable
    Bit rate : 113 bps
    Stream size : 86.1 KiB (0%)
    Title : English full
    Language : English
    Encoded date : UTC 2015-09-27 19:42:42
    Tagged date : UTC 2015-09-27 19:42:43
    Menu #1
    00:00:00.000 : Chapter 1
    00:04:42.616 : Chapter 2
    00:10:59.200 : Chapter 3
    00:20:02.493 : Chapter 4
    00:27:07.751 : Chapter 5
    00:33:25.629 : Chapter 6
    00:40:01.733 : Chapter 7
    00:46:40.339 : Chapter 8
    00:51:31.964 : Chapter 9
    00:56:21.670 : Chapter 10
    01:05:07.946 : Chapter 11
    01:11:08.347 : Chapter 12
    01:18:43.677 : Chapter 13
    01:25:36.340 : Chapter 14
    01:31:43.331 : Chapter 15
    01:36:28.950 : Chapter 16
    Menu #2
    ID : 12
    Codec ID : text
    Duration : 1h 44mn
    Encoded date : UTC 2015-09-27 19:43:04
    Tagged date : UTC 2015-09-27 19:43:04
    00:00:00.000 : Chapter 1
    00:04:42.616 : Chapter 2
    00:10:59.200 : Chapter 3
    00:20:02.493 : Chapter 4
    00:27:07.751 : Chapter 5
    00:33:25.629 : Chapter 6
    00:40:01.733 : Chapter 7
    00:46:40.339 : Chapter 8
    00:51:31.964 : Chapter 9
    00:56:21.670 : Chapter 10
    01:05:07.946 : Chapter 11
    01:11:08.347 : Chapter 12
    01:18:43.677 : Chapter 13
    01:25:36.340 : Chapter 14
    01:31:43.331 : Chapter 15
    01:36:28.950 : Chapter 16
    Bit rate mode : VBR

    x264 лог

    x264 [info]: frame I:1357  Avg QP:16.75  size:234979
    x264 [info]: frame P:38070 Avg QP:19.90  size: 75503
    x264 [info]: frame B:95813 Avg QP:21.12  size: 25524
    x264 [info]: consecutive B-frames:  3.8%  7.8%  7.2% 65.6%  5.3%  6.8%  1.7%  1.7%  0.0%  0.0%  0.0%  0.0%  0.0%  0.0%  0.0%  0.0%  0.0%
    x264 [info]: mb I  I16..4:  6.4% 75.8% 17.7%
    x264 [info]: mb P  I16..4:  2.8% 12.2%  1.2%  P16..4: 50.1% 16.6% 12.8%  0.3%  0.1%    skip: 3.8%
    x264 [info]: mb B  I16..4:  0.2%  1.0%  0.1%  B16..8: 44.1%  7.5%  1.7%  direct: 7.1%  skip:38.3%  L0:43.6% L1:46.4% BI:10.0%
    x264 [info]: 8x8 transform intra:75.5% inter:67.7%
    x264 [info]: direct mvs  spatial:97.9% temporal:2.1%
    x264 [info]: coded y,uvDC,uvAC intra: 76.8% 88.2% 72.9% inter: 22.4% 38.1% 23.1%
    x264 [info]: i16 v,h,dc,p: 44% 13% 10% 33%
    x264 [info]: i8 v,h,dc,ddl,ddr,vr,hd,vl,hu: 11%  9% 10%  9% 12% 12% 12% 11% 12%
    x264 [info]: i4 v,h,dc,ddl,ddr,vr,hd,vl,hu: 13% 10%  5%  9% 14% 14% 13% 10% 12%
    x264 [info]: i8c dc,h,v,p: 47% 18% 17% 17%
    x264 [info]: Weighted P-Frames: Y:1.5% UV:0.8%
    x264 [info]: ref P L0: 57.6% 10.4% 22.6%  8.4%  0.9%  0.0%
    x264 [info]: ref B L0: 88.1%  9.7%  2.3%
    x264 [info]: ref B L1: 95.1%  4.9%
    x264 [info]: kb/s:7997.36

    Скриншоты

    -

    Релиз подготовлен для просмотра на Apple TV, iPad, iPhone, iPod Touch.
    Для просмотра данного релиза на компьютере с ОС Windows рекомендуется использовать VLC media player
    Скачать .torrent

    Скачать торрент-файл бесплатно и на максимальной скорости!

    Как скачивать? · Что такое торрент? · Рейтинг и ограничения

    !ВНИМАНИЕ!
    Сайт не распространяет и не хранит электронные версии произведений, а занимается лишь лишь предоставлением доступа к создаваемому пользователями каталогу ссылок на торрент-файлы, которые содержат только списки хеш-сумм, убедительная просьба с жалобами обращаться напрямую к пользователю. Файлы для обмена на трекере предоставлены пользователями сайта, и администрация не несёт ответственности за их содержание. Просьба не заливать файлы, защищенные авторскими правами, а также файлы нелегального содержания!


    _________________
    [Профиль] [ЛС]
    Показать сообщения:    
    Ответить на тему

    Текущее время: Сегодня, в 04:39

    Часовой пояс: GMT + 2



    Вы не можете начинать темы
    Вы не можете отвечать на сообщения
    Вы не можете редактировать свои сообщения
    Вы не можете удалять свои сообщения
    Вы не можете голосовать в опросах
    Вы не можете прикреплять файлы к сообщениям
    Вы не можете скачивать файлы