BitTorrentTracker PerecTracker.org
BitTorrentTracker PerecTracker.org
    
Регистрация  ·  Вход
 
 · 
Забыли пароль?

  • Мстители / The Avengers (Джосс Уидон) [2012, США, фантастика, фэнтези, боевик, приключения, BDRip, HD (1080p, 720p), SD (480p)] DUB, AVO, Original + SUB (rus, ukr, eng)

    Ответить на тему
     
    Автор Сообщение

    Flirldrerve

    Создавать темы 27-Окт-2015 05:18

           

    [Цитировать]

    Мстители / The Avengers
    "Some assembly required"
    8.60 / 10 | 8.00 / 10 | 7.943 / 10
    -Год выпуска: 2012
    Страна: США
    Жанр: фантастика, фэнтези, боевик, приключения
    Продолжительность: 142 мин.
    Перевод: Профессиональный дублированный перевод и одноголосый закадровый авторский перевод
    Оригинальная аудиодорожка: Есть
    Cубтитры: Русские форсированные, русские полные, украинские форсированные, украинские полные, английские форсированные и английские полные SDH
    Режиссёр: Джосс Уидон
    Сценарий: Джосс Уидон, Зак Пенн
    Продюсер: Кевин Файги, Виктория Алонсо, Луис Д’Эспозито
    Оператор: Шеймас МакГарви
    Композитор: Алан Сильвестри
    Художник: Джеймс Чинланд, Бенжамин Эдельберг, Янн К. Энджел
    Монтаж: Джеффри Форд, Лиза Лэссек
    В ролях: Роберт Дауни мл., Крис Эванс, Марк Руффало, Крис Хемсворт, Скарлетт Йоханссон, Джереми Реннер, Том Хиддлстон, Сэмюэл Л. Джексон, Кларк Грегг, Коби Смолдерс
    Роли дублировали: Владимир Зайцев, Даниил Эльдаров, Алексей Мясников, Иван Жарков, Татьяна Шитова
    Бюджет: $220 000 000
    Сборы в США: $623 357 910
    Сборы в мире: + $896 200 000 = $1 519 557 910
    Сборы в России: $43 412 056
    Мировая премьера: 11 апреля 2012
    Премьера (РФ): 3 мая 2012, WDSSPR, 3D, imax
    Релиз на Blu-Ray: 28 августа 2012, Уолт Дисней Компани СНГ
    Релиз на DVD: 28 августа 2012, Уолт Дисней Компани СНГ
    Описание: Локи, сводный брат Тора, возвращается, и в этот раз он не один. Земля на грани порабощения, и только лучшие из лучших могут спасти человечество.
    Ник Фьюри, глава международной организации Щ. И. Т., собирает выдающихся поборников справедливости и добра, чтобы отразить атаку. Под предводительством Капитана Америки Железный Человек, Тор, Невероятный Халк, Соколиный глаз и Чёрная Вдова вступают в войну с захватчиком.-Качество исходника: Blu-Ray 1080p (HDClub)
    Качество: BDRip
    Тип: 480p 720p 1080p
    Контейнер: m4v
    Видео: 640x480 анаморф 852x480 at 23.976 fps, MPEG-4 AVC, ~1700 kbps avg
    Видео: 1280x720 at 23.976 fps, MPEG-4 AVC, ~4800 kbps avg
    Видео: 1920x1080 at 23.976 fps, MPEG-4 AVC, ~13500 kbps avg
    Аудио#1: Russian: 48 kHz, ААС, 2/0 (L,R), ~128.00 / 160.00 kbps avg |Дубляж|
    Аудио#2: Russian: 48 kHz, ААС, 2/0 (L,R), ~128.00 / 160.00 kbps avg |Одноголосый закадровый, А. Гаврилов|
    Аудио#3: Russian: 48 kHz, ААС, 2/0 (L,R), ~128.00 / 160.00 kbps avg |Одноголосый закадровый, Ю. Сербин|
    Аудио#4: Ukrainian: 48 kHz, ААС, 2/0 (L,R), ~128.00 / 160.00 kbps avg |Дубляж|
    Аудио#5: English: 48 kHz, ААС, 2/0 (L,R), ~128.00 / 160.00 kbps avg
    Аудио#6: Russian: 48 kHz, AC3, 3/2 (L,C,R,l,r) + LFE ch, ~640.00 kbps avg |Дубляж|
    Аудио#7: Russian: 48 kHz, AC3, 3/2 (L,C,R,l,r) + LFE ch, ~640.00 kbps avg |Одноголосый закадровый, А. Гаврилов|
    Аудио#8: Russian: 48 kHz, AC3, 3/2 (L,C,R,l,r) + LFE ch, ~640.00 kbps avg |Одноголосый закадровый, Ю. Сербин|
    Аудио#9: Ukrainian: 48 kHz, AC3, 3/2 (L,C,R,l,r) + LFE ch, ~640.00 kbps avg |Дубляж|
    Аудио#10: English: 48 kHz, AC3, 3/2 (L,C,R,l,r) + LFE ch, ~640.00 kbps avg
    Субтитры №1: Russian: |Форсированные|
    Субтитры №2: Ukrainian: |Форсированные|
    Субтитры №3: English: |Форсированные|
    Субтитры №4: Russian: |Полные|
    Субтитры №5: Ukrainian: |Полные|
    Субтитры №6: English: |Полные, SDH|-

    Знаете ли Вы, что...

  • Однажды ночью в съемочном павильоне произошло ограбление: неизвестными было вынесено несколько элементов костюмов персонажей, что сделало съёмки следующим утром невозможными. Костюмеры объявили продюсерам свои сроки восстановления утраченного: две недели. Также необходимо было затратить больше 70 000 долларов на материалы, работы по металлу и услуги полировщиков. Ассистент режиссера, двадцатисемилетний Джордж Мейсон решил проблему куда быстрее. Он просто купил на «eBay» недостающие элементы костюмов у любителей ролевых игр. Вся процедура заняла 2 дня и обошлась всего в 7000 долларов.
  • Элисон Хэннигэн, партнер Коби Смолдерс по сериалу «Как я встретил вашу маму» (2005), предложила режиссеру Джоссу Уидону, чтобы он взял Смолдерс на роль Марии Хилл. Хэннигэн так же работала с Уидоном в сериале «Баффи — истребительница вампиров» (1997-2003).
  • Крису Хемсворту пришлось расширить свой диетический рацион, чтобы сохранить телосложение для роли Тора.
  • Эдвард Нортон был первоначально утвержден на роль Халка, но переговоры между ним и Marvel Studios не увенчались успехом. В итоге Нортон был заменен Марком Руффало.
  • Первый фильм Marvel, дистрибьютором которого стала Walt Disney Pictures.
  • Прежде чем Марк Руффало снялся в роли Халка, ходили слухи о возможном претенденте на эту роль — Хоакине Фениксе.
  • Морена Баккарин, Джессика Лукас, Мэри Элизабет Уинстэд и Коби Смолдерс проходили кастинг на роль агента Марии Хилл. В итоге роль досталась Коби Смолдерс.
  • Лу Ферриньо озвучивает Халка в этом фильме. Он играл Халка практически во всех экранизациях с 1978 года: Халка в сериале «Невероятный Халк» (1978-1982) и в трёх последующих за ним телевизионных программах, и так же он озвучивал Халка в фильме «Невероятный Халк» (2008). В фильме «Халк» (2003) он снялся в эпизодической роли охранника, и в этой же роли он снялся в «Невероятном Халке» (2008). Помимо этого он озвучивал Халка в различных анимационных экранизациях.
  • Марк Руффало описывает Брюса Баннера как «парня, который борется с двумя различными сторонами себя, темной и светлой, и все что он делает в своей жизни проходит через фильтр самоконтроля». Кроме того он описывает альтер эго Баннера — Халка как «неуправляемого — ни один из их команды не уверен в том, что хочет иметь такого соратника. Это как бросить гранату в центр группы людей и надеяться, что всё будет хорошо».
  • Марк Руффало лично изображал Халка при помощи виртуальных камер захвата движения. В предыдущих экранизациях Баннера и Халка играли разные люди (Билл Биксби и бодибилдер Лу Ферриньо), либо Халка добавляли в фильм при помощи компьютерной графики.
  • Продюсер Кевин Файги сравнивает фильм с «Трансформеры 3: Тёмная сторона Луны» (2011): «Он установил стандарт для уровня сногсшибательности и масштабности. Мы работаем, чтобы попытаться превзойти это».
  • Для Марка Руффало было большой честью то, что он перенял роль Брюса Баннера от его друга Эдварда Нортона: «Эд передал мне эту роль, и я отношусь к ней, как к Гамлету моего поколения».
  • Организация по Науке и Развлечениям (The Science and Entertainment Exchange) давала консультации для этого фильма.
  • По словам Джосса Уидона фильм подвергся большому влиянию комиксов «Мстители» 1960-х годов, фанатом которых был и он сам пока рос: «В тех комиксах эти люди не должны быть даже в одной комнате, не говоря уже об одной команде — и это и есть определение семьи».
  • Команда людей, задействованных в «Мстителях», включает в себя необычайно высокое число номинированных на премию «Оскар» для фильма снятого по комиксам: Роберт Дауни мл., Гвинет Пэлтроу, Сэмюэл Л. Джексон, Джереми Реннер, Марк Руффало, режиссер Джосс Уидон, оператор Шеймас МакГарви, и многие другие. Это превосходит фильмы «Железный человек 2» (2010) и «Железный человек» (2008), каждый из которых имеют по четыре номинанта.
  • Несмотря на то, что студия Paramount Pictures не имела участия ни в производстве фильма, ни в области маркетинга или распространения, их логотип все еще появляется в рекламе. И, несмотря на то, что Disney выкупила права на распространение фильмов Marvel у Paramount (с тех пор как Marvel стала частью компании Disney), последняя все еще получает часть гонораров за эти проекты. Никакого упоминания о Disney нет вплоть до окончания финальных титров, где «Walt Disney Studios Motion Pictures» отмечается как дистрибьютор фильма.
  • Для показа в кинотеатрах фильм после съемок был конвертирован в 3D.
  • Тони Старк описывает свою группу как «Могучие герои Земли». Эта фраза появлялась в комиксах «Мстители» с момента публикации в 1963 году. Также эта фраза была использована в качестве подзаголовка к сериалу «Мстители: Могучие герои Земли» (2010).
  • Это второй раз, когда Брюс Баннер/Халк и Тор появились вместе в одном фильме. Впервые это произошло в фильме «Невероятный Халк: Возвращение» (1988).
  • По словам режиссера Джосса Уидона оригинальная версия фильма имела продолжительность более трех часов. Около 30 вырезанных минут будут включены в релиз на DVD, большинство из них посвящены Стиву Роджерсу (Капитан Америка). Уидон рассказал, что в одной из таких сцен показывается, как Роджерс пытается приспособиться к современному миру в своих апартаментах в Бруклине, а в другой демонстрируется воссоединение Стива Роджерса с Пегги Картер, его возлюбленной из фильма «Первый мститель» (2011).
  • Том Хиддлстон в интервью газете «The Guardian» рассказал, что кодовое название фильма на начальной стадии его создания было «Group Hug».
  • Сэмюэл Л. Джексон в роли Ника Фьюри в этом фильме стал вторым актером после Хью Джекмана (который появлялся во всех фильмах о Людях Икс), кто сыграл одного и того же супергероя комиксов в пяти различных фильмах.
  • В комиксах Читаури также упоминаются как Скруллы. Использование названия Читаури вместо более популярного Скруллы вызвано юридическими сложностями с Fox Studios, которой принадлежат права на «Фантастическую четверку» (2005). На момент съемок, Fox владела правами на все версии фильма «Фантастическая четверка» и связанных с ним персонажей (на Скруллов в том числе), таким образом, Marvel/Disney пришлось назвать пришельцев Читаури, чтобы не нарушать соглашение с Fox.
  • Тор проводит большую часть фильма в броне Асгарда, но с голыми руками — это дань его ранним появлениям в комиксах.
  • Во время работы над комиксом «Ultimates» Марк Миллар попросил художника Брайана Хитча ориентироваться на внешний вид актёра Сэмюэля Л. Джексона. До этого Ник Фьюри был копией «классической версии» (белый мужчина с густыми, слегка седеющими волосами), затем было решено сделать персонажа чернокожим, но каждый художник рисовал его по-своему. Когда Сэмюэл Л. Джексон, будучи большим фанатом комиксов, увидел на страницах персонажа похожего на себя, был очень польщён и при первой же возможности вызвался играть Фьюри на экране. В Marvel ни сколько не возражали, так как это лишало студию проблем с кастингом и создавало угодные фанатам отсылки к комиксам. В 2014 чернокожий Ник Фьюри появился и на страницах классических комиксов (вернее Николас Фьюри младший, один из внебрачных сыновей белокожего Ника), вместе с агентом Коулсоном, ввиду своей большой популярности среди фанатов и для большего сходства комиксов с фильмами.
  • Хотя Марк Руффало единственный актер, который не появлялся в предыдущих фильмах Marvel в роли своего героя, Лу Ферриньо озвучивал Халка так же как и в фильме 2008 года с Эдвардом Нортоном. Ферриньо озвучивал Халка в любой экранизации, начиная с телешоу «Невероятный Халк» с Биллом Биксби в 1978 году. Исключением является лишь версия Халка 2003 года от Энга Ли, где Ферриньо играл охранника.
  • Капитан Америка в фильме является одним из основателей. В комиксах он был разморожен в N4 «Мстителей», когда его случайно нашли во время поисков Нэмора (Namor the Sub Mariner).
  • Чтобы подготовиться к роли агента Клинта Бартона (Соколиный глаз), Джереми Реннер обучался у Олимпийских лучников.
  • Чтобы добавить реализма сражению в сцене нападения на Нью-Йорк, были наняты 25 человек из 391-го батальона военной полиции Огайо.
  • Боевой клич Мстителей — «Avengers Assemble» так и не был произнесен на протяжении всего фильма. Однако Крис Эванс использовал его в текстовых сообщениях, чтобы собрать актерскую команду для совместного отдыха после съемок.
  • Сцены на открытом воздухе, которые должны были сниматься в Германии, но были сняты в центре Кливленда, показывают многочисленные исторические достопримечательности Кливленда, в частности: Tower City, Higbee Building & Casino, Renaissance Building и the Soldiers & Sailors Monument.
  • Уже после премьеры, когда снимали дополнительные сцены, Крису Эвансу пришлось носить специальную накладку, чтобы скрыть волосы на лице которые он отрастил для фильма, в котором снимался в тот момент. Его даже заставили частично закрыть лицо руками.
  • Место на корабле, где находится лаборатория Баннера, упоминается в военно-морской архитектуре, как колодезная палуба, защищенное место стыковки, которое обычно используется для запуска небольших лодок или катеров на воздушной подушке для перевозки войск на берег.
  • Все сцены, снятые в штате Огайо, изначально планировали снимать в штате Мичиган. Съемки были перенесены в Огайо, когда выяснилось, что в Мичигане собрались отменить возврат налогов за киносъемки.
  • Первый фильм, получивший прибыль в 200 млн. долларов, за первые три дня показа в США.
  • После того как Тор забирает Локи с Квинджета (Quinjet) вниз на склон горы, два больших ворона пролетают мимо них, пока они говорят. В скандинавской мифологии, у их отца, Одина, было два ворона, Думающий (Huginn) и Помнящий (Muninn), которые приносили Одину информацию из Мидгарда (Земля).
  • Футболка Тони Старка с тура Black Sabbath 1978 года. Это был последний тур группы с Оззи Осборном в качестве вокалиста, с многообещающей в то время группой Van Halen на разогреве. Группа Black Sabbath хорошо известна благодаря их песне «Iron Man». И хотя изначально песня никак не была связана с героем комиксов Marvel, она ещё с тех пор упоминается в комиксах и так же в конце фильма «Железный человек» (2008), когда Тони цитирует текст песни фразой «Я — Железный Человек».
  • Одномоторные истребители являются компьютерной визуализацией моделей F-35 корпорации Локхид Мартин. F-35 появляются в нескольких сценах, включая момент, где самолет переходит от горизонтального полета к режиму висения с поворотом вектора тяги, для стрельбы 25-мм орудием. F-35 все еще находятся в разработке и не будут иметь даже базовой боеспособности до конца 2015 года.
  • Родстер Acura Тони Старка не является ни концепт-спорткаром автосалона 2012, ни прототипом гибрида следующего поколения спорткара Acura 2015 года. Она была разработана специально для фильма главным конструктором Honda North America Дейвом Мареком. Основой для машины послужил спорткар 1991 года из Аризоны с 252000 миль пробега. Интерьер машины в фильме практически шаблонный, и имеет оригинальный кассетный плеер на панели.
  • В конце фильма, когда ролик новостей с официанткой появляется на экране компьютера Ника Фьюри, запись помечена как ЩИТ, файл А113. «А113» — ссылка на номер комнаты графического дизайна Калифорнийского института искусств.
  • Официантку, спасенную Капитаном Америкой, и которая позже дает интервью о Мстителях, зовут «Бет» (имя можно увидеть на ее футболке во время интервью).
  • Марк Руффало является единственным актером на 2012 год, кто играл как Халка, так и Брюса Баннера в одном фильме. Технически, оба — Эрик Бана и Эдвард Нортон проделали работу по захвату движений для соответствующих им Халков. Но Руффало первый актер, играющий Халка в живую на съемочной площадке, с использованием метода захвата движения.
  • «Мстители» стал одним из одиннадцати фильмов собравшим более 1 миллиарда долларов по всему миру. Для Marvel это первый фильм с такими большими сборами.
  • Аманда Пит рассматривалась на роль агента Марии Хилл.
  • В финальных титрах фильмов «Тор» (2011) и «Мстители» (2012) можно увидеть «спасибо» Ральфу Маччио. Эта благодарность не для актера из фильма «Парень-каратист» (1984), а для человека с таким же именем, который был писателем Marvel в 1980-х.
  • Эпизодическая роль Стэна Ли: старик дающий интервью в конце Нью-Йоркского сражения.
  • Том Хиддлстон рассказывает, что Локи вырос с момента событий в «Торе»: «Как приятен должен быть такой опыт, как исчезнуть во временном тоннеле, который был создан при помощи некого ядерного взрыва сделанного собственноручно? Я думаю, что к тому времени, когда Локи появляется, он повидал многое и думает уже о более важных вещах, чем просто о брате и Асгарде…».
  • Читаури, злодейская инопланетная раса этого фильма, были главными злодеями первой части комиксов «The Ultimates». Впоследствии Локи был одним из главных злодеев во второй части тех же комиксов, хотя его появление не имеет ничего общего с Читаури.
  • Логотипы Marvel Studios и Paramount Pictures показываются внутри тессеракта.
  • Фильм снят в необычном для такого приключенческого фильма, как этот, соотношении сторон экрана — 1,85:1. Это было необходимо для корректного изображения разного роста главных героев таких, как Чёрная вдова, которая намного ниже других персонажей картины.
  • Во время съёмок «Мстителей» Том Хиддлстон трижды падал, получал синяки на плечах, боках и бёдрах, разбивал нос и губу, подворачивал ногу и даже едва не выколол себе глаз штативом одного из осветительных приборов. Это привело к тому, что продюсерская команда к концу съёмок просто выделила отдельного ассистента, который занимался исключительно наблюдением за сохранностью и физическим состоянием Тома. Остроумный Дауни мл. называл этого специалиста коротко и лаконично — «няня». Именно так, в конце концов, и была озаглавлена должность этого ассистента в титрах.
  • После окончания съёмок каждый из актёров получил по памятному сувениру от режиссерской команды, который должен был напоминать ему о сущности своего персонажа. Так, Крис Эванс получил в качестве сувенира один из 4 щитов Капитана Америки, который использовался на площадке. Роберт Дауни мл. забрал один из мини-реакторов, украшавших грудь Железного человека. Крис Хемсворт увёз домой молот Тора. А Джереми Реннер получил на память шлем с рогами Локи, чем немало удивил всех своих коллег и даже самого «Локи». Сыгравшая Наташу Романову Скарлетт Йоханссон, в свою очередь, забрала в качестве сувенира лук, с которым на съёмках щеголял сам Реннер.
  • Во время первой встречи актёрского состава со съёмочной группой Том Хиддлстон попросил автограф у своего коллеги Джереми Реннера, чем немало удивил всех присутствовавших. Оказалось, Том сделал это под глубочайшим впечатлением от великолепной работы Реннера в фильме «Палач Дамер» (2002), который Хиддлстон посмотрел накануне.
  • Студия Marvel для фильма «Мстители» существенно пересмотрела свои критерии для подбора актёров. Дело в том, что ещё в восьмидесятых годах был создан негласный свод требований к людям, готовящимся играть супергероев. Такие актёры не должны были ранее привлекаться к уголовной ответственности, играть компрометирующие роли в театре или кино (убийц, наркоманов, гомосексуалистов), быть известными из-за скандалов или появляться перед зрителями ранее в образе явно негативного персонажа. Marvel восьмидесятых заботился о том, чтобы дети не делали себе героя из «нечистого» человека. «Мстители» в этом плане не исполнили ни одного из требований. Некоторые из актёров ранее привлекались к уголовной ответственности и даже оказывались за решёткой, играли роли маньяков, проституток и наркоманов. Кроме того, каждый из главных действующих лиц хотя бы раз играл роль гея.
  • Финальная сцена была добавлена после того, как Роберт Дауни мл. поспособствовал изменению предыдущей сцены. В оригинале, после того как Тор срывает маску Железного человека с лежащего без сознания Тони Старка, только что упавшего обратно на Землю, Тони приходит в себя и спрашивает: «Что дальше?». Роберт Дауни мл. посчитал, что этот момент может быть более интересным, и так родилась идея похода в местный ресторан с шаурмой. Сцена была добавлена через два дня после премьеры в Голливуде.
  • Локи описывается как король в мире, из которого он пришел. Вскоре после этого показывается, как он появляется в Штутгарте, чтобы получить доступ к запасам иридия в лаборатории, в сопровождении одурманенного Соколиного Глаза. Когда Мстители спрашивают о местонахождении Локи, он говорит, что находится на «22 Кёнигштрассе». Кёниг по-немецки означает «король».
  • Локи приводит Читаури на Землю, чтобы помочь ему захватить ее, это заставляет сформироваться отряд Мстителей для предотвращения этого. Это полностью соответствует комиксам, где Локи был виновником ряда катастроф, которые собрали вместе Мстителей (кстати, это произошло в самом первом выпуске серии одноименных комиксов).
  • Во время финальной битвы разрушается практически весь логотип компании с башни Старка, остается только освещенная буква «А» в конце фильма. Это тонкий намек (на возможный сиквел) на комикс, где штаб-квартирой Мстителей стало гигантское строение, изображаемое как здание в форме буквы «А» или, как небоскреб с гигантской буквой «А» на его вершине.
  • Персонаж, с которым Читаури разговаривает в сцене после титров, это Танос — Безумный Титан, главный суперзлодей во вселенной Marvel. Он — убийца космических масштабов, который буквально влюблен в воплощение Смерти, которая и является причиной его улыбки на фразе «судиться со смертью».
  • Во время титров есть сцена, где герой Marvel Танос появляется рядом с Читаури. Они оба смотрят вниз на планету Земля, и Танос улыбается, говоря, что они недооценили Землю.
  • В самом конце титров в американском релизе есть финальная сцена. Ранее в фильме Тони Старк шутит, что он хочет попробовать шаурму, даже, несмотря на то, что он не знает что это такое. И в финальной сцене они сидят в ресторане, где около 30 секунд молча едят шаурму, поглядывая друг на друга.
  • Ошибки в фильме

  • Когда Капитан Америка и Агент Колсон прилетают на корабль, на общем плане, во время посадки видно как крылья их транспорта складываются. В следующем кадре, когда Капитан Америка высаживается, крылья вытянуты.
  • Агент Хилл преследует Соколиного Глаза и стреляет в него через лобовое стекло со своей стороны водителя, оставляя отверстие размером с грейпфрут, а секундами позже отверстие со стороны пассажирского кресла.
  • В титрах название компании NAMCO Bandai написано с ошибкой — NAMECO Bandai.
  • Полицейская машина в Штутгарте показана моделью BMW 3-серии. Полиция в Баден-Вюртемберге ездит только на Mercedes Benz или Porsche. Полиции разрешается водить машины только этих компаний, с того момента, как их головные офисы расположились на этой земле Германии.
  • Когда Брюс Баннер впервые появляется на мостике корабля, он снимает пиджак, складывает и прижимает его рукой, а в следующем кадре пиджак накинут на руку.
  • Когда самолет с Локи вот-вот должен приземлиться на корабль видно управляющего диспетчера. В следующем общем плане сверху его уже нет.
  • В самом начале фильма, когда допрашивают Черную Вдову, показывают рекламный щит с предполагаемыми надписями на русском. На самом деле написанное не имеет смысла и представляет собой просто набор случайных букв кириллицы. Кроме того, локомотивы поездов, которые можно видеть в кадре, все новые американские магистральные товарные поезда, и никогда не использовались ни в России, ни в Восточной Европе в целом.
  • Во время нападения на Нью-Йорк, когда только начинают взрывать машины, можно видеть приводящий их в движение кабель, прикреплённый к одной из машин, в момент, когда она переворачивается.
  • В кадре, где Тони Старк на борту корабля в конференц-зале с Ником Фьюри и Стивом Роджерсом (и еще раз, когда он стоит в баре в башне Старка и разговаривает с Локи), свечение от дуги реактора в его груди не видно через футболку Black Sabbath. Но оно заметно, когда он в той же футболке находится в лаборатории с доктором Баннером.
  • После того, как капитан Америка берет очередную боксерскую грушу с пола, видно, что она новая и не обмотана лентой. Однако, в следующем кадре снизу, эта лента уже есть. На всех остальных кадрах она так же без ленты, как и в начале.
  • Почти в конце сцены драки Железного Человека с Тором, когда появляется Капитан Америка и пытается убедить Тора остановиться, ясно видно, что, когда Железный Человек попал под молот Тора, он падает на землю в 10 или 20 метрах от Тора. Затем, когда Тор атакует Капитана Америку, Капитан блокирует удар своим щитом, и мы видим, как Тор отлетает метров на 5 от него. После этого три героя встают, но теперь они гораздо ближе друг к другу, чем можно было ожидать. Это особенно заметно по Железному Человеку, который стоит прямо рядом с Капитаном Америкой.
  • Когда один из операторов возобновляет игру в Galaga, использован звук характерный для вражеского корабля, пытающегося захватить корабль игрока. А в фильме этот звук использован во время обычной игры.
  • Когда доктор Баннер впервые встречается с Агентом Романофф в сарае, есть кадр, где она говорит, а ее отражение в небольшом зеркале позади Баннера нет.
  • Во время сцены в Штутгарте показаны несколько зеленых полицейских машин. Однако, в Баден-Вюртемберге (столицей которого является Штутгарт) полицейские машины окрашены в синий цвет. Кроме того, мигалки на немецких полицейских машинах синие, а не желто-оранжевые.
  • В конце фильма, когда мстители отражают атаку инопланетян, Тони Старк стреляет в щит Капитана Америки, который гипотетически должен поглощать все колебания, а луч отражается от него как от зеркала.
  • В фильме говорится, что иридий излучает антипротоны, что является полным абсурдом как с точки зрения физики, так и логики, так как он бы самопроизвольно аннигилировал с выделением невообразимого количества энергии.
  • На постерах к фильму у Халка грудь волосатая, а в самом фильме нет.
  • Черная вдова и Капитан берут с собой Соколиного глаза на финальное сражение потому, что он умеет пилотировать «Jet». Ранее, во время ареста Локи, «Jet» пилотирует Вдова и Соколиный глаз им был не нужен.
  • В конце фильма на башне Старка единственная уцелевшая буква на вывеске из слова STARK — A. Однако, в самом начале битвы именно буква A падает первой, в то время как за кадром остаётся обрушение букв R и K.

  • -

    iTunes Meta Tags for country ru

    Name: Мстители
    Artist: Joss Whedon
    Genre: Боевики и приключения
    Release Date: 2012-04-11T08:00:00Z
    Description: Локи, сводный брат Тора, возвращается, и в этот раз он не один. Земля на грани порабощения, и только лучшие из лучших могут спасти человечество.
    Long Description: Локи, сводный брат Тора, возвращается, и в этот раз он не один. Земля на грани порабощения, и только лучшие из лучших могут спасти человечество.
    Ник Фьюри, глава международной организации Щ. И. Т., собирает выдающихся поборников справедливости и добра, чтобы отразить атаку. Под предводительством Капитана Америки Железный Человек, Тор, Невероятный Халк, Соколиный глаз и Чёрная Вдова вступают в войну с захватчиком.
    Rating: 16+
    Rating Annotation: Rated 12+ Для зрителей, достигших возраста 12 лет
    Studio: Walt Disney Pictures
    Cast: Роберт Дауни мл., Крис Эванс, Марк Руффало, Крис Хемсворт, Скарлетт Йоханссон, Джереми Реннер, Том Хиддлстон, Сэмюэл Л. Джексон, Кларк Грегг, Коби Смолдерс
    Director: Джосс Уидон
    Producers: Кевин Файги, Виктория Алонсо, Луис Д’Эспозито
    Screenwriters: Джосс Уидон, Зак Пенн
    Copyright: © 2012 Marvel
    contentID: 555865729
    XID: Apple:vendor_id:2012-263531
    Sort Name: Мстители

    iTunes Meta Tags for country us

    Name: The Avengers
    Artist: Joss Whedon
    Genre: Action & Adventure
    Release Date: 2012-04-11T08:00:00Z
    Description: Локи, сводный брат Тора, возвращается, и в этот раз он не один. Земля на грани порабощения, и только лучшие из лучших могут спасти человечество.
    Long Description: Локи, сводный брат Тора, возвращается, и в этот раз он не один. Земля на грани порабощения, и только лучшие из лучших могут спасти человечество.
    Ник Фьюри, глава международной организации Щ. И. Т., собирает выдающихся поборников справедливости и добра, чтобы отразить атаку. Под предводительством Капитана Америки Железный Человек, Тор, Невероятный Халк, Соколиный глаз и Чёрная Вдова вступают в войну с захватчиком.
    Rating: PG-13
    Rating Annotation: Rated PG-13 for intense sequences of sci-fi violence and action throughout, and mild drug reference.
    Studio: Walt Disney Pictures
    Cast: Роберт Дауни мл., Крис Эванс, Марк Руффало, Крис Хемсворт, Скарлетт Йоханссон, Джереми Реннер, Том Хиддлстон, Сэмюэл Л. Джексон, Кларк Грегг, Коби Смолдерс
    Director: Джосс Уидон
    Producers: Кевин Файги, Виктория Алонсо, Луис Д’Эспозито
    Screenwriters: Джосс Уидон, Зак Пенн
    Copyright: © 2012 Marvel
    contentID: 533654020
    XID: Apple:vendor_id:2012-263531
    Sort Name: Avengers

    MediaInfo 480p Release

    General
    Complete name : The Avengers.m4v
    Format : MPEG-4
    Codec ID : M4V
    File size : 2.35 GiB
    Duration : 2h 22mn
    Overall bit rate mode : Variable
    Overall bit rate : 2 349 Kbps
    Movie name : The Avengers
    Performer : Joss Whedon
    Director : Джосс Уидон
    Actor : Роберт Дауни мл. / Крис Эванс / Марк Руффало / Крис Хемсворт / Скарлетт Йоханссон / Джереми Реннер / Том Хиддлстон / Сэмюэл Л. Джексон / Кларк Грегг / Коби Смолдерс
    Screenplay by : Джосс Уидон / Зак Пенн
    Producer : Кевин Файги / Виктория Алонсо / Луис Д’Эспозито
    Production studio : Walt Disney Pictures
    Genre : Action & Adventure
    ContentType : Short Film
    Description : Локи, сводный брат Тора, возвращается, и в этот раз он не один. Земля на грани порабощения, и только лучшие из лучших могут спасти человечество.
    Recorded date : UTC 2012-04-11 08:00:00
    Encoded date : UTC 2015-08-30 19:52:36
    Tagged date : UTC 2015-08-30 20:17:08
    Copyright : © 2012 Marvel
    Cover : Yes
    Rating : None
    Title/Sort : Avengers
    LongDescription : Локи, сводный брат Тора, возвращается, и в этот раз он не один. Земля на грани порабощения, и только лучшие из лучших могут спасти человечество. / Ник Фьюри, глава международной организации Щ. И. Т., собирает выдающихся поборников справедливости и добра, чтобы отразить атаку. Под предводительством Капитана Америки Железный Человек, Тор, Невероятный Халк, Соколиный глаз и Чёрная Вдова вступают в войну с захватчиком.
    AppleStoreCatalogID : 533654020
    Vendor : Apple:vendor_id:2012-263531
    ContentRating : mpaa|PG-13|300|Rated PG-13 for intense sequences of sci-fi violence and action throughout, and mild drug reference.
    Video #1
    ID : 1
    Format : AVC
    Format/Info : Advanced Video Codec
    Format profile : Baseline@L3
    Format settings, CABAC : No
    Format settings, ReFrames : 2 frames
    Codec ID : avc1
    Codec ID/Info : Advanced Video Coding
    Duration : 2h 22mn
    Bit rate : 1 700 Kbps
    Width : 640 pixels
    Height : 480 pixels
    Display aspect ratio : 16:9
    Frame rate mode : Variable
    Frame rate : 23.976 fps
    Minimum frame rate : 11.987 fps
    Maximum frame rate : 23.981 fps
    Color space : YUV
    Chroma subsampling : 4:2:0
    Bit depth : 8 bits
    Scan type : Progressive
    Bits/(Pixel*Frame) : 0.231
    Stream size : 1.69 GiB (72%)
    Title : Main Program
    Writing library : x264 core 120
    Encoding settings : cabac=0 / ref=2 / deblock=1:0:0 / analyse=0x1:0x111 / me=umh / subme=6 / psy=1 / psy_rd=1.00:0.00 / mixed_ref=1 / me_range=16 / chroma_me=1 / trellis=0 / 8x8dct=0 / cqm=0 / deadzone=21,11 / fast_pskip=1 / chroma_qp_offset=-2 / threads=6 / sliced_threads=0 / nr=0 / decimate=1 / interlaced=0 / bluray_compat=0 / constrained_intra=0 / bframes=0 / weightp=0 / keyint=240 / keyint_min=24 / scenecut=40 / intra_refresh=0 / rc_lookahead=40 / rc=2pass / mbtree=1 / bitrate=1700 / ratetol=1.0 / qcomp=0.60 / qpmin=3 / qpmax=69 / qpstep=4 / cplxblur=20.0 / qblur=0.5 / vbv_maxrate=5000 / vbv_bufsize=5000 / nal_hrd=none / ip_ratio=1.40 / aq=1:1.00
    Language : English
    Encoded date : UTC 2015-08-30 19:52:36
    Tagged date : UTC 2015-08-30 19:54:40
    Color range : Limited
    Color primaries : BT.709
    Transfer characteristics : BT.709
    Matrix coefficients : BT.709
    Video #2
    ID : 14
    Format : JPEG
    Codec ID : jpeg
    Duration : 2h 22mn
    Bit rate mode : Variable
    Bit rate : 599 bps
    Width : 640 pixels
    Height : 360 pixels
    Display aspect ratio : 16:9
    Frame rate mode : Variable
    Frame rate : 0.002 fps
    Minimum frame rate : 0.001 fps
    Maximum frame rate : 0.007 fps
    Color space : YUV
    Chroma subsampling : 4:2:0
    Bit depth : 8 bits
    Compression mode : Lossy
    Bits/(Pixel*Frame) : 1.300
    Stream size : 731 KiB (0%)
    Title : Chapter Images
    Language : English
    Encoded date : UTC 2015-08-30 19:55:09
    Tagged date : UTC 2015-08-30 19:55:10
    Audio #1
    ID : 2
    Format : AAC
    Format/Info : Advanced Audio Codec
    Format profile : LC
    Codec ID : 40
    Duration : 2h 22mn
    Bit rate mode : Variable
    Bit rate : 132 Kbps
    Maximum bit rate : 212 Kbps
    Channel(s) : 2 channels
    Channel positions : Front: L R
    Sampling rate : 48.0 KHz
    Compression mode : Lossy
    Stream size : 135 MiB (6%)
    Title : Russian DUB Stereo
    Language : Russian
    Encoded date : UTC 2015-08-30 19:52:36
    Tagged date : UTC 2015-08-30 19:54:40
    Audio #2
    ID : 3
    Format : AAC
    Format/Info : Advanced Audio Codec
    Format profile : LC
    Codec ID : 40
    Duration : 2h 22mn
    Bit rate mode : Variable
    Bit rate : 132 Kbps
    Maximum bit rate : 216 Kbps
    Channel(s) : 2 channels
    Channel positions : Front: L R
    Sampling rate : 48.0 KHz
    Compression mode : Lossy
    Stream size : 135 MiB (6%)
    Title : Russian AVO A.Gavrilov Stereo
    Language : Russian
    Encoded date : UTC 2015-08-30 19:52:36
    Tagged date : UTC 2015-08-30 19:54:11
    Audio #3
    ID : 4
    Format : AAC
    Format/Info : Advanced Audio Codec
    Format profile : LC
    Codec ID : 40
    Duration : 2h 22mn
    Bit rate mode : Variable
    Bit rate : 132 Kbps
    Maximum bit rate : 215 Kbps
    Channel(s) : 2 channels
    Channel positions : Front: L R
    Sampling rate : 48.0 KHz
    Compression mode : Lossy
    Stream size : 135 MiB (6%)
    Title : Russian AVO U.Serbin Stereo
    Language : Russian
    Encoded date : UTC 2015-08-30 19:52:36
    Tagged date : UTC 2015-08-30 19:54:12
    Audio #4
    ID : 5
    Format : AAC
    Format/Info : Advanced Audio Codec
    Format profile : LC
    Codec ID : 40
    Duration : 2h 22mn
    Bit rate mode : Variable
    Bit rate : 132 Kbps
    Maximum bit rate : 205 Kbps
    Channel(s) : 2 channels
    Channel positions : Front: L R
    Sampling rate : 48.0 KHz
    Compression mode : Lossy
    Stream size : 135 MiB (6%)
    Title : Ukrainian DUB Stereo
    Language : Ukrainian
    Encoded date : UTC 2015-08-30 19:52:36
    Tagged date : UTC 2015-08-30 19:54:40
    Audio #5
    ID : 6
    Format : AAC
    Format/Info : Advanced Audio Codec
    Format profile : LC
    Codec ID : 40
    Duration : 2h 22mn
    Bit rate mode : Variable
    Bit rate : 115 Kbps
    Maximum bit rate : 180 Kbps
    Channel(s) : 2 channels
    Channel positions : Front: L R
    Sampling rate : 48.0 KHz
    Compression mode : Lossy
    Stream size : 118 MiB (5%)
    Title : English Stereo
    Language : English
    Encoded date : UTC 2015-08-30 19:52:36
    Tagged date : UTC 2015-08-30 19:54:40
    Text #1
    ID : 7
    Format : Timed Text
    Muxing mode : sbtl
    Codec ID : tx3g
    Duration : 2h 6mn
    Bit rate mode : Variable
    Bit rate : 1 bps
    Stream size : 919 Bytes (0%)
    Title : Russian Forced Subtitle
    Language : Russian
    Encoded date : UTC 2015-08-30 19:52:36
    Tagged date : UTC 2015-08-30 19:54:20
    Text #2
    ID : 8
    Format : Timed Text
    Muxing mode : sbtl
    Codec ID : tx3g
    Duration : 2h 6mn
    Bit rate mode : Variable
    Bit rate : 2 bps
    Stream size : 1.82 KiB (0%)
    Title : Ukrainian Forced Subtitle
    Language : Ukrainian
    Encoded date : UTC 2015-08-30 19:52:36
    Tagged date : UTC 2015-08-30 19:54:20
    Text #3
    ID : 9
    Format : Timed Text
    Muxing mode : sbtl
    Codec ID : tx3g
    Duration : 15mn 57s
    Bit rate mode : Variable
    Bit rate : 7 bps
    Stream size : 838 Bytes (0%)
    Title : English Forced Subtitle
    Language : English
    Encoded date : UTC 2015-08-30 19:52:36
    Tagged date : UTC 2015-08-30 19:52:48
    Text #4
    ID : 10
    Format : Timed Text
    Muxing mode : sbtl
    Codec ID : tx3g
    Duration : 2h 15mn
    Bit rate mode : Variable
    Bit rate : 92 bps
    Stream size : 91.7 KiB (0%)
    Title : Russian Subtitle
    Language : Russian
    Encoded date : UTC 2015-08-30 19:52:36
    Tagged date : UTC 2015-08-30 19:54:36
    Text #5
    ID : 11
    Format : Timed Text
    Muxing mode : sbtl
    Codec ID : tx3g
    Duration : 2h 15mn
    Bit rate mode : Variable
    Bit rate : 97 bps
    Stream size : 96.0 KiB (0%)
    Title : Ukrainian Subtitle
    Language : Ukrainian
    Encoded date : UTC 2015-08-30 19:52:36
    Tagged date : UTC 2015-08-30 19:54:36
    Text #6
    ID : 12
    Format : Timed Text
    Muxing mode : sbtl
    Codec ID : tx3g
    Duration : 2h 15mn
    Bit rate mode : Variable
    Bit rate : 65 bps
    Stream size : 64.7 KiB (0%)
    Title : English SDH Subtitle
    Language : English
    Encoded date : UTC 2015-08-30 19:52:36
    Tagged date : UTC 2015-08-30 19:54:36
    Menu #1
    00:00:00.000 : Loki's Arrival
    00:08:02.315 : Tesseract Lost
    00:11:49.167 : Natasha's Interrogation
    00:15:18.751 : The Big Guy
    00:20:33.482 : Man Out of Time
    00:23:04.258 : Tony & Pepper
    00:29:39.444 : Loki's Bargain
    00:37:23.992 : Stuttgart Confrontation
    00:42:47.982 : Mountaintop Battle
    00:50:22.269 : What's His Play?
    01:01:04.661 : Tension Rise
    01:14:05.107 : Carrier Battle
    01:28:01.234 : Man Down
    01:38:20.561 : The Invasion Begins
    01:45:40.167 : The War
    01:51:15.085 : Avengers Assembled
    01:57:47.769 : Hope is Lost
    02:04:38.680 : The Sacrifice Play
    02:09:39.397 : A Promise
    02:13:10.691 : End Credits
    Menu #2
    ID : 13
    Codec ID : text
    Duration : 2h 22mn
    Title : Chapter Titles
    Language : English
    Encoded date : UTC 2015-08-30 19:55:03
    Tagged date : UTC 2015-08-30 19:55:03
    00:00:00.000 : Loki's Arrival
    00:08:02.315 : Tesseract Lost
    00:11:49.167 : Natasha's Interrogation
    00:15:18.751 : The Big Guy
    00:20:33.482 : Man Out of Time
    00:23:04.258 : Tony & Pepper
    00:29:39.444 : Loki's Bargain
    00:37:23.992 : Stuttgart Confrontation
    00:42:47.982 : Mountaintop Battle
    00:50:22.269 : What's His Play?
    01:01:04.661 : Tension Rise
    01:14:05.107 : Carrier Battle
    01:28:01.234 : Man Down
    01:38:20.561 : The Invasion Begins
    01:45:40.167 : The War
    01:51:15.085 : Avengers Assembled
    01:57:47.769 : Hope is Lost
    02:04:38.680 : The Sacrifice Play
    02:09:39.397 : A Promise
    02:13:10.691 : End Credits
    Bit rate mode : VBR

    MediaInfo 720p Release

    General
    Complete name : The Avengers (HD).m4v
    Format : MPEG-4
    Codec ID : M4V
    File size : 8.82 GiB
    Duration : 2h 22mn
    Overall bit rate mode : Variable
    Overall bit rate : 8 834 Kbps
    Movie name : The Avengers
    Performer : Joss Whedon
    Director : Джосс Уидон
    Actor : Роберт Дауни мл. / Крис Эванс / Марк Руффало / Крис Хемсворт / Скарлетт Йоханссон / Джереми Реннер / Том Хиддлстон / Сэмюэл Л. Джексон / Кларк Грегг / Коби Смолдерс
    Screenplay by : Джосс Уидон / Зак Пенн
    Producer : Кевин Файги / Виктория Алонсо / Луис Д’Эспозито
    Production studio : Walt Disney Pictures
    Genre : Action & Adventure
    ContentType : Short Film
    Description : Локи, сводный брат Тора, возвращается, и в этот раз он не один. Земля на грани порабощения, и только лучшие из лучших могут спасти человечество.
    Recorded date : UTC 2012-04-11 08:00:00
    Encoded date : UTC 2015-08-30 19:04:21
    Tagged date : UTC 2015-08-30 19:25:32
    Copyright : © 2012 Marvel
    Cover : Yes
    Rating : None
    Title/Sort : Avengers
    LongDescription : Локи, сводный брат Тора, возвращается, и в этот раз он не один. Земля на грани порабощения, и только лучшие из лучших могут спасти человечество. / Ник Фьюри, глава международной организации Щ. И. Т., собирает выдающихся поборников справедливости и добра, чтобы отразить атаку. Под предводительством Капитана Америки Железный Человек, Тор, Невероятный Халк, Соколиный глаз и Чёрная Вдова вступают в войну с захватчиком.
    HDVideo : Yes
    AppleStoreCatalogID : 533654020
    Vendor : Apple:vendor_id:2012-263531
    ContentRating : mpaa|PG-13|300|Rated PG-13 for intense sequences of sci-fi violence and action throughout, and mild drug reference.
    Video #1
    ID : 1
    Format : AVC
    Format/Info : Advanced Video Codec
    Format profile : High@L3.1
    Format settings, CABAC : No
    Format settings, ReFrames : 3 frames
    Codec ID : avc1
    Codec ID/Info : Advanced Video Coding
    Duration : 2h 22mn
    Source duration : 2h 22mn
    Bit rate : 4 800 Kbps
    Width : 1 280 pixels
    Height : 720 pixels
    Display aspect ratio : 16:9
    Frame rate mode : Variable
    Frame rate : 23.976 fps
    Minimum frame rate : 23.974 fps
    Maximum frame rate : 23.981 fps
    Color space : YUV
    Chroma subsampling : 4:2:0
    Bit depth : 8 bits
    Scan type : Progressive
    Bits/(Pixel*Frame) : 0.217
    Stream size : 4.78 GiB (54%)
    Source stream size : 4.78 GiB (54%)
    Title : Main Program
    Writing library : x264 core 120
    Encoding settings : cabac=0 / ref=3 / deblock=1:0:0 / analyse=0x3:0x113 / me=umh / subme=9 / psy=1 / psy_rd=0.70:0.20 / mixed_ref=1 / me_range=32 / chroma_me=1 / trellis=0 / 8x8dct=1 / cqm=0 / deadzone=21,11 / fast_pskip=1 / chroma_qp_offset=-2 / threads=6 / sliced_threads=0 / nr=0 / decimate=1 / interlaced=0 / bluray_compat=0 / constrained_intra=0 / bframes=3 / b_pyramid=0 / b_adapt=2 / b_bias=0 / direct=1 / weightb=0 / open_gop=0 / weightp=0 / keyint=240 / keyint_min=24 / scenecut=40 / intra_refresh=0 / rc_lookahead=40 / rc=2pass / mbtree=1 / bitrate=4800 / ratetol=1.0 / qcomp=0.80 / qpmin=0 / qpmax=69 / qpstep=4 / cplxblur=20.0 / qblur=0.5 / vbv_maxrate=9500 / vbv_bufsize=9500 / nal_hrd=none / ip_ratio=1.40 / aq=1:1.00
    Language : English
    Encoded date : UTC 2015-08-30 19:04:22
    Tagged date : UTC 2015-08-30 19:14:33
    Color range : Limited
    Color primaries : BT.709
    Transfer characteristics : BT.709
    Matrix coefficients : BT.709
    Video #2
    ID : 19
    Format : JPEG
    Codec ID : jpeg
    Duration : 2h 22mn
    Bit rate mode : Variable
    Bit rate : 632 bps
    Width : 640 pixels
    Height : 360 pixels
    Display aspect ratio : 16:9
    Frame rate mode : Variable
    Frame rate : 0.002 fps
    Minimum frame rate : 0.001 fps
    Maximum frame rate : 0.007 fps
    Color space : YUV
    Chroma subsampling : 4:2:0
    Bit depth : 8 bits
    Compression mode : Lossy
    Bits/(Pixel*Frame) : 1.372
    Stream size : 772 KiB (0%)
    Title : Chapter Images
    Language : English
    Encoded date : UTC 2015-08-30 19:18:31
    Tagged date : UTC 2015-08-30 19:18:31
    Audio #1
    ID : 2
    Format : AAC
    Format/Info : Advanced Audio Codec
    Format profile : LC
    Codec ID : 40
    Duration : 2h 22mn
    Bit rate mode : Variable
    Bit rate : 165 Kbps
    Maximum bit rate : 244 Kbps
    Channel(s) : 2 channels
    Channel positions : Front: L R
    Sampling rate : 48.0 KHz
    Compression mode : Lossy
    Stream size : 168 MiB (2%)
    Title : Russian DUB Stereo
    Language : Russian
    Encoded date : UTC 2015-08-30 19:04:22
    Tagged date : UTC 2015-08-30 19:14:33
    Audio #2
    ID : 3
    Format : AAC
    Format/Info : Advanced Audio Codec
    Format profile : LC
    Codec ID : 40
    Duration : 2h 22mn
    Bit rate mode : Variable
    Bit rate : 165 Kbps
    Maximum bit rate : 267 Kbps
    Channel(s) : 2 channels
    Channel positions : Front: L R
    Sampling rate : 48.0 KHz
    Compression mode : Lossy
    Stream size : 169 MiB (2%)
    Title : Russian AVO A.Gavrilov Stereo
    Language : Russian
    Encoded date : UTC 2015-08-30 19:04:22
    Tagged date : UTC 2015-08-30 19:09:28
    Audio #3
    ID : 4
    Format : AAC
    Format/Info : Advanced Audio Codec
    Format profile : LC
    Codec ID : 40
    Duration : 2h 22mn
    Bit rate mode : Variable
    Bit rate : 165 Kbps
    Maximum bit rate : 266 Kbps
    Channel(s) : 2 channels
    Channel positions : Front: L R
    Sampling rate : 48.0 KHz
    Compression mode : Lossy
    Stream size : 169 MiB (2%)
    Title : Russian AVO U.Serbin Stereo
    Language : Russian
    Encoded date : UTC 2015-08-30 19:04:22
    Tagged date : UTC 2015-08-30 19:09:28
    Audio #4
    ID : 5
    Format : AAC
    Format/Info : Advanced Audio Codec
    Format profile : LC
    Codec ID : 40
    Duration : 2h 22mn
    Bit rate mode : Variable
    Bit rate : 165 Kbps
    Maximum bit rate : 253 Kbps
    Channel(s) : 2 channels
    Channel positions : Front: L R
    Sampling rate : 48.0 KHz
    Compression mode : Lossy
    Stream size : 168 MiB (2%)
    Title : Ukrainian DUB Stereo
    Language : Ukrainian
    Encoded date : UTC 2015-08-30 19:04:22
    Tagged date : UTC 2015-08-30 19:14:33
    Audio #5
    ID : 6
    Format : AAC
    Format/Info : Advanced Audio Codec
    Format profile : LC
    Codec ID : 40
    Duration : 2h 22mn
    Bit rate mode : Variable
    Bit rate : 165 Kbps
    Maximum bit rate : 256 Kbps
    Channel(s) : 2 channels
    Channel positions : Front: L R
    Sampling rate : 48.0 KHz
    Compression mode : Lossy
    Stream size : 168 MiB (2%)
    Title : English Stereo
    Language : English
    Encoded date : UTC 2015-08-30 19:04:22
    Tagged date : UTC 2015-08-30 19:14:33
    Audio #6
    ID : 7
    Format : AC-3
    Format/Info : Audio Coding 3
    Mode extension : CM (complete main)
    Format settings, Endianness : Big
    Codec ID : ac-3
    Duration : 2h 22mn
    Bit rate mode : Constant
    Bit rate : 640 Kbps
    Channel(s) : 6 channels
    Channel positions : Front: L C R, Side: L R, LFE
    Sampling rate : 48.0 KHz
    Bit depth : 16 bits
    Compression mode : Lossy
    Stream size : 654 MiB (7%)
    Title : Russian DUB DD 5.1
    Language : Russian
    Encoded date : UTC 2015-08-30 19:04:22
    Tagged date : UTC 2015-08-30 19:14:33
    Audio #7
    ID : 8
    Format : AC-3
    Format/Info : Audio Coding 3
    Mode extension : CM (complete main)
    Format settings, Endianness : Big
    Codec ID : ac-3
    Duration : 2h 22mn
    Bit rate mode : Constant
    Bit rate : 640 Kbps
    Channel(s) : 6 channels
    Channel positions : Front: L C R, Side: L R, LFE
    Sampling rate : 48.0 KHz
    Bit depth : 16 bits
    Compression mode : Lossy
    Stream size : 654 MiB (7%)
    Title : Russian AVO A.Gavrilov DD 5.1
    Language : Russian
    Encoded date : UTC 2015-08-30 19:04:22
    Tagged date : UTC 2015-08-30 19:08:47
    Audio #8
    ID : 9
    Format : AC-3
    Format/Info : Audio Coding 3
    Mode extension : CM (complete main)
    Format settings, Endianness : Big
    Codec ID : ac-3
    Duration : 2h 22mn
    Bit rate mode : Constant
    Bit rate : 640 Kbps
    Channel(s) : 6 channels
    Channel positions : Front: L C R, Side: L R, LFE
    Sampling rate : 48.0 KHz
    Bit depth : 16 bits
    Compression mode : Lossy
    Stream size : 654 MiB (7%)
    Title : Russian AVO U.Serbin DD 5.1
    Language : Russian
    Encoded date : UTC 2015-08-30 19:04:22
    Tagged date : UTC 2015-08-30 19:08:47
    Audio #9
    ID : 10
    Format : AC-3
    Format/Info : Audio Coding 3
    Mode extension : CM (complete main)
    Format settings, Endianness : Big
    Codec ID : ac-3
    Duration : 2h 22mn
    Bit rate mode : Constant
    Bit rate : 640 Kbps
    Channel(s) : 6 channels
    Channel positions : Front: L C R, Side: L R, LFE
    Sampling rate : 48.0 KHz
    Bit depth : 16 bits
    Compression mode : Lossy
    Stream size : 654 MiB (7%)
    Title : Ukrainian DUB DD 5.1
    Language : Ukrainian
    Encoded date : UTC 2015-08-30 19:04:22
    Tagged date : UTC 2015-08-30 19:14:33
    Audio #10
    ID : 11
    Format : AC-3
    Format/Info : Audio Coding 3
    Mode extension : CM (complete main)
    Format settings, Endianness : Big
    Codec ID : ac-3
    Duration : 2h 22mn
    Bit rate mode : Constant
    Bit rate : 640 Kbps
    Channel(s) : 6 channels
    Channel positions : Front: L C R, Side: L R, LFE
    Sampling rate : 48.0 KHz
    Bit depth : 16 bits
    Compression mode : Lossy
    Stream size : 654 MiB (7%)
    Title : English DD 5.1
    Language : English
    Encoded date : UTC 2015-08-30 19:04:22
    Tagged date : UTC 2015-08-30 19:14:33
    Text #1
    ID : 12
    Format : Timed Text
    Muxing mode : sbtl
    Codec ID : tx3g
    Duration : 2h 6mn
    Bit rate mode : Variable
    Bit rate : 1 bps
    Stream size : 919 Bytes (0%)
    Title : Russian Forced Subtitle
    Language : Russian
    Encoded date : UTC 2015-08-30 19:04:22
    Tagged date : UTC 2015-08-30 19:12:31
    Text #2
    ID : 13
    Format : Timed Text
    Muxing mode : sbtl
    Codec ID : tx3g
    Duration : 2h 6mn
    Bit rate mode : Variable
    Bit rate : 2 bps
    Stream size : 1.82 KiB (0%)
    Title : Ukrainian Forced Subtitle
    Language : Ukrainian
    Encoded date : UTC 2015-08-30 19:04:22
    Tagged date : UTC 2015-08-30 19:12:31
    Text #3
    ID : 14
    Format : Timed Text
    Muxing mode : sbtl
    Codec ID : tx3g
    Duration : 15mn 57s
    Bit rate mode : Variable
    Bit rate : 7 bps
    Stream size : 838 Bytes (0%)
    Title : English Forced Subtitle
    Language : English
    Encoded date : UTC 2015-08-30 19:04:22
    Tagged date : UTC 2015-08-30 19:05:27
    Text #4
    ID : 15
    Format : Timed Text
    Muxing mode : sbtl
    Codec ID : tx3g
    Duration : 2h 15mn
    Bit rate mode : Variable
    Bit rate : 92 bps
    Stream size : 91.7 KiB (0%)
    Title : Russia Subtitle
    Language : Russian
    Encoded date : UTC 2015-08-30 19:04:22
    Tagged date : UTC 2015-08-30 19:14:02
    Text #5
    ID : 16
    Format : Timed Text
    Muxing mode : sbtl
    Codec ID : tx3g
    Duration : 2h 15mn
    Bit rate mode : Variable
    Bit rate : 97 bps
    Stream size : 96.0 KiB (0%)
    Title : Ukrainian Subtitle
    Language : Ukrainian
    Encoded date : UTC 2015-08-30 19:04:22
    Tagged date : UTC 2015-08-30 19:14:02
    Text #6
    ID : 17
    Format : Timed Text
    Muxing mode : sbtl
    Codec ID : tx3g
    Duration : 2h 15mn
    Bit rate mode : Variable
    Bit rate : 65 bps
    Stream size : 64.7 KiB (0%)
    Title : English SDH Subtitle
    Language : English
    Encoded date : UTC 2015-08-30 19:04:22
    Tagged date : UTC 2015-08-30 19:14:02
    Menu #1
    00:00:00.000 : Loki's Arrival
    00:08:02.315 : Tesseract Lost
    00:11:49.167 : Natasha's Interrogation
    00:15:18.751 : The Big Guy
    00:20:33.482 : Man Out of Time
    00:23:04.258 : Tony & Pepper
    00:29:39.444 : Loki's Bargain
    00:37:23.992 : Stuttgart Confrontation
    00:42:47.982 : Mountaintop Battle
    00:50:22.269 : What's His Play?
    01:01:04.661 : Tension Rise
    01:14:05.107 : Carrier Battle
    01:28:01.234 : Man Down
    01:38:20.561 : The Invasion Begins
    01:45:40.167 : The War
    01:51:15.085 : Avengers Assembled
    01:57:47.769 : Hope is Lost
    02:04:38.680 : The Sacrifice Play
    02:09:39.397 : A Promise
    02:13:10.691 : End Credits
    Menu #2
    ID : 18
    Codec ID : text
    Duration : 2h 22mn
    Title : Chapter Titles
    Language : English
    Encoded date : UTC 2015-08-30 19:18:15
    Tagged date : UTC 2015-08-30 19:18:15
    00:00:00.000 : Loki's Arrival
    00:08:02.315 : Tesseract Lost
    00:11:49.167 : Natasha's Interrogation
    00:15:18.751 : The Big Guy
    00:20:33.482 : Man Out of Time
    00:23:04.258 : Tony & Pepper
    00:29:39.444 : Loki's Bargain
    00:37:23.992 : Stuttgart Confrontation
    00:42:47.982 : Mountaintop Battle
    00:50:22.269 : What's His Play?
    01:01:04.661 : Tension Rise
    01:14:05.107 : Carrier Battle
    01:28:01.234 : Man Down
    01:38:20.561 : The Invasion Begins
    01:45:40.167 : The War
    01:51:15.085 : Avengers Assembled
    01:57:47.769 : Hope is Lost
    02:04:38.680 : The Sacrifice Play
    02:09:39.397 : A Promise
    02:13:10.691 : End Credits
    Bit rate mode : VBR

    MediaInfo 1080p Release

    General
    Complete name : The Avengers (1080p HD).m4v
    Format : MPEG-4
    Codec ID : M4V
    File size : 17.5 GiB
    Duration : 2h 22mn
    Overall bit rate mode : Variable
    Overall bit rate : 17.5 Mbps
    Movie name : The Avengers
    Performer : Joss Whedon
    Director : Джосс Уидон
    Actor : Роберт Дауни мл. / Крис Эванс / Марк Руффало / Крис Хемсворт / Скарлетт Йоханссон / Джереми Реннер / Том Хиддлстон / Сэмюэл Л. Джексон / Кларк Грегг / Коби Смолдерс
    Screenplay by : Джосс Уидон / Зак Пенн
    Producer : Кевин Файги / Виктория Алонсо / Луис Д’Эспозито
    Production studio : Walt Disney Pictures
    Genre : Action & Adventure
    ContentType : Short Film
    Description : Локи, сводный брат Тора, возвращается, и в этот раз он не один. Земля на грани порабощения, и только лучшие из лучших могут спасти человечество.
    Recorded date : UTC 2012-04-11 08:00:00
    Encoded date : UTC 2015-08-30 16:48:29
    Tagged date : UTC 2015-08-30 17:14:04
    Copyright : © 2012 Marvel
    Cover : Yes
    Rating : None
    Title/Sort : Avengers
    LongDescription : Локи, сводный брат Тора, возвращается, и в этот раз он не один. Земля на грани порабощения, и только лучшие из лучших могут спасти человечество. / Ник Фьюри, глава международной организации Щ. И. Т., собирает выдающихся поборников справедливости и добра, чтобы отразить атаку. Под предводительством Капитана Америки Железный Человек, Тор, Невероятный Халк, Соколиный глаз и Чёрная Вдова вступают в войну с захватчиком.
    AppleStoreCatalogID : 533654020
    Vendor : Apple:vendor_id:2012-263531
    ContentRating : mpaa|PG-13|300|Rated PG-13 for intense sequences of sci-fi violence and action throughout, and mild drug reference.
    Video #1
    ID : 1
    Format : AVC
    Format/Info : Advanced Video Codec
    Format profile : High@L4
    Format settings, CABAC : Yes
    Format settings, ReFrames : 4 frames
    Codec ID : avc1
    Codec ID/Info : Advanced Video Coding
    Duration : 2h 22mn
    Source duration : 2h 22mn
    Bit rate : 13.5 Mbps
    Width : 1 920 pixels
    Height : 1 080 pixels
    Display aspect ratio : 16:9
    Frame rate mode : Variable
    Frame rate : 23.976 fps
    Minimum frame rate : 23.974 fps
    Maximum frame rate : 23.981 fps
    Color space : YUV
    Chroma subsampling : 4:2:0
    Bit depth : 8 bits
    Scan type : Progressive
    Bits/(Pixel*Frame) : 0.272
    Stream size : 13.5 GiB (77%)
    Source stream size : 13.5 GiB (77%)
    Title : Main Program
    Writing library : x264 core 120
    Encoding settings : cabac=1 / ref=4 / deblock=1:0:0 / analyse=0x3:0x133 / me=umh / subme=10 / psy=1 / psy_rd=0.70:0.15 / mixed_ref=1 / me_range=32 / chroma_me=1 / trellis=2 / 8x8dct=1 / cqm=0 / deadzone=21,11 / fast_pskip=0 / chroma_qp_offset=-3 / threads=6 / sliced_threads=0 / nr=0 / decimate=0 / interlaced=0 / bluray_compat=0 / constrained_intra=0 / bframes=4 / b_pyramid=2 / b_adapt=2 / b_bias=0 / direct=3 / weightb=1 / open_gop=0 / weightp=2 / keyint=240 / keyint_min=24 / scenecut=40 / intra_refresh=0 / rc_lookahead=40 / rc=crf / mbtree=0 / crf=18.0 / qcomp=0.60 / qpmin=0 / qpmax=69 / qpstep=4 / vbv_maxrate=25000 / vbv_bufsize=25000 / crf_max=0.0 / nal_hrd=none / ip_ratio=1.40 / pb_ratio=1.30 / aq=1:1.00
    Language : English
    Encoded date : UTC 2015-08-30 16:48:29
    Tagged date : UTC 2015-08-30 16:58:30
    Color range : Limited
    Color primaries : BT.709
    Transfer characteristics : BT.709
    Matrix coefficients : BT.709
    Video #2
    ID : 19
    Format : JPEG
    Codec ID : jpeg
    Duration : 2h 22mn
    Bit rate mode : Variable
    Bit rate : 642 bps
    Width : 640 pixels
    Height : 360 pixels
    Display aspect ratio : 16:9
    Frame rate mode : Variable
    Frame rate : 0.002 fps
    Minimum frame rate : 0.001 fps
    Maximum frame rate : 0.007 fps
    Color space : YUV
    Chroma subsampling : 4:2:0
    Bit depth : 8 bits
    Compression mode : Lossy
    Bits/(Pixel*Frame) : 1.393
    Stream size : 783 KiB (0%)
    Title : Chapter Images
    Language : English
    Encoded date : UTC 2015-08-30 16:58:55
    Tagged date : UTC 2015-08-30 16:58:56
    Audio #1
    ID : 2
    Format : AAC
    Format/Info : Advanced Audio Codec
    Format profile : LC
    Codec ID : 40
    Duration : 2h 22mn
    Bit rate mode : Variable
    Bit rate : 165 Kbps
    Maximum bit rate : 244 Kbps
    Channel(s) : 2 channels
    Channel positions : Front: L R
    Sampling rate : 48.0 KHz
    Compression mode : Lossy
    Stream size : 168 MiB (1%)
    Title : Russian DUB Stereo
    Language : Russian
    Encoded date : UTC 2015-08-30 16:48:29
    Tagged date : UTC 2015-08-30 16:58:30
    Audio #2
    ID : 3
    Format : AAC
    Format/Info : Advanced Audio Codec
    Format profile : LC
    Codec ID : 40
    Duration : 2h 22mn
    Bit rate mode : Variable
    Bit rate : 165 Kbps
    Maximum bit rate : 267 Kbps
    Channel(s) : 2 channels
    Channel positions : Front: L R
    Sampling rate : 48.0 KHz
    Compression mode : Lossy
    Stream size : 169 MiB (1%)
    Title : Russian AVO A.Gavrilov Stereo
    Language : Russian
    Encoded date : UTC 2015-08-30 16:48:30
    Tagged date : UTC 2015-08-30 16:55:46
    Audio #3
    ID : 4
    Format : AAC
    Format/Info : Advanced Audio Codec
    Format profile : LC
    Codec ID : 40
    Duration : 2h 22mn
    Bit rate mode : Variable
    Bit rate : 165 Kbps
    Maximum bit rate : 266 Kbps
    Channel(s) : 2 channels
    Channel positions : Front: L R
    Sampling rate : 48.0 KHz
    Compression mode : Lossy
    Stream size : 169 MiB (1%)
    Title : Russian AVO U.Serbin Stereo
    Language : Russian
    Encoded date : UTC 2015-08-30 16:48:30
    Tagged date : UTC 2015-08-30 16:55:46
    Audio #4
    ID : 5
    Format : AAC
    Format/Info : Advanced Audio Codec
    Format profile : LC
    Codec ID : 40
    Duration : 2h 22mn
    Bit rate mode : Variable
    Bit rate : 165 Kbps
    Maximum bit rate : 253 Kbps
    Channel(s) : 2 channels
    Channel positions : Front: L R
    Sampling rate : 48.0 KHz
    Compression mode : Lossy
    Stream size : 168 MiB (1%)
    Title : Ukrainian DUB Stereo
    Language : Ukrainian
    Encoded date : UTC 2015-08-30 16:48:30
    Tagged date : UTC 2015-08-30 16:58:30
    Audio #5
    ID : 6
    Format : AAC
    Format/Info : Advanced Audio Codec
    Format profile : LC
    Codec ID : 40
    Duration : 2h 22mn
    Bit rate mode : Variable
    Bit rate : 165 Kbps
    Maximum bit rate : 256 Kbps
    Channel(s) : 2 channels
    Channel positions : Front: L R
    Sampling rate : 48.0 KHz
    Compression mode : Lossy
    Stream size : 168 MiB (1%)
    Title : English Stereo
    Language : English
    Encoded date : UTC 2015-08-30 16:48:30
    Tagged date : UTC 2015-08-30 16:58:30
    Audio #6
    ID : 7
    Format : AC-3
    Format/Info : Audio Coding 3
    Mode extension : CM (complete main)
    Format settings, Endianness : Big
    Codec ID : ac-3
    Duration : 2h 22mn
    Bit rate mode : Constant
    Bit rate : 640 Kbps
    Channel(s) : 6 channels
    Channel positions : Front: L C R, Side: L R, LFE
    Sampling rate : 48.0 KHz
    Bit depth : 16 bits
    Compression mode : Lossy
    Stream size : 654 MiB (4%)
    Title : Russian DUB DD 5.1
    Language : Russian
    Encoded date : UTC 2015-08-30 16:48:30
    Tagged date : UTC 2015-08-30 16:58:30
    Audio #7
    ID : 8
    Format : AC-3
    Format/Info : Audio Coding 3
    Mode extension : CM (complete main)
    Format settings, Endianness : Big
    Codec ID : ac-3
    Duration : 2h 22mn
    Bit rate mode : Constant
    Bit rate : 640 Kbps
    Channel(s) : 6 channels
    Channel positions : Front: L C R, Side: L R, LFE
    Sampling rate : 48.0 KHz
    Bit depth : 16 bits
    Compression mode : Lossy
    Stream size : 654 MiB (4%)
    Title : Russian AVO A.Gavrilov DD 5.1
    Language : Russian
    Encoded date : UTC 2015-08-30 16:48:30
    Tagged date : UTC 2015-08-30 16:54:37
    Audio #8
    ID : 9
    Format : AC-3
    Format/Info : Audio Coding 3
    Mode extension : CM (complete main)
    Format settings, Endianness : Big
    Codec ID : ac-3
    Duration : 2h 22mn
    Bit rate mode : Constant
    Bit rate : 640 Kbps
    Channel(s) : 6 channels
    Channel positions : Front: L C R, Side: L R, LFE
    Sampling rate : 48.0 KHz
    Bit depth : 16 bits
    Compression mode : Lossy
    Stream size : 654 MiB (4%)
    Title : Russian AVO U.Serbin DD 5.1
    Language : Russian
    Encoded date : UTC 2015-08-30 16:48:30
    Tagged date : UTC 2015-08-30 16:54:37
    Audio #9
    ID : 10
    Format : AC-3
    Format/Info : Audio Coding 3
    Mode extension : CM (complete main)
    Format settings, Endianness : Big
    Codec ID : ac-3
    Duration : 2h 22mn
    Bit rate mode : Constant
    Bit rate : 640 Kbps
    Channel(s) : 6 channels
    Channel positions : Front: L C R, Side: L R, LFE
    Sampling rate : 48.0 KHz
    Bit depth : 16 bits
    Compression mode : Lossy
    Stream size : 654 MiB (4%)
    Title : Ukrainian DUB DD 5.1
    Language : Ukrainian
    Encoded date : UTC 2015-08-30 16:48:30
    Tagged date : UTC 2015-08-30 16:58:30
    Audio #10
    ID : 11
    Format : AC-3
    Format/Info : Audio Coding 3
    Mode extension : CM (complete main)
    Format settings, Endianness : Big
    Codec ID : ac-3
    Duration : 2h 22mn
    Bit rate mode : Constant
    Bit rate : 640 Kbps
    Channel(s) : 6 channels
    Channel positions : Front: L C R, Side: L R, LFE
    Sampling rate : 48.0 KHz
    Bit depth : 16 bits
    Compression mode : Lossy
    Stream size : 654 MiB (4%)
    Title : English DD 5.1
    Language : English
    Encoded date : UTC 2015-08-30 16:48:30
    Tagged date : UTC 2015-08-30 16:58:30
    Text #1
    ID : 12
    Format : Timed Text
    Muxing mode : sbtl
    Codec ID : tx3g
    Duration : 2h 6mn
    Bit rate mode : Variable
    Bit rate : 1 bps
    Stream size : 919 Bytes (0%)
    Title : Russian Forced Subtitle
    Language : Russian
    Encoded date : UTC 2015-08-30 16:48:30
    Tagged date : UTC 2015-08-30 16:56:55
    Text #2
    ID : 13
    Format : Timed Text
    Muxing mode : sbtl
    Codec ID : tx3g
    Duration : 2h 6mn
    Bit rate mode : Variable
    Bit rate : 2 bps
    Stream size : 1.82 KiB (0%)
    Title : Ukrainian Forced Subtitle
    Language : Ukrainian
    Encoded date : UTC 2015-08-30 16:48:30
    Tagged date : UTC 2015-08-30 16:56:55
    Text #3
    ID : 14
    Format : Timed Text
    Muxing mode : sbtl
    Codec ID : tx3g
    Duration : 15mn 57s
    Bit rate mode : Variable
    Bit rate : 7 bps
    Stream size : 838 Bytes (0%)
    Title : English Forced Subtitle
    Language : English
    Encoded date : UTC 2015-08-30 16:48:30
    Tagged date : UTC 2015-08-30 16:49:38
    Text #4
    ID : 15
    Format : Timed Text
    Muxing mode : sbtl
    Codec ID : tx3g
    Duration : 2h 15mn
    Bit rate mode : Variable
    Bit rate : 92 bps
    Stream size : 91.7 KiB (0%)
    Title : Russian Subtitle
    Language : Russian
    Encoded date : UTC 2015-08-30 16:48:30
    Tagged date : UTC 2015-08-30 16:58:15
    Text #5
    ID : 16
    Format : Timed Text
    Muxing mode : sbtl
    Codec ID : tx3g
    Duration : 2h 15mn
    Bit rate mode : Variable
    Bit rate : 97 bps
    Stream size : 96.0 KiB (0%)
    Title : Ukrainian Subtitle
    Language : Ukrainian
    Encoded date : UTC 2015-08-30 16:48:30
    Tagged date : UTC 2015-08-30 16:58:15
    Text #6
    ID : 17
    Format : Timed Text
    Muxing mode : sbtl
    Codec ID : tx3g
    Duration : 2h 15mn
    Bit rate mode : Variable
    Bit rate : 65 bps
    Stream size : 64.7 KiB (0%)
    Title : English SDH Subtitle
    Language : English
    Encoded date : UTC 2015-08-30 16:48:30
    Tagged date : UTC 2015-08-30 16:58:15
    Menu #1
    00:00:00.000 : Loki's Arrival
    00:08:02.315 : Tesseract Lost
    00:11:49.167 : Natasha's Interrogation
    00:15:18.751 : The Big Guy
    00:20:33.482 : Man Out of Time
    00:23:04.258 : Tony & Pepper
    00:29:39.444 : Loki's Bargain
    00:37:23.992 : Stuttgart Confrontation
    00:42:47.982 : Mountaintop Battle
    00:50:22.269 : What's His Play?
    01:01:04.661 : Tension Rise
    01:14:05.107 : Carrier Battle
    01:28:01.234 : Man Down
    01:38:20.561 : The Invasion Begins
    01:45:40.167 : The War
    01:51:15.085 : Avengers Assembled
    01:57:47.769 : Hope is Lost
    02:04:38.680 : The Sacrifice Play
    02:09:39.397 : A Promise
    02:13:10.691 : End Credits
    Menu #2
    ID : 18
    Codec ID : text
    Duration : 2h 22mn
    Title : Chapter Titles
    Language : English
    Encoded date : UTC 2015-08-30 16:58:30
    Tagged date : UTC 2015-08-30 16:58:30
    00:00:00.000 : Loki's Arrival
    00:08:02.315 : Tesseract Lost
    00:11:49.167 : Natasha's Interrogation
    00:15:18.751 : The Big Guy
    00:20:33.482 : Man Out of Time
    00:23:04.258 : Tony & Pepper
    00:29:39.444 : Loki's Bargain
    00:37:23.992 : Stuttgart Confrontation
    00:42:47.982 : Mountaintop Battle
    00:50:22.269 : What's His Play?
    01:01:04.661 : Tension Rise
    01:14:05.107 : Carrier Battle
    01:28:01.234 : Man Down
    01:38:20.561 : The Invasion Begins
    01:45:40.167 : The War
    01:51:15.085 : Avengers Assembled
    01:57:47.769 : Hope is Lost
    02:04:38.680 : The Sacrifice Play
    02:09:39.397 : A Promise
    02:13:10.691 : End Credits
    Bit rate mode : VBR

    x264 лог 480p Release

    %handbrake%\HandBrakeCLI.exe -i "\MARVELS_THE_AVENGERS_HDCLUB\BDMV\STREAM\00800.m2ts" -t 1 -c 1 -o "
    Avengers.m4v" -f mp4 -I  -O  -w 640 -l 480 --crop 0:0:0:0 --custom-anamorphic --modulus 2 --pixel-aspect 852:640  -e x264 -b 1700 -2  -a none  -x cabac=0:ref=2:me=umh:bframes=0:weightp=0:subq=6:8x8dct=0:trellis=0:vbv-maxrate=5000:vbv-bufsize=5000 --verbose=1
    x264 [info]: frame I:5749  Avg QP:16.78  size: 27863  PSNR Mean Y:47.88 U:51.08 V:50.94 Avg:48.65 Global:47.69
    x264 [info]: frame P:199842 Avg QP:18.20  size:  8284  PSNR Mean Y:46.19 U:49.79 V:49.76 Avg:47.04 Global:46.16
    x264 [info]: mb I  I16..4: 25.5%  0.0% 74.5%
    x264 [info]: mb P  I16..4:  1.4%  0.0%  4.2%  P16..4: 44.1% 21.1%  8.2%  0.0%  0.0%    skip:21.0%
    x264 [info]: coded y,uvDC,uvAC intra: 70.4% 72.5% 45.6% inter: 24.2% 18.1% 4.3%
    x264 [info]: i16 v,h,dc,p: 33% 16%  9% 42%
    x264 [info]: i4 v,h,dc,ddl,ddr,vr,hd,vl,hu: 27% 16% 15%  7%  8%  9%  7%  7%  5%
    x264 [info]: i8c dc,h,v,p: 52% 17% 23%  9%
    x264 [info]: ref P L0: 73.6% 26.4%
    x264 [info]: SSIM Mean Y:0.9878259 (19.146db)
    x264 [info]: PSNR Mean Y:46.239 U:49.823 V:49.793 Avg:47.082 Global:46.194 kb/s: 1693.95

    x264 лог 720p Release

    %handbrake%\HandBrakeCLI.exe -i "\MARVELS_THE_AVENGERS_HDCLUB\BDMV\STREAM\00800.m2ts" -t 1 -c 1 -o "Avengers (HD).m4v"  -f mp4 -4 -O -w 1280 -l 720 --crop 0:0:0:0 --modulus 2 -e x264 -b 4800 -2  -a none  -x cabac=0:ref=3:me=umh:b-pyramid=none:b-adapt=2:weightb=0:trellis=0:weightp=0:vbv-maxrate=9500:vbv-bufsize=9500:subq=9:merange=32:qcomp=0.80:qpmin=0:qpmax=69:psy-rd=0.70,0.20 --verbose=1
    x264 [info]: frame I:2472  Avg QP:14.77  size:124138  PSNR Mean Y:48.09 U:51.88 V:51.87 Avg:49.00 Global:48.43
    x264 [info]: frame P:78461 Avg QP:16.26  size: 37835  PSNR Mean Y:47.05 U:50.69 V:50.74 Avg:47.92 Global:47.14
    x264 [info]: frame B:124658 Avg QP:16.93  size: 14930  PSNR Mean Y:46.59 U:50.58 V:50.69 Avg:47.51 Global:46.89
    x264 [info]: consecutive B-frames:  5.2% 30.3% 34.8% 29.7%
    x264 [info]: mb I  I16..4:  6.3% 60.3% 33.4%
    x264 [info]: mb P  I16..4:  2.5% 11.6%  5.2%  P16..4: 37.2% 26.3%  9.2%  0.0%  0.0%    skip: 8.0%
    x264 [info]: mb B  I16..4:  0.4%  2.2%  0.9%  B16..8: 40.7% 16.4%  2.1%  direct: 5.5%  skip:31.8%  L0:38.1% L1:52.1% BI: 9.9%
    x264 [info]: 8x8 transform intra:60.6% inter:46.7%
    x264 [info]: coded y,uvDC,uvAC intra: 85.1% 76.8% 52.6% inter: 19.6% 16.1% 2.7%
    x264 [info]: i16 v,h,dc,p: 20% 14%  8% 58%
    x264 [info]: i8 v,h,dc,ddl,ddr,vr,hd,vl,hu:  8%  9%  6% 11% 14% 13% 14% 11% 12%
    x264 [info]: i4 v,h,dc,ddl,ddr,vr,hd,vl,hu: 10% 11%  4% 12% 16% 14% 14% 10%  9%
    x264 [info]: i8c dc,h,v,p: 50% 19% 19% 11%
    x264 [info]: ref P L0: 76.0% 15.2%  8.9%
    x264 [info]: ref B L0: 82.0% 18.0%
    x264 [info]: SSIM Mean Y:0.9865664 (18.718db)
    x264 [info]: PSNR Mean Y:46.786 U:50.638 V:50.724 Avg:47.686 Global:46.997 kb/s: 4792.26

    x264 лог 1080p Release

    %handbrake%\HandBrakeCLI.exe -i "\MARVELS_THE_AVENGERS_HDCLUB\BDMV\STREAM\00800.m2ts" -t 1 -c 1 -o "Avengers (1080p HD).m4v" -f mp4 -4  -O  -w 1920 -l 1080 --crop 0:0:0:0 --modulus 16 -e x264 -q 18 -a none  -x ref=4:bframes=4:b-adapt=2:direct=auto:me=umh:merange=32:subq=10:mbtree=0:analyse=all:trellis=2:deblock=0,0:qcomp=0.60:qpmin=0:qpmax=69:fast_pskip=0:no-dct-decimate=1:psy-rd=0.70,0.15:vbv-maxrate=25000:vbv-bufsize=25000 --verbose=1
    x264 [info]: frame I:2110  Avg QP:15.28  size:271777  PSNR Mean Y:50.93 U:56.01 V:55.94 Avg:52.03 Global:51.45
    x264 [info]: frame P:63782 Avg QP:16.60  size:118770  PSNR Mean Y:48.04 U:53.01 V:53.11 Avg:49.12 Global:48.34
    x264 [info]: frame B:139699 Avg QP:17.90  size: 45300  PSNR Mean Y:46.88 U:51.73 V:51.76 Avg:47.94 Global:47.42
    x264 [info]: consecutive B-frames:  4.2%  9.9% 29.2% 36.9% 19.9%
    x264 [info]: mb I  I16..4: 32.9% 56.5% 10.7%
    x264 [info]: mb P  I16..4:  5.4% 27.4%  1.8%  P16..4: 35.2% 16.4%  8.4%  0.5%  0.1%    skip: 4.8%
    x264 [info]: mb B  I16..4:  1.7%  4.8%  0.3%  B16..8: 40.0% 12.8%  2.9%  direct: 10.6%  skip:26.8%  L0:39.5% L1:39.3% BI:21.2%
    x264 [info]: 8x8 transform intra:75.3% inter:51.0%
    x264 [info]: direct mvs  spatial:100.0% temporal:0.0%
    x264 [info]: coded y,uvDC,uvAC intra: 93.2% 85.7% 66.3% inter: 33.1% 34.4% 15.6%
    x264 [info]: i16 v,h,dc,p:  6%  5% 51% 38%
    x264 [info]: i8 v,h,dc,ddl,ddr,vr,hd,vl,hu: 12% 11% 21%  7%  9%  9%  9%  9% 12%
    x264 [info]: i4 v,h,dc,ddl,ddr,vr,hd,vl,hu: 16% 10% 15%  8% 12% 11% 11%  8%  9%
    x264 [info]: i8c dc,h,v,p: 55% 20% 15% 10%
    x264 [info]: Weighted P-Frames: Y:1.8% UV:1.2%
    x264 [info]: ref P L0: 61.3%  9.7% 21.7%  5.0%  2.3%  0.0%
    x264 [info]: ref B L0: 81.0% 16.2%  2.8%
    x264 [info]: ref B L1: 91.3%  8.7%
    x264 [info]: SSIM Mean Y:0.9862617 (18.621db)
    x264 [info]: PSNR Mean Y:47.278 U:52.173 V:52.224 Avg:48.345 Global:47.718 kb/s: 13506.47

    Скриншоты 480p Release

    [/URL
    [/url]

    Скриншоты 1080p Release

    -

    Релиз подготовлен для просмотра на Apple TV, iPad, iPhone, iPod Touch.
    Для просмотра данного релиза на компьютере с ОС Windows рекомендуется использовать VLC media player
    Скачать .torrent

    Скачать торрент-файл бесплатно и на максимальной скорости!

    Как скачивать? · Что такое торрент? · Рейтинг и ограничения

    !ВНИМАНИЕ!
    Сайт не распространяет и не хранит электронные версии произведений, а занимается лишь лишь предоставлением доступа к создаваемому пользователями каталогу ссылок на торрент-файлы, которые содержат только списки хеш-сумм, убедительная просьба с жалобами обращаться напрямую к пользователю. Файлы для обмена на трекере предоставлены пользователями сайта, и администрация не несёт ответственности за их содержание. Просьба не заливать файлы, защищенные авторскими правами, а также файлы нелегального содержания!


    _________________
    [Профиль] [ЛС]
    Показать сообщения:    
    Ответить на тему

    Текущее время: Сегодня, в 18:04

    Часовой пояс: GMT + 2



    Вы не можете начинать темы
    Вы не можете отвечать на сообщения
    Вы не можете редактировать свои сообщения
    Вы не можете удалять свои сообщения
    Вы не можете голосовать в опросах
    Вы не можете прикреплять файлы к сообщениям
    Вы не можете скачивать файлы