BitTorrentTracker PerecTracker.org
BitTorrentTracker PerecTracker.org
    
Регистрация  ·  Вход
 
 · 
Забыли пароль?

  • [ATV3] Разлом Сан-Андреас / San Andreas (Брэд Пейтон / Brad Peyton ) [2015, США, Австралия, Канада , Боевик, триллер, драма, BDRip, HD (1080p)] DUB + Original + sub (rus, eng)

    Ответить на тему
     
    Автор Сообщение

    Flirldrerve

    Создавать темы 27-Окт-2015 05:18

           

    [Цитировать]

    Разлом Сан-Андреас / San Andreas
    «A rescue pilot survived an earthquake, this is what happens next»
    6.421 / 10 6.20 / 10
    -Год выпуска: 2015
    Страна: США, Австралия, Канада
    Жанр: Боевик, триллер, драма
    Продолжительность: 01:54:28
    Перевод: Дублированный (Лицензия)
    Оригинальная аудиодорожка: Есть
    Cубтитры: Русские форсированные, Русские, Английские
    Режиссёр: Брэд Пейтон
    Сценарий: Карлтон Кьюз, Андре Фабрицио, Джереми Пассмор
    Продюсер: Бо Флинн, Брюс Берман, Ричард Бренер
    Оператор: Стив Йедлин
    Композитор: Эндрю Локингтон
    Художник: Бэрри Чусид, Майкл Е. Голдман, Джасинта Леонг
    Монтаж: Боб Дюксэй
    В ролях: Дуэйн Джонсон, Карла Гуджино, Александра Даддарио, Йоан Гриффит, Арчи Панджаби, Пол Джаматти, Хьюго Джонстон-Барт, Арт Паркинсон, Уилл Юн Ли, Кайли Миноуг
    Бюджет: $110 000 000
    Сборы в США: $155 091 166
    Сборы в мире: + $315 300 000 = $470 391 166
    Сборы в России: $10 243 534
    Мировая премьера: 21 мая 2015
    Премьера (РФ): 28 мая 2015, «Каро-Премьер»
    Релиз на DVD: 8 октября 2015, «CP Дистрибуция»
    Релиз на Blu-Ray: 8 октября 2015, «CP Дистрибуция»
    Описание: Рэй — пилот спасательного вертолета, который всю свою жизнь помогал другим людям. За все время работы он насмотрелся на множество жутких вещей и не раз оказывался в очень сложных ситуациях. Несмотря на все преграды он спешил на помощь, даже не предполагая, что самое страшное ждет его впереди.
    На Калифорнию обрушивается мощное землетрясение, в результате которого гибнут сотни людей и образовывается огромная трещина в земле. Во всеобщем хаосе Рэю предстоит отыскать свою дочь, но сделать это будет очень непросто. В надежде, что его ребенок все еще жив, он отправляется в смертельно опасное путешествие через весь штат…-Качество исходника: Blu-Ray (BlueBird)
    Качество: BDRip
    Тип: HD (1080p)
    Контейнер: M4V
    Видео: H.264, 1920x800, 2.40:1, 8 000 Kbps, 23.976 fps
    Аудио 1: Русский/Дублированный (Лицензия), AAC / 2.0 / 159 Kbps / 48.0 KHz
    Аудио 2: Английский/Оригинальная дорожка , AAC / 2.0 / 159 Kbps / 48.0 KHz
    Аудио 3: Русский/Дублированный (Лицензия), AC-3 / 5.1 / 448 Kbps / 48.0 KHz
    Аудио 4: Английский/Оригинальная дорожка , AC-3 / 5.1 / 640 Kbps / 48.0 KHz
    Субтитры 1: Русские форсированные
    Субтитры 2: Русские полные
    Субтитры 3: Английские полные
    -

    iTunes Meta Tags

    Sort Name: San Andreas
    XID: Apple:vendor_id:2015-652692
    contentID: 994407231
    Copyright: © 2015 Warner Bros. Entertainment Inc., Village Roadshow Films (BVI) Limited and Ratpac-Dune Entertainment LLC. All Rights Reserved.
    Screenwriters: Карлтон Кьюз, Андре Фабрицио, Джереми Пассмор
    Producers: Бо Флинн, Брюс Берман, Ричард Бренер
    Director: Брэд Пейтон
    Cast: Дуэйн Джонсон, Александра Даддарио, Колтон Хэйнс, Карла Гуджино, Йоан Гриффит, Мэтт Джералд, Арчи Панджаби, Пол Джаматти, Уилл Юн Ли, Арт Паркинсон
    Studio: New Line
    Rating: 129
    Long Description: Рэй - пилот спасательного вертолета, который всю свою жизнь помогал другим людям. За все время работы он насмотрелся на множество жутких вещей и не раз оказывался в очень сложных ситуациях. Несмотря на все преграды он спешил на помощь, даже не предполагая, что самое страшное ждет его впереди.
    На Калифорнию обрушивается мощное землетрясение, в результате которого гибнут сотни людей и образовывается огромная трещина в земле. Во всеобщем хаосе Рэю предстоит отыскать свою дочь, но сделать это будет очень непросто. В надежде, что его ребенок все еще жив, он отправляется в смертельно опасное путешествие через весь штат...
    Description: Рэй - пилот спасательного вертолета, который всю свою жизнь помогал другим людям. За все время работы он насмотрелся на множество жутких вещей и не раз оказывался в очень сложных ситуациях. Несмотря на все преграды он спешил на помощь, даже не предполагая, что самое страшное ждет его впереди.
    Release Date: 2015-05-27T08:00:00Z
    Genre: Action & Adventure
    Artist: Brad Peyton
    Name: San Andreas

    MediaInfo

    General
    Complete name : /Users/imac/HandBrake/San Andreas (1080p HD).m4v
    Format : MPEG-4
    Codec ID : M4V
    File size : 7.53 GiB
    Duration : 1h 54mn
    Overall bit rate mode : Variable
    Overall bit rate : 9 414 Kbps
    Movie name : San Andreas
    Performer : Brad Peyton
    Director : Брэд Пейтон
    Actor : Дуэйн Джонсон / Александра Даддарио / Колтон Хэйнс / Карла Гуджино / Йоан Гриффит / Мэтт Джералд / Арчи Панджаби / Пол Джаматти / Уилл Юн Ли / Арт Паркинсон
    Screenplay by : Карлтон Кьюз / Андре Фабрицио / Джереми Пассмор
    Producer : Бо Флинн / Брюс Берман / Ричард Бренер
    Production studio : New Line
    Genre : Action & Adventure
    ContentType : Short Film
    Description : Рэй - пилот спасательного вертолета, который всю свою жизнь помогал другим людям. За все время работы он насмотрелся на множество жутких вещей и не раз оказывался в очень сложных ситуациях. Несмотря на все преграды он спешил на помощь, даже не предполагая, что самое страшное ждет его впереди.
    Recorded date : UTC 2015-05-27 08:00:00
    Encoded date : UTC 2015-09-30 09:00:31
    Tagged date : UTC 2015-09-30 09:06:53
    Copyright : © 2015 Warner Bros. Entertainment Inc., Village Roadshow Films (BVI) Limited and Ratpac-Dune Entertainment LLC. All Rights Reserved.
    Cover : Yes
    Rating : None
    Title/Sort : San Andreas
    LongDescription : Рэй - пилот спасательного вертолета, который всю свою жизнь помогал другим людям. За все время работы он насмотрелся на множество жутких вещей и не раз оказывался в очень сложных ситуациях. Несмотря на все преграды он спешил на помощь, даже не предполагая, что самое страшное ждет его впереди. / На Калифорнию обрушивается мощное землетрясение, в результате которого гибнут сотни людей и образовывается огромная трещина в земле. Во всеобщем хаосе Рэю предстоит отыскать свою дочь, но сделать это будет очень непросто. В надежде, что его ребенок все еще жив, он отправляется в смертельно опасное путешествие через весь штат...
    AppleStoreCatalogID : 994407231
    Vendor : Apple:vendor_id:2015-652692
    ContentRating : uk-movie|12|300|
    Video #1
    ID : 1
    Format : AVC
    Format/Info : Advanced Video Codec
    Format profile : High@L4
    Format settings, CABAC : Yes
    Format settings, ReFrames : 4 frames
    Codec ID : avc1
    Codec ID/Info : Advanced Video Coding
    Duration : 1h 54mn
    Bit rate : 8 000 Kbps
    Width : 1 920 pixels
    Height : 800 pixels
    Display aspect ratio : 2.40:1
    Frame rate mode : Variable
    Frame rate : 23.976 fps
    Minimum frame rate : 23.810 fps
    Maximum frame rate : 24.272 fps
    Color space : YUV
    Chroma subsampling : 4:2:0
    Bit depth : 8 bits
    Scan type : Progressive
    Bits/(Pixel*Frame) : 0.217
    Stream size : 6.39 GiB (85%)
    Title : Main Program
    Writing library : x264 core 142 r2479 dd79a61
    Encoding settings : cabac=1 / ref=4 / deblock=1:-2:-2 / analyse=0x3:0x133 / me=umh / subme=10 / psy=1 / psy_rd=1.00:0.15 / mixed_ref=1 / me_range=32 / chroma_me=1 / trellis=2 / 8x8dct=1 / cqm=0 / deadzone=21,11 / fast_pskip=0 / chroma_qp_offset=-3 / threads=36 / lookahead_threads=6 / sliced_threads=0 / nr=0 / decimate=0 / interlaced=0 / bluray_compat=0 / constrained_intra=0 / bframes=16 / b_pyramid=2 / b_adapt=2 / b_bias=0 / direct=3 / weightb=1 / open_gop=0 / weightp=2 / keyint=240 / keyint_min=24 / scenecut=40 / intra_refresh=0 / rc_lookahead=60 / rc=2pass / mbtree=1 / bitrate=8000 / ratetol=1.0 / qcomp=0.70 / qpmin=0 / qpmax=69 / qpstep=4 / cplxblur=20.0 / qblur=0.5 / vbv_maxrate=25000 / vbv_bufsize=25000 / nal_hrd=none / filler=0 / ip_ratio=1.40 / aq=1:1.00
    Language : English
    Encoded date : UTC 2015-09-30 09:00:31
    Tagged date : UTC 2015-09-30 09:00:50
    Color range : Limited
    Color primaries : BT.709
    Transfer characteristics : BT.709
    Matrix coefficients : BT.709
    Video #2
    ID : 10
    Format : JPEG
    Codec ID : jpeg
    Duration : 1h 54mn
    Bit rate mode : Variable
    Bit rate : 394 bps
    Width : 640 pixels
    Height : 266 pixels
    Display aspect ratio : 2.40:1
    Frame rate mode : Constant
    Frame rate : 0.001 fps
    Color space : YUV
    Chroma subsampling : 4:2:0
    Bit depth : 8 bits
    Compression mode : Lossy
    Bits/(Pixel*Frame) : 2.314
    Stream size : 577 KiB (0%)
    Language : English
    Encoded date : UTC 2015-09-30 09:00:55
    Tagged date : UTC 2015-09-30 09:00:56
    Audio #1
    ID : 2
    Format : AAC
    Format/Info : Advanced Audio Codec
    Format profile : LC
    Codec ID : 40
    Duration : 1h 54mn
    Bit rate mode : Variable
    Bit rate : 159 Kbps
    Maximum bit rate : 232 Kbps
    Channel(s) : 2 channels
    Channel positions : Front: L R
    Sampling rate : 48.0 KHz
    Compression mode : Lossy
    Stream size : 130 MiB (2%)
    Title : Russian Stereo
    Language : Russian
    Encoded date : UTC 2015-09-30 09:00:31
    Tagged date : UTC 2015-09-30 09:00:44
    Audio #2
    ID : 3
    Format : AAC
    Format/Info : Advanced Audio Codec
    Format profile : LC
    Codec ID : 40
    Duration : 1h 54mn
    Bit rate mode : Variable
    Bit rate : 159 Kbps
    Maximum bit rate : 243 Kbps
    Channel(s) : 2 channels
    Channel positions : Front: L R
    Sampling rate : 48.0 KHz
    Compression mode : Lossy
    Stream size : 130 MiB (2%)
    Title : English Stereo
    Language : English
    Encoded date : UTC 2015-09-30 09:00:31
    Tagged date : UTC 2015-09-30 09:00:41
    Audio #3
    ID : 4
    Format : AC-3
    Format/Info : Audio Coding 3
    Mode extension : CM (complete main)
    Format settings, Endianness : Big
    Codec ID : ac-3
    Duration : 1h 54mn
    Bit rate mode : Constant
    Bit rate : 448 Kbps
    Channel(s) : 6 channels
    Channel positions : Front: L C R, Side: L R, LFE
    Sampling rate : 48.0 KHz
    Bit depth : 16 bits
    Compression mode : Lossy
    Stream size : 367 MiB (5%)
    Title : Russian DD 5.1
    Language : Russian
    Encoded date : UTC 2015-09-30 09:00:31
    Tagged date : UTC 2015-09-30 09:00:39
    Audio #4
    ID : 5
    Format : AC-3
    Format/Info : Audio Coding 3
    Mode extension : CM (complete main)
    Format settings, Endianness : Big
    Codec ID : ac-3
    Duration : 1h 54mn
    Bit rate mode : Constant
    Bit rate : 640 Kbps
    Channel(s) : 6 channels
    Channel positions : Front: L C R, Side: L R, LFE
    Sampling rate : 48.0 KHz
    Bit depth : 16 bits
    Compression mode : Lossy
    Stream size : 524 MiB (7%)
    Title : English DD 5.1
    Language : English
    Encoded date : UTC 2015-09-30 09:00:31
    Tagged date : UTC 2015-09-30 09:00:39
    Text #1
    ID : 6
    Format : Timed Text
    Muxing mode : sbtl
    Codec ID : tx3g
    Duration : 1h 54mn
    Bit rate mode : Variable
    Bit rate : 2 bps
    Stream size : 1.32 KiB (0%)
    Title : Russian forced
    Language : Russian
    Encoded date : UTC 2015-09-30 09:00:31
    Tagged date : UTC 2015-09-30 09:00:31
    Text #2
    ID : 7
    Format : Timed Text
    Muxing mode : sbtl
    Codec ID : tx3g
    Duration : 1h 54mn
    Bit rate mode : Variable
    Bit rate : 65 bps
    Stream size : 54.5 KiB (0%)
    Title : Russian full
    Language : Russian
    Encoded date : UTC 2015-09-30 09:00:31
    Tagged date : UTC 2015-09-30 09:00:31
    Text #3
    ID : 8
    Format : Timed Text
    Muxing mode : sbtl
    Codec ID : tx3g
    Duration : 1h 54mn
    Bit rate mode : Variable
    Bit rate : 54 bps
    Stream size : 45.2 KiB (0%)
    Title : English full
    Language : English
    Encoded date : UTC 2015-09-30 09:00:31
    Tagged date : UTC 2015-09-30 09:00:31
    Menu #1
    00:00:00.000 : Chapter 1
    00:09:29.694 : Chapter 2
    00:18:47.376 : Chapter 3
    00:30:10.183 : Chapter 4
    00:40:08.698 : Chapter 5
    00:50:17.848 : Chapter 6
    00:59:44.539 : Chapter 7
    01:11:27.241 : Chapter 8
    01:19:43.696 : Chapter 9
    01:30:40.852 : Chapter 10
    01:39:56.365 : Chapter 11
    01:47:10.966 : Chapter 12
    Menu #2
    ID : 9
    Codec ID : text
    Duration : 1h 54mn
    Language : English
    Encoded date : UTC 2015-09-30 09:00:50
    Tagged date : UTC 2015-09-30 09:00:50
    00:00:00.000 : Chapter 1
    00:09:29.694 : Chapter 2
    00:18:47.376 : Chapter 3
    00:30:10.183 : Chapter 4
    00:40:08.698 : Chapter 5
    00:50:17.848 : Chapter 6
    00:59:44.539 : Chapter 7
    01:11:27.241 : Chapter 8
    01:19:43.696 : Chapter 9
    01:30:40.852 : Chapter 10
    01:39:56.365 : Chapter 11
    01:47:10.966 : Chapter 12
    Bit rate mode : VBR

    x264 лог

    x264 [info]: frame I:1036  Avg QP:18.80  size:169825
    x264 [info]: frame P:44983 Avg QP:21.78  size: 65595
    x264 [info]: frame B:118663 Avg QP:22.70  size: 31509
    x264 [info]: consecutive B-frames:  4.6%  8.0% 10.7% 34.7% 14.1% 16.9%  5.6%  4.5%  0.5%  0.1%  0.1%  0.2%  0.0%  0.0%  0.0%  0.0%  0.0%
    x264 [info]: mb I  I16..4:  8.0% 78.9% 13.1%
    x264 [info]: mb P  I16..4:  2.5% 17.4%  1.2%  P16..4: 46.2% 18.4% 10.3%  0.3%  0.1%    skip: 3.7%
    x264 [info]: mb B  I16..4:  0.1%  1.7%  0.1%  B16..8: 49.1% 11.5%  2.6%  direct: 6.9%  skip:28.0%  L0:43.9% L1:48.4% BI: 7.7%
    x264 [info]: 8x8 transform intra:83.2% inter:65.8%
    x264 [info]: direct mvs  spatial:98.8% temporal:1.2%
    x264 [info]: coded y,uvDC,uvAC intra: 86.2% 65.9% 24.7% inter: 38.9% 21.9% 3.4%
    x264 [info]: i16 v,h,dc,p: 31% 18% 13% 38%
    x264 [info]: i8 v,h,dc,ddl,ddr,vr,hd,vl,hu:  7%  7%  7% 11% 16% 14% 14% 11% 13%
    x264 [info]: i4 v,h,dc,ddl,ddr,vr,hd,vl,hu:  8%  8%  3%  9% 16% 15% 16% 11% 14%
    x264 [info]: i8c dc,h,v,p: 35% 30% 20% 15%
    x264 [info]: Weighted P-Frames: Y:3.2% UV:1.2%
    x264 [info]: ref P L0: 52.3% 13.4% 23.0%  9.6%  1.8%  0.0%
    x264 [info]: ref B L0: 87.0% 10.6%  2.4%
    x264 [info]: ref B L1: 93.1%  6.9%
    x264 [info]: kb/s:7996.49

    Скриншоты

    -

    Релиз подготовлен для просмотра на Apple TV, iPad, iPhone, iPod Touch.
    Для просмотра данного релиза на компьютере с ОС Windows рекомендуется использовать VLC media player
    Скачать .torrent

    Скачать торрент-файл бесплатно и на максимальной скорости!

    Как скачивать? · Что такое торрент? · Рейтинг и ограничения

    !ВНИМАНИЕ!
    Сайт не распространяет и не хранит электронные версии произведений, а занимается лишь лишь предоставлением доступа к создаваемому пользователями каталогу ссылок на торрент-файлы, которые содержат только списки хеш-сумм, убедительная просьба с жалобами обращаться напрямую к пользователю. Файлы для обмена на трекере предоставлены пользователями сайта, и администрация не несёт ответственности за их содержание. Просьба не заливать файлы, защищенные авторскими правами, а также файлы нелегального содержания!


    _________________
    [Профиль] [ЛС]
    Показать сообщения:    
    Ответить на тему

    Текущее время: Сегодня, в 02:48

    Часовой пояс: GMT + 2



    Вы не можете начинать темы
    Вы не можете отвечать на сообщения
    Вы не можете редактировать свои сообщения
    Вы не можете удалять свои сообщения
    Вы не можете голосовать в опросах
    Вы не можете прикреплять файлы к сообщениям
    Вы не можете скачивать файлы