BitTorrentTracker PerecTracker.org
BitTorrentTracker PerecTracker.org
    
Регистрация  ·  Вход
 
 · 
Забыли пароль?

  • Тутси / Tootsie (Сидни Поллак / Sydney Pollack) [1982, США, драма, мелодрама, комедия, BDRip, HD (720p)] DUB, MVOx4, AVOx4 Original + sub (RUS, ENG)

    Ответить на тему
     
    Автор Сообщение

    Flirldrerve

    Создавать темы 27-Окт-2015 05:18

           

    [Цитировать]

    Тутси / Tootsie
    "Little did this desperate, out of work actor know when he secretly auditioned for a female role that he'd become the hottest star on television. Not even the girl he's madly in love with knows that he's Tootsie" 7.4 / 10 | 7.88 / 10|PG
    -Год выпуска: 1982
    Страна: США
    Жанр: драма, мелодрама, комедия
    Продолжительность: 116 мин.
    Перевод: Профессиональный дублированный перевод, многоголосый закадровый перевод, одноголосый закадровый авторский перевод
    Оригинальная аудиодорожка: Есть
    Cубтитры: Русские полные, английские полные
    Режиссёр: Сидни Поллак
    Сценарий: Ларри Гелбарт, Мюррэй Шисгал, Барри Левинсон
    Продюсер: Сидни Поллак, Дик Ричардс, Чарльз Эванс
    Оператор: Оуэн Ройзман
    Композитор: Дейв Грузин
    Художник: Питер С. Ларкин, Рут Морли, Томас С. Тонери
    Монтаж: Фредерик Стайнкамп, Уильям Стайнкамп
    В ролях: Дастин Хоффман, Джессика Лэнг, Тери Гарр, Дэбни Коулмен, Чарльз Дёрнинг, Билл Мюррей, Сидни Поллак, Джордж Гейнс, Джина Дэвис, Дорис Белак
    Роли дублировали: Станислав Захаров, Ольга Гаспарова, Марина Дюжева, Александр Белявский, Юрий Саранцев
    Бюджет: $22 000 000
    Сборы в США: $177 200 000
    Мировая премьера: 1 декабря 1982
    Релиз на Blu-Ray: 23 апреля 2013, Columbia/Sony
    Релиз на DVD: 6 марта 1998, Columbia/Sony
    Описание: Актер Майкл Дорси из-за своего характера не может удержаться ни на одной работе. Тогда он переодевается в женское платье и вскоре понимает, что женщиной он больше нравится людям. Дороти-Майкл сразу получает работу. Однако у него возникают трудности с девушкой, которую любит.-Качество исходника: BD-Remux 1080p (HDClub)
    Качество: BDRip
    Тип: 720p
    Контейнер: m4v
    Видео: 1280x534 at 23.976 fps, MPEG-4 AVC, ~7000 kbps avg
    Аудио#1: Russian: 48 kHz, ААС, 2/0 (L,R), ~160 kbps avg |Дубляж, Мосфильм|
    Аудио#2: Russian: 48 kHz, ААС, 2/0 (L,R), ~160 kbps avg |Многоголосый закадровый, BD CEE|
    Аудио#3: Russian: 48 kHz, ААС, 2/0 (L,R), ~160 kbps avg |Многоголосый закадровый, ОРТ|
    Аудио#4: Russian: 48 kHz, ААС, 2/0 (L,R), ~160 kbps avg |Многоголосый закадровый, ТРК Останкино|
    Аудио#5: Russian: 48 kHz, ААС, 2/0 (L,R), ~160 kbps avg |Многоголосый закадровый, R5|
    Аудио#6: Russian: 48 kHz, ААС, 2/0 (L,R), ~160 kbps avg |Одноголосый закадровый, Яковлев|
    Аудио#7: Russian: 48 kHz, ААС, 2/0 (L,R), ~160 kbps avg |Одноголосый закадровый, Эдгар|
    Аудио#8: Russian: 48 kHz, ААС, 2/0 (L,R), ~160 kbps avg |Одноголосый закадровый, В.Горчаков|
    Аудио#9: Russian: 48 kHz, ААС, 2/0 (L,R), ~160 kbps avg |Одноголосый закадровый, А.Михалев|
    Аудио#10: English: 48 kHz, ААС, 2/0 (L,R), ~160 kbps avg
    Аудио#11: Russian: 48 kHz, AC3, 3/2 (L,C,R,l,r) + LFE ch, ~640.00 kbps avg |Многоголосый закадровый, BD CEE|
    Аудио#12: English: 48 kHz, AC3, 3/2 (L,C,R,l,r), ~640.00 kbps avg
    Субтитры №1: Russian: |Полные|
    Субтитры №2: English: |Полные|-

    Знаете ли Вы, что...

  • Из-за цензуры на премьере в СССР многие эпизоды фильма были вырезаны.
  • Сцена, в которой героиня Джессики Лэнг тянется к телефону и вместо него схватывает кукурузный початок, возникла по чистой случайности, но режиссёр решил оставить её в фильме.
  • Помимо режиссуры картины, Сидни Поллак также занимался её продюсированием. В свою очередь, второй продюсер, Дик Ричардс, пытался стать вторым режиссёром картины, но безуспешно.
  • Окончательный вариант названия фильма предложил Дастин Хоффман: Тутси — это кличка собаки, принадлежавшей его матери.
  • Взаимоотношения героев Дастина Хоффмана и Сидни Поллака в фильме во многом аналогичны тем, которые наблюдались между ними на съёмочной площадке: режиссёр и актёр спорили друг с другом по самым различным поводам. После продолжительных дискуссий многие предложения Хоффмана были приняты: так, Поллак сыграл агента Майкла Дорси, а в роли его друга снялся Билл Мюррей.
  • Все тексты, которые в фильме произносит Билл Мюррей, — импровизация.
  • Фильм стал дебютом в кино актрисы Джины Дэвис.
  • Изначально Дороти разговаривала без акцента, но в процессе репетиций Хоффманобнаружил, что его персонаж лучше попадает в диапазон женского голоса, используя произношение, присущее южанам.
  • В самой первой сцене, в которой Майкл пытается вырядиться в Дороти, слева от будильника стоит портрет матери Дастина Хоффмана.
  • Занимает 85-е место по посещаемости среди зарубежных фильмов в советском кинопрокате.
  • Рабочим названием фильма являлось «Смог бы я обмануть тебя?» («Would I Lie To You?»).
  • Под названием фильма в советской прокатной версии было пояснение: «Милашка».
  • В квартире Майкла Дорси висит постер с изображением Сэмюэла Бекетта.
  • Фильм занял второе место в списке «100 лет… 100 комедий Американского института киноискусства».
  • из книги «3500 кинорецензий»


    (Сергей Кудрявцев 8.5/10)
    Эта очень популярная и по-настоящему смешная, причём без пошлости и вульгарности, комедия пользовалась большой популярностью (бюджет был превзойдён в прокате США почти в 8,5 раз) и она до сих пор находится в сотне самых кассовых за всю историю, занимая 61-е место. Лента была снята тогда, когда ещё не существовала в американском кино мода на разного рода политкорректность, в том числе и в сфере сексуальной ориентации. «Тутси» (или «Милашка» — кстати, такое прозвище было у любимой собачки матери актёра Дастина Хофмана), которую выпустили с лёгкими купюрами и у нас в советском кинопрокате, где она тоже имела немалый успех, прошла всё же по разряду эксцентрических картин. И разве не эксцентрикой следовало считать виртуозное по исполнительской технике перевоплощение Хофмана из мужчины в женщину?! Как ни странно, именно он, являвшийся инициатором данного проекта (идея пришла в голову этого актёра тремя годами ранее во время съёмок мелодрамы «Крамер против Крамера», где его персонажу приходилось словно быть одновременно и отцом, и матерью), остался без «Оскара», который был вручён только в одной из десяти номинаций — Джессике Лэнг, сыгравшей ничего не подозревающую подружку главного героя (или же героини?).Безработный актёр Майкл Дорси, отчаявшись попасть хоть на какую-либо роль в очередной «мыльной опере», был вынужден переодеться в платье и стать… преуспевающей актрисой Дороти Майклс, но из-за этого он не может признаться в любви милой девушке Джули Николс. Однако определённый вызов, содержавшийся в фильме опытного кинопрофессионала Сидни Поллака, заключался в том, что уже в 1982 году он вместе с блистательным исполнителем заглавной роли, так или иначе, коснулся проблемы относительности половых признаков в актёрской среде. Ведь там сама профессия как бы предполагает интерес к переодеванию и трансформированию своего облика (а отсюда уже рукой подать до трансвестизма и транссексуальности!). Хотя можно воспринять «Тутси» и с узко понятых феминистских позиций — в качестве прославления именно роли женщины якобы за счёт принижения мужских качеств.
    2000/2006

    -

    iTunes Meta Tags for country US

    Name: Tootsie
    Artist: Sydney Pollack
    Genre: Comedy
    Release Date: 1982-12-01T08:00:00Z
    Description: Актер Майкл Дорси из-за своего характера не может удержаться ни на одной работе. Тогда он переодевается в женское платье и вскоре понимает, что женщиной он больше нравится людям. Дороти-Майкл сразу получает работу. Однако у него возникают трудности с девушкой, которую любит.
    Long Description: Актер Майкл Дорси из-за своего характера не может удержаться ни на одной работе. Тогда он переодевается в женское платье и вскоре понимает, что женщиной он больше нравится людям. Дороти-Майкл сразу получает работу. Однако у него возникают трудности с девушкой, которую любит.
    Rating: PG
    Cast: Дастин Хоффман, Джессика Лэнг, Тери Гарр, Дэбни Коулмен, Чарльз Дёрнинг, Билл Мюррей, Сидни Поллак, Джордж Гейнс, Джина Дэвис, Дорис Белак
    Director: Сидни Поллак
    Producers: Сидни Поллак, Дик Ричардс, Чарльз Эванс
    Screenwriters: Ларри Гелбарт, Мюррэй Шисгал, Барри Левинсон
    contentID: 539962443
    XID: Apple:vendor_id:1982-4520
    Sort Name: Tootsie

    MediaInfo 720p Release

    Общее
    Формат : MPEG-4
    Идентификатор кодека : M4V
    Размер файла : 7,95 Гбайт
    Продолжительность : 1 ч. 56 м.
    Режим общего битрейта : Переменный
    Общий поток : 9787 Кбит/сек
    Название фильма : Tootsie
    Исполнитель : Sydney Pollack
    Режиссёр : Сидни Поллак
    Исполнитель : Дастин Хоффман / Джессика Лэнг / Тери Гарр / Дэбни Коулмен / Чарльз Дёрнинг / Билл Мюррей / Сидни Поллак / Джордж Гейнс / Джина Дэвис / Дорис Белак
    Сценарист : Ларри Гелбарт / Мюррэй Шисгал / Барри Левинсон
    Продюсер : Сидни Поллак / Дик Ричардс / Чарльз Эванс
    Жанр : Comedy
    Тип содержимого : Short Film
    Описание : Актер Майкл Дорси из-за своего характера не может удержаться ни на одной работе. Тогда он переодевается в женское платье и вскоре понимает, что женщиной он больше нравится людям. Дороти-Майкл сразу получает работу. Однако у него возникают трудности с девушкой, которую любит.
    Дата записи : UTC 1982-12-01 08:00:00
    Дата кодирования : UTC 2015-09-25 13:37:04
    Дата пометки : UTC 2015-09-25 14:17:06
    Обложка : Yes
    Рейтинг : None
    Title/Sort : Tootsie
    LongDescription : Актер Майкл Дорси из-за своего характера не может удержаться ни на одной работе. Тогда он переодевается в женское платье и вскоре понимает, что женщиной он больше нравится людям. Дороти-Майкл сразу получает работу. Однако у него возникают трудности с девушкой, которую любит.
    HDVideo : Yes
    AppleStoreCatalogID : 539962443
    Vendor : Apple:vendor_id:1982-4520
    ContentRating : mpaa|PG|200|
    Видео #1
    Идентификатор : 1
    Формат : AVC
    Формат/Информация : Advanced Video Codec
    Профиль формата : High@L3.1
    Параметр CABAC формата : Нет
    Параметр ReFrames формата : 3 кадра
    Идентификатор кодека : avc1
    Идентификатор кодека/Информация : Advanced Video Coding
    Продолжительность : 1 ч. 56 м.
    Битрейт : 7000 Кбит/сек
    Ширина : 1280 пикселей
    Высота : 534 пикселя
    Соотношение сторон : 2,40:1
    Режим частоты кадров : Переменный
    Частота кадров : 23,976 кадра/сек
    Минимальная частота кадров : 23,810 кадра/сек
    Максимальная частота кадров : 24,390 кадра/сек
    Цветовое пространство : YUV
    Субдискретизация насыщенности : 4:2:0
    Битовая глубина : 8 бит
    Тип развёртки : Прогрессивная
    Бит/(Пиксели*Кадры) : 0.427
    Размер потока : 5,66 Гбайт (71%)
    Заголовок : Main Program
    Библиотека кодирования : x264 core 130 r2273 b3065e6
    Настройки программы : cabac=0 / ref=3 / deblock=1:1:-1 / analyse=0x3:0x113 / me=umh / subme=9 / psy=1 / psy_rd=0.70:0.00 / mixed_ref=1 / me_range=32 / chroma_me=1 / trellis=0 / 8x8dct=1 / cqm=0 / deadzone=21,11 / fast_pskip=1 / chroma_qp_offset=-2 / threads=3 / lookahead_threads=1 / sliced_threads=0 / nr=0 / decimate=1 / interlaced=0 / bluray_compat=0 / constrained_intra=0 / bframes=3 / b_pyramid=0 / b_adapt=2 / b_bias=0 / direct=1 / weightb=0 / open_gop=0 / weightp=0 / keyint=240 / keyint_min=24 / scenecut=40 / intra_refresh=0 / rc_lookahead=40 / rc=2pass / mbtree=1 / bitrate=7000 / ratetol=1.0 / qcomp=0.60 / qpmin=0 / qpmax=69 / qpstep=4 / cplxblur=20.0 / qblur=0.5 / vbv_maxrate=9500 / vbv_bufsize=9500 / nal_hrd=none / ip_ratio=1.40 / aq=1:1.00
    Язык : English
    Дата кодирования : UTC 2015-09-25 13:37:05
    Дата пометки : UTC 2015-09-25 13:50:49
    Color range : Limited
    Основные цвета : BT.709
    Характеристики трансфера : BT.709
    Коэффициенты матрицы : BT.709
    Видео #2
    Идентификатор : 17
    Формат : JPEG
    Идентификатор кодека : jpeg
    Продолжительность : 1 ч. 56 м.
    Вид битрейта : Переменный
    Битрейт : 660 бит/сек
    Ширина : 640 пикселей
    Высота : 267 пикселей
    Соотношение сторон : 2,40:1
    Режим частоты кадров : Переменный
    Частота кадров : 0,002 кадр/сек
    Минимальная частота кадров : 0,001 кадр/сек
    Максимальная частота кадров : 0,005 кадр/сек
    Цветовое пространство : YUV
    Субдискретизация насыщенности : 4:2:0
    Битовая глубина : 8 бит
    Метод сжатия : С потерями
    Бит/(Пиксели*Кадры) : 1.931
    Размер потока : 644 Кбайт (0%)
    Заголовок : Chapter Images
    Язык : English
    Дата кодирования : UTC 2015-09-25 13:55:11
    Дата пометки : UTC 2015-09-25 13:55:12
    Аудио #1
    Идентификатор : 2
    Формат : AAC
    Формат/Информация : Advanced Audio Codec
    Профиль формата : LC
    Идентификатор кодека : 40
    Продолжительность : 1 ч. 56 м.
    Вид битрейта : Переменный
    Битрейт : 126 Кбит/сек
    Максимальный битрейт : 217 Кбит/сек
    Каналы : 2 канала
    Расположение каналов : Front: L R
    Частота : 48,0 КГц
    Метод сжатия : С потерями
    Размер потока : 105 Мбайт (1%)
    Заголовок : Russian DUB Mosfilm Stereo
    Язык : Russian
    Дата кодирования : UTC 2015-09-25 13:37:05
    Дата пометки : UTC 2015-09-25 13:39:56
    Аудио #2
    Идентификатор : 3
    Формат : AAC
    Формат/Информация : Advanced Audio Codec
    Профиль формата : LC
    Идентификатор кодека : 40
    Продолжительность : 1 ч. 56 м.
    Вид битрейта : Переменный
    Битрейт : 155 Кбит/сек
    Максимальный битрейт : 233 Кбит/сек
    Каналы : 2 канала
    Расположение каналов : Front: L R
    Частота : 48,0 КГц
    Метод сжатия : С потерями
    Размер потока : 129 Мбайт (2%)
    Заголовок : Russian MVO BD CEE Stereo
    Язык : Russian
    Дата кодирования : UTC 2015-09-25 13:37:05
    Дата пометки : UTC 2015-09-25 13:40:19
    Аудио #3
    Идентификатор : 4
    Формат : AAC
    Формат/Информация : Advanced Audio Codec
    Профиль формата : LC
    Идентификатор кодека : 40
    Продолжительность : 1 ч. 56 м.
    Вид битрейта : Переменный
    Битрейт : 129 Кбит/сек
    Максимальный битрейт : 142 Кбит/сек
    Каналы : 2 канала
    Расположение каналов : Front: L R
    Частота : 48,0 КГц
    Метод сжатия : С потерями
    Размер потока : 108 Мбайт (1%)
    Заголовок : Russian MVO ORT Stereo
    Язык : Russian
    Дата кодирования : UTC 2015-09-25 13:37:05
    Дата пометки : UTC 2015-09-25 13:40:00
    Аудио #4
    Идентификатор : 5
    Формат : AAC
    Формат/Информация : Advanced Audio Codec
    Профиль формата : LC
    Идентификатор кодека : 40
    Продолжительность : 1 ч. 56 м.
    Вид битрейта : Переменный
    Битрейт : 164 Кбит/сек
    Максимальный битрейт : 227 Кбит/сек
    Каналы : 2 канала
    Расположение каналов : Front: L R
    Частота : 48,0 КГц
    Метод сжатия : С потерями
    Размер потока : 137 Мбайт (2%)
    Заголовок : Russian MVO TRK Ostankino Stereo
    Язык : Russian
    Дата кодирования : UTC 2015-09-25 13:37:05
    Дата пометки : UTC 2015-09-25 13:40:26
    Аудио #5
    Идентификатор : 6
    Формат : AAC
    Формат/Информация : Advanced Audio Codec
    Профиль формата : LC
    Идентификатор кодека : 40
    Продолжительность : 1 ч. 56 м.
    Вид битрейта : Переменный
    Битрейт : 157 Кбит/сек
    Максимальный битрейт : 234 Кбит/сек
    Каналы : 2 канала
    Расположение каналов : Front: L R
    Частота : 48,0 КГц
    Метод сжатия : С потерями
    Размер потока : 131 Мбайт (2%)
    Заголовок : Russian MVO R5 Stereo
    Язык : Russian
    Дата кодирования : UTC 2015-09-25 13:37:05
    Дата пометки : UTC 2015-09-25 13:40:21
    Аудио #6
    Идентификатор : 7
    Формат : AAC
    Формат/Информация : Advanced Audio Codec
    Профиль формата : LC
    Идентификатор кодека : 40
    Продолжительность : 1 ч. 56 м.
    Вид битрейта : Переменный
    Битрейт : 148 Кбит/сек
    Максимальный битрейт : 234 Кбит/сек
    Каналы : 2 канала
    Расположение каналов : Front: L R
    Частота : 48,0 КГц
    Метод сжатия : С потерями
    Размер потока : 123 Мбайт (2%)
    Заголовок : Russian AVO Yakovlev Stereo
    Язык : Russian
    Дата кодирования : UTC 2015-09-25 13:37:05
    Дата пометки : UTC 2015-09-25 13:40:14
    Аудио #7
    Идентификатор : 8
    Формат : AAC
    Формат/Информация : Advanced Audio Codec
    Профиль формата : LC
    Идентификатор кодека : 40
    Продолжительность : 1 ч. 56 м.
    Вид битрейта : Переменный
    Битрейт : 162 Кбит/сек
    Максимальный битрейт : 251 Кбит/сек
    Каналы : 2 канала
    Расположение каналов : Front: L R
    Частота : 48,0 КГц
    Метод сжатия : С потерями
    Размер потока : 134 Мбайт (2%)
    Заголовок : Russian AVO Edgar Stereo
    Язык : Russian
    Дата кодирования : UTC 2015-09-25 13:37:05
    Дата пометки : UTC 2015-09-25 13:40:23
    Аудио #8
    Идентификатор : 9
    Формат : AAC
    Формат/Информация : Advanced Audio Codec
    Профиль формата : LC
    Идентификатор кодека : 40
    Продолжительность : 1 ч. 56 м.
    Вид битрейта : Переменный
    Битрейт : 159 Кбит/сек
    Максимальный битрейт : 238 Кбит/сек
    Каналы : 2 канала
    Расположение каналов : Front: L R
    Частота : 48,0 КГц
    Метод сжатия : С потерями
    Размер потока : 132 Мбайт (2%)
    Заголовок : Russian AVO Gorchakov Stereo
    Язык : Russian
    Дата кодирования : UTC 2015-09-25 13:37:05
    Дата пометки : UTC 2015-09-25 13:40:22
    Аудио #9
    Идентификатор : 10
    Формат : AAC
    Формат/Информация : Advanced Audio Codec
    Профиль формата : LC
    Идентификатор кодека : 40
    Продолжительность : 1 ч. 56 м.
    Вид битрейта : Переменный
    Битрейт : 147 Кбит/сек
    Максимальный битрейт : 233 Кбит/сек
    Каналы : 2 канала
    Расположение каналов : Front: L R
    Частота : 48,0 КГц
    Метод сжатия : С потерями
    Размер потока : 123 Мбайт (2%)
    Заголовок : Russian AVO Mihalev Stereo
    Язык : Russian
    Дата кодирования : UTC 2015-09-25 13:37:05
    Дата пометки : UTC 2015-09-25 13:40:13
    Аудио #10
    Идентификатор : 11
    Формат : AAC
    Формат/Информация : Advanced Audio Codec
    Профиль формата : LC
    Идентификатор кодека : 40
    Продолжительность : 1 ч. 56 м.
    Вид битрейта : Переменный
    Битрейт : 164 Кбит/сек
    Максимальный битрейт : 247 Кбит/сек
    Каналы : 2 канала
    Расположение каналов : Front: L R
    Частота : 48,0 КГц
    Метод сжатия : С потерями
    Размер потока : 137 Мбайт (2%)
    Заголовок : English Stereo
    Язык : English
    Дата кодирования : UTC 2015-09-25 13:37:05
    Дата пометки : UTC 2015-09-25 13:40:25
    Аудио #11
    Идентификатор : 12
    Формат : AC-3
    Формат/Информация : Audio Coding 3
    Расширение режима : CM (complete main)
    Параметр Endianness формата : Big
    Идентификатор кодека : ac-3
    Продолжительность : 1 ч. 56 м.
    Вид битрейта : Постоянный
    Битрейт : 640 Кбит/сек
    Каналы : 6 каналов
    Расположение каналов : Front: L C R, Side: L R, LFE
    Частота : 48,0 КГц
    Битовая глубина : 16 бит
    Метод сжатия : С потерями
    Размер потока : 533 Мбайт (7%)
    Заголовок : Russian MVO BD CEE DD 5.1
    Язык : Russian
    Дата кодирования : UTC 2015-09-25 13:37:05
    Дата пометки : UTC 2015-09-25 13:37:43
    Аудио #12
    Идентификатор : 13
    Формат : AC-3
    Формат/Информация : Audio Coding 3
    Расширение режима : CM (complete main)
    Параметр Endianness формата : Big
    Идентификатор кодека : ac-3
    Продолжительность : 1 ч. 56 м.
    Вид битрейта : Постоянный
    Битрейт : 640 Кбит/сек
    Каналы : 5 каналов
    Расположение каналов : Front: L C R, Side: L R
    Частота : 48,0 КГц
    Битовая глубина : 16 бит
    Метод сжатия : С потерями
    Размер потока : 533 Мбайт (7%)
    Заголовок : English DD 5.1
    Язык : English
    Дата кодирования : UTC 2015-09-25 13:37:05
    Дата пометки : UTC 2015-09-25 13:54:52
    Текст #1
    Идентификатор : 14
    Формат : Timed Text
    Режим смешивания : sbtl
    Идентификатор кодека : tx3g
    Продолжительность : 1 ч. 53 м.
    Вид битрейта : Переменный
    Битрейт : 156 бит/сек
    Размер потока : 129 Кбайт (0%)
    Заголовок : Russian Subtitle
    Язык : Russian
    Дата кодирования : UTC 2015-09-25 13:37:05
    Дата пометки : UTC 2015-09-25 13:54:52
    Текст #2
    Идентификатор : 15
    Формат : Timed Text
    Режим смешивания : sbtl
    Идентификатор кодека : tx3g
    Продолжительность : 1 ч. 53 м.
    Вид битрейта : Переменный
    Битрейт : 90 бит/сек
    Размер потока : 75,1 Кбайт (0%)
    Заголовок : English Subtitle
    Язык : English
    Дата кодирования : UTC 2015-09-25 13:37:05
    Дата пометки : UTC 2015-09-25 13:54:53
    Меню #1
    00:00:00.000 : Chapter 1
    00:06:17.377 : Chapter 2
    00:14:25.114 : Chapter 3
    00:20:27.518 : Chapter 4
    00:25:25.816 : Chapter 5
    00:32:19.896 : Chapter 6
    00:42:49.817 : Chapter 7
    00:47:47.907 : Chapter 8
    00:57:12.888 : Chapter 9
    01:04:57.769 : Chapter 10
    01:16:41.263 : Chapter 11
    01:24:19.638 : Chapter 12
    01:29:21.481 : Chapter 13
    01:41:24.829 : Chapter 14
    01:46:20.291 : Chapter 15
    01:49:45.996 : Chapter 16

    x264 лог 720p Release

    x264 [info]: frame I:1386  Avg QP:17.02  size:144156  PSNR Mean Y:45.33 U:48.07 V:49.48 Avg:46.18 Global:45.94
    x264 [info]: frame P:47253 Avg QP:19.63  size: 62040  PSNR Mean Y:42.01 U:46.49 V:48.09 Avg:43.14 Global:42.84
    x264 [info]: frame B:118760 Avg QP:21.58  size: 24850  PSNR Mean Y:40.32 U:46.24 V:47.95 Avg:41.63 Global:41.28
    x264 [info]: consecutive B-frames:  1.4%  5.7% 19.2% 73.7%
    x264 [info]: mb I  I16..4:  3.9% 66.8% 29.4%
    x264 [info]: mb P  I16..4:  0.8% 15.7%  3.5%  P16..4: 31.3% 32.2% 14.2%  0.0%  0.0%    skip: 2.3%
    x264 [info]: mb B  I16..4:  0.2%  5.8%  0.6%  B16..8: 42.6% 16.7%  4.0%  direct: 7.4%  skip:22.7%  L0:39.6% L1:44.8% BI:15.6%
    x264 [info]: 8x8 transform intra:81.4% inter:46.1%
    x264 [info]: coded y,uvDC,uvAC intra: 97.9% 74.5% 47.1% inter: 42.4% 18.2% 2.1%
    x264 [info]: i16 v,h,dc,p: 30%  6% 29% 35%
    x264 [info]: i8 v,h,dc,ddl,ddr,vr,hd,vl,hu: 12%  7% 12% 11% 14% 13% 12% 11%  9%
    x264 [info]: i4 v,h,dc,ddl,ddr,vr,hd,vl,hu: 19%  6%  4% 11% 15% 14% 12% 10%  8%
    x264 [info]: i8c dc,h,v,p: 51% 17% 24%  9%
    x264 [info]: ref P L0: 66.7% 19.3% 13.9%
    x264 [info]: ref B L0: 79.0% 21.0%
    x264 [info]: SSIM Mean Y:0.9529947 (13.279db)
    x264 [info]: PSNR Mean Y:40.840 U:46.324 V:48.005 Avg:42.092 Global:41.693 kb/s:6969.54

    Скриншоты 720p Release

    , ,
    -

    Релиз подготовлен для просмотра на Apple TV, iPad, iPhone, iPod Touch.
    Для просмотра данного релиза на компьютере с ОС Windows рекомендуется использовать VLC media player
    -
    Скачать .torrent

    Скачать торрент-файл бесплатно и на максимальной скорости!

    Как скачивать? · Что такое торрент? · Рейтинг и ограничения

    !ВНИМАНИЕ!
    Сайт не распространяет и не хранит электронные версии произведений, а занимается лишь лишь предоставлением доступа к создаваемому пользователями каталогу ссылок на торрент-файлы, которые содержат только списки хеш-сумм, убедительная просьба с жалобами обращаться напрямую к пользователю. Файлы для обмена на трекере предоставлены пользователями сайта, и администрация не несёт ответственности за их содержание. Просьба не заливать файлы, защищенные авторскими правами, а также файлы нелегального содержания!


    _________________
    [Профиль] [ЛС]
    Показать сообщения:    
    Ответить на тему

    Текущее время: Сегодня, в 20:43

    Часовой пояс: GMT + 2



    Вы не можете начинать темы
    Вы не можете отвечать на сообщения
    Вы не можете редактировать свои сообщения
    Вы не можете удалять свои сообщения
    Вы не можете голосовать в опросах
    Вы не можете прикреплять файлы к сообщениям
    Вы не можете скачивать файлы