BitTorrentTracker PerecTracker.org
BitTorrentTracker PerecTracker.org
    
Регистрация  ·  Вход
 
 · 
Забыли пароль?

  • Сладкий запах успеха / Sweet Smell of Success (Александр Маккендрик / Alexander Mackendrick) [1957, США, фильм-нуар, драма, BDRip, HD (720p)] MVO, DVO, Original + sub (RUS, ENG)

    Ответить на тему
     
    Автор Сообщение

    Flirldrerve

    Создавать темы 27-Окт-2015 05:18

           

    [Цитировать]

    Сладкий запах успеха / Sweet Smell of Success
    "This is the story of J.J. - But not the way he wants it told!" 8.2 / 10 | 7.54 / 10
    -Год выпуска: 1957
    Страна: США
    Жанр: фильм-нуар, драма
    Продолжительность: 96 мин.
    Перевод: Профессиональный многоголосый закадровый перевод и двухголосый закадровый перевод
    Оригинальная аудиодорожка: Есть
    Cубтитры: Русские полные и английские полные
    Режиссёр: Александр Маккендрик
    Сценарий: Эрнест Леман, Клиффорд Одетс, Александр Маккендрик
    Продюсер: Джеймс Хилл, Тони Кертис, Харольд Хект
    Оператор: Джеймс Вонг Хоу
    Композитор: Элмер Бернстайн
    Художник: Эдвард Каррере, Мэри Грант, Эдвард Дж. Бойл
    В ролях: Берт Ланкастер, Тони Кертис, Сьюзэн Харрисон, Мартин Милнер, Джефф Доннел, Сэм Ливин, Джо Фриско, Барбара Николс, Эмиль Мейер, Эдит Этуотер
    Бюджет: $2 600 000
    Мировая премьера: 27 июня 1957
    Описание: Сидни Фалько мечтает о том мгновении, когда он будет управлять судьбами людей и плевать на них сверху, как это делает его кумир и лучший друг Джей Джей Хансекер. Но Джей Джей зол на Сидни: он поручил своему протеже разлучить Сьюзен, сестру Хансекера и джазового гитариста Стива. Сидни лезет из кожи вон, чтобы его благодетель снова стал милостив.-Качество исходника: Blu-Ray 1080p (HDClub)
    Качество: BDRip
    Тип: 720p
    Контейнер: m4v
    Видео: 1200x720 at 23.976 fps, MPEG-4 AVC, ~6000 kbps avg
    Аудио#1: Russian: 48 kHz, ААС, 2/0 (L,R), ~160 kbps avg |Многоголосый закадровый, Петербург 5-й канал|
    Аудио#2: Russian: 48 kHz, ААС, 2/0 (L,R), ~160 kbps avg |Двухголосый закадровый|
    Аудио#3: English: 48 kHz, ААС, 2/0 (L,R), ~160 kbps avg
    Субтитры №1: Русские полные
    Субтитры №2: Английские полные-

    iTunes Meta Tags for country US

    Name: Sweet Smell of Success
    Artist: Alexander Mackendrick
    Genre: Drama
    Release Date: 1957-06-27T08:00:00Z
    Description: Сидни Фалько мечтает о том мгновении, когда он будет управлять судьбами людей и плевать на них сверху, как это делает его кумир и лучший друг Джей Джей Хансекер.
    Long Description: Сидни Фалько мечтает о том мгновении, когда он будет управлять судьбами людей и плевать на них сверху, как это делает его кумир и лучший друг Джей Джей Хансекер. Но Джей Джей зол на Сидни: он поручил своему протеже разлучить Сьюзен, сестру Хансекера и джазового гитариста Стива. Сидни лезет из кожи вон, чтобы его благодетель снова стал милостив.
    Rating: Unrated
    Studio: MGM
    Cast: Берт Ланкастер, Тони Кертис, Сьюзэн Харрисон, Мартин Милнер, Джефф Доннел, Сэм Ливин, Джо Фриско, Барбара Николс, Эмиль Мейер, Эдит Этуотер
    Director: Александр Маккендрик
    Producers: Джеймс Хилл, Тони Кертис, Харольд Хект
    Screenwriters: Эрнест Леман, Клиффорд Одетс, Александр Маккендрик
    Copyright: © METRO-GOLDWYN-MAYER STUDIOS INC.
    contentID: 839866995
    XID: Apple:vendor_id:1957-8282
    Sort Name: Sweet Smell of Success

    MediaInfo 720p Release

    Формат : MPEG-4
    Идентификатор кодека : M4V
    Размер файла : 4,34 Гбайт
    Продолжительность : 1 ч. 36 м.
    Режим общего битрейта : Переменный
    Общий поток : 6429 Кбит/сек
    Название фильма : Sweet Smell of Success
    Исполнитель : Alexander Mackendrick
    Жанр : Drama
    Тип содержимого : Short Film
    Описание : Сидни Фалько мечтает о том мгновении, когда он будет управлять судьбами людей и плевать на них сверху, как это делает его кумир и лучший друг Джей Джей Хансекер.
    Дата записи : UTC 1957-06-27 08:00:00
    Дата кодирования : UTC 2014-01-16 12:44:46
    Дата пометки : UTC 2014-01-16 13:11:26
    Обложка : Yes
    Рейтинг : None
    Title/Sort : Sweet Smell of Success
    LongDescription : Сидни Фалько мечтает о том мгновении, когда он будет управлять судьбами людей и плевать на них сверху, как это делает его кумир и лучший друг Джей Джей Хансекер. Но Джей Джей зол на Сидни: он поручил своему протеже разлучить Сьюзен, сестру Хансекера и джазового гитариста Стива. Сидни лезет из кожи вон, чтобы его благодетель снова стал милостив.
    HDVideo : Yes
    AppleStoreCatalogID : 8282
    Vendor : Apple:vendor_id:1957-8282
    iTunMOVI : <?xml version="1.0" encoding="UTF-8"?> / <!DOCTYPE plist PUBLIC "-//Apple//DTD PLIST 1.0//EN" "http://anonym.to/?http://www.apple.com/DTDs/PropertyList-1.0.dtd"> / <plist version="1.0"> / <dict> /  <key>cast</key> /  <array> /   <dict> /    <key>name</key> /    <string>Берт Ланкастер</string> /   </dict> /   <dict> /    <key>name</key> /    <string>Тони Кертис</string> /   </dict> /   <dict> /    <key>name</key> /    <string>Сьюзэн Харрисон</string> /   </dict> /   <dict> /    <key>name</key> /    <string>Мартин Милнер</string> /   </dict> /   <dict> /    <key>name</key> /    <string>Джефф Доннел</string> /   </dict> /   <dict> /    <key>name</key> /    <string>Сэм Ливин</string> /   </dict> /   <dict> /    <key>name</key> /    <string>Джо Фриско</string> /   </dict> /   <dict> /    <key>name</key> /    <string>Барбара Николс</string> /   </dict> /   <dict> /    <key>name</key> /    <string>Эмиль Мейер</string> /   </dict> /   <dict> /    <key>name</key> /    <string>Эдит Этуотер</string> /   </dict> /  </array> /  <key>directors</key> /  <array> /   <dict> /    <key>name</key> /    <string>Александр Маккендрик</string> /   </dict> /  </array> /  <key>producers</key> /  <array> /   <dict> /    <key>name</key> /    <string>Джеймс Хилл</string> /   </dict> /   <dict> /    <key>name</key> /    <string>Тони Кертис</string> /   </dict> /   <dict> /    <key>name</key> /    <string>Харольд Хект</string> /   </dict> /  </array> /  <key>screenwriters</key> /  <array> /   <dict> /    <key>name</key> /    <string>Эрнест Леман</string> /   </dict> /   <dict> /    <key>name</key> /    <string>Клиффорд Одетс</string> /   </dict> /   <dict> /    <key>name</key> /    <string>Александр Маккендрик</string> /   </dict> /  </array> /  <key>studio</key> /  <string>The Criterion Collection</string> / </dict> / </plist>
    Видео #1
    Идентификатор : 1
    Формат : AVC
    Формат/Информация : Advanced Video Codec
    Профиль формата : High@L3.1
    Параметр CABAC формата : Нет
    Параметр ReFrames формата : 3 кадра
    Идентификатор кодека : avc1
    Идентификатор кодека/Информация : Advanced Video Coding
    Продолжительность : 1 ч. 36 м.
    Битрейт : 6000 Кбит/сек
    Ширина : 1200 пикселей
    Высота : 720 пикселей
    Соотношение сторон : 1,667
    Режим частоты кадров : Переменный
    Частота кадров : 23,976 кадра/сек
    Минимальная частота кадров : 23,810 кадра/сек
    Максимальная частота кадров : 24,390 кадра/сек
    Цветовое пространство : YUV
    Субдискретизация насыщенности : 4:2:0
    Битовая глубина : 8 бит
    Тип развёртки : Прогрессивная
    Бит/(Пиксели*Кадры) : 0.290
    Размер потока : 4,05 Гбайт (93%)
    Библиотека кодирования : x264 core 130 r2273 b3065e6
    Настройки программы : cabac=0 / ref=3 / deblock=1:1:-1 / analyse=0x3:0x113 / me=umh / subme=9 / psy=1 / psy_rd=0.70:0.00 / mixed_ref=1 / me_range=32 / chroma_me=1 / trellis=0 / 8x8dct=1 / cqm=0 / deadzone=21,11 / fast_pskip=1 / chroma_qp_offset=-2 / threads=3 / lookahead_threads=1 / sliced_threads=0 / nr=0 / decimate=1 / interlaced=0 / bluray_compat=0 / constrained_intra=0 / bframes=3 / b_pyramid=0 / b_adapt=2 / b_bias=0 / direct=1 / weightb=0 / open_gop=0 / weightp=0 / keyint=240 / keyint_min=24 / scenecut=40 / intra_refresh=0 / rc_lookahead=40 / rc=2pass / mbtree=1 / bitrate=6000 / ratetol=1.0 / qcomp=0.60 / qpmin=0 / qpmax=69 / qpstep=4 / cplxblur=20.0 / qblur=0.5 / vbv_maxrate=9500 / vbv_bufsize=9500 / nal_hrd=none / ip_ratio=1.40 / aq=1:1.00
    Язык : English
    Дата кодирования : UTC 2014-01-16 12:44:47
    Дата пометки : UTC 2014-01-16 12:49:55
    Основные цвета : BT.709
    Характеристики трансфера : BT.709
    Коэффициенты матрицы : BT.709
    Видео #2
    Идентификатор : 8
    Формат : JPEG
    Идентификатор кодека : jpeg
    Продолжительность : 1 ч. 36 м.
    Вид битрейта : Переменный
    Битрейт : 1546 бит/сек
    Ширина : 640 пикселей
    Высота : 384 пикселя
    Соотношение сторон : 1,667
    Режим частоты кадров : Переменный
    Частота кадров : 0,004 кадр/сек
    Минимальная частота кадров : 0,002 кадр/сек
    Максимальная частота кадров : 0,009 кадр/сек
    Цветовое пространство : YUV
    Субдискретизация насыщенности : 4:2:0
    Битовая глубина : 8 бит
    Метод сжатия : С потерями
    Бит/(Пиксели*Кадры) : 1.573
    Размер потока : 1,06 Мбайт (0%)
    Язык : English
    Дата кодирования : UTC 2014-01-16 13:01:17
    Дата пометки : UTC 2014-01-16 13:01:18
    Аудио #1
    Идентификатор : 2
    Формат : AAC
    Формат/Информация : Advanced Audio Codec
    Профиль формата : LC
    Идентификатор кодека : 40
    Продолжительность : 1 ч. 36 м.
    Вид битрейта : Переменный
    Битрейт : 118 Кбит/сек
    Максимальный битрейт : 138 Кбит/сек
    Каналы : 2 канала
    Расположение каналов : Front: L R
    Частота : 48,0 КГц
    Метод сжатия : С потерями
    Размер потока : 81,5 Мбайт (2%)
    Язык : Russian
    Дата кодирования : UTC 2014-01-16 12:44:47
    Дата пометки : UTC 2014-01-16 12:44:58
    Аудио #2
    Идентификатор : 3
    Формат : AAC
    Формат/Информация : Advanced Audio Codec
    Профиль формата : LC
    Идентификатор кодека : 40
    Продолжительность : 1 ч. 36 м.
    Вид битрейта : Переменный
    Битрейт : 125 Кбит/сек
    Максимальный битрейт : 153 Кбит/сек
    Каналы : 2 канала
    Расположение каналов : Front: L R
    Частота : 48,0 КГц
    Метод сжатия : С потерями
    Размер потока : 86,5 Мбайт (2%)
    Язык : Russian
    Дата кодирования : UTC 2014-01-16 12:44:47
    Дата пометки : UTC 2014-01-16 12:50:06
    Аудио #3
    Идентификатор : 4
    Формат : AAC
    Формат/Информация : Advanced Audio Codec
    Профиль формата : LC
    Идентификатор кодека : 40
    Продолжительность : 1 ч. 36 м.
    Вид битрейта : Переменный
    Битрейт : 164 Кбит/сек
    Максимальный битрейт : 245 Кбит/сек
    Каналы : 2 канала
    Channel(s)_Original : 1 канал
    Расположение каналов : Front: C
    Частота : 48,0 КГц
    Метод сжатия : С потерями
    Размер потока : 114 Мбайт (3%)
    Язык : English
    Дата кодирования : UTC 2014-01-16 12:44:47
    Дата пометки : UTC 2014-01-16 12:50:19
    Текст #1
    Идентификатор : 5
    Формат : Timed Text
    Режим смешивания : sbtl
    Идентификатор кодека : tx3g
    Продолжительность : 1 ч. 35 м.
    Вид битрейта : Переменный
    Битрейт : 137 бит/сек
    Размер потока : 95,6 Кбайт (0%)
    Язык : Russian
    Дата кодирования : UTC 2014-01-16 12:44:47
    Дата пометки : UTC 2014-01-16 12:50:19
    Текст #2
    Идентификатор : 6
    Формат : Timed Text
    Режим смешивания : sbtl
    Идентификатор кодека : tx3g
    Продолжительность : 1 ч. 35 м.
    Вид битрейта : Переменный
    Битрейт : 89 бит/сек
    Размер потока : 62,4 Кбайт (0%)
    Язык : English
    Дата кодирования : UTC 2014-01-16 12:44:47
    Дата пометки : UTC 2014-01-16 12:50:19
    Меню #1
    00:00:00.000 : "Sweet smell of success"
    00:02:12.507 : "I'm no hero"
    00:07:23.568 : "Maybe you lied to me"
    00:09:51.299 : "You're always snooping around"
    00:13:23.677 : "Were you 'interviewed'?"
    00:15:11.160 : "The first real man"
    00:18:38.742 : "Match me, Sidney"
    00:26:43.810 : "Cat's in the bag"
    00:31:43.192 : "What is this, blackmail?"
    00:36:19.510 : "Fine, fat, dirty item"
    00:39:08.637 : "I don't do this sort of thing"
    00:44:43.180 : "Play marbles with his eyeballs"
    00:46:41.215 : "Occasional beaux gestes"
    00:50:05.210 : "No fish today"
    00:53:27.329 : "A smear"
    00:58:15.492 : "We're drifting apart"
    01:01:22.679 : "Integrity. Acute."
    01:04:16.894 : "In moral twilight"
    01:12:10.451 : "Handle the boy"
    01:15:58.845 : "I can't change"
    01:19:40.650 : "All the marbles"
    01:25:26.371 : "Going down with the strip"
    01:30:13.199 : "You're growing up"

    x264 лог 720p Release

    x264 [info]: frame I:977   Avg QP:14.57  size:133941  PSNR Mean Y:47.78 U:99.95 V:99.95 Avg:49.54 Global:49.24
    x264 [info]: frame P:41763 Avg QP:17.26  size: 52749  PSNR Mean Y:44.86 U:99.93 V:99.93 Avg:46.62 Global:46.31
    x264 [info]: frame B:96325 Avg QP:19.26  size: 20884  PSNR Mean Y:43.25 U:99.93 V:99.93 Avg:45.01 Global:44.67
    x264 [info]: consecutive B-frames:  1.2%  4.9% 43.4% 50.5%
    x264 [info]: mb I  I16..4:  5.7% 65.9% 28.5%
    x264 [info]: mb P  I16..4:  1.0% 11.1%  3.0%  P16..4: 37.9% 30.4% 11.6%  0.0%  0.0%    skip: 5.0%
    x264 [info]: mb B  I16..4:  0.2%  3.7%  0.4%  B16..8: 45.3% 14.3%  2.3%  direct: 5.8%  skip:28.0%  L0:42.4% L1:47.5% BI:10.1%
    x264 [info]: 8x8 transform intra:77.3% inter:44.5%
    x264 [info]: coded y,uvDC,uvAC intra: 95.9% 0.0% 0.0% inter: 32.3% 0.0% 0.0%
    x264 [info]: i16 v,h,dc,p: 27%  8% 23% 42%
    x264 [info]: i8 v,h,dc,ddl,ddr,vr,hd,vl,hu: 11%  7% 11% 10% 14% 14% 12% 11% 10%
    x264 [info]: i4 v,h,dc,ddl,ddr,vr,hd,vl,hu: 11%  7%  5% 11% 16% 16% 13% 11%  9%
    x264 [info]: i8c dc,h,v,p: 100%  0%  0%  0%
    x264 [info]: ref P L0: 66.4% 20.1% 13.5%
    x264 [info]: ref B L0: 75.8% 24.2%
    x264 [info]: SSIM Mean Y:0.9719333 (15.518db)
    x264 [info]: PSNR Mean Y:43.765 U:99.930 V:99.930 Avg:45.524 Global:45.124 kb/s:5993.52

    Скриншоты 720p Release

    , ,
    -

    Релиз подготовлен для просмотра на Apple TV, iPad, iPhone, iPod Touch.
    Для просмотра данного релиза на компьютере с ОС Windows рекомендуется использовать VLC media player
    -
    Скачать .torrent

    Скачать торрент-файл бесплатно и на максимальной скорости!

    Как скачивать? · Что такое торрент? · Рейтинг и ограничения

    !ВНИМАНИЕ!
    Сайт не распространяет и не хранит электронные версии произведений, а занимается лишь лишь предоставлением доступа к создаваемому пользователями каталогу ссылок на торрент-файлы, которые содержат только списки хеш-сумм, убедительная просьба с жалобами обращаться напрямую к пользователю. Файлы для обмена на трекере предоставлены пользователями сайта, и администрация не несёт ответственности за их содержание. Просьба не заливать файлы, защищенные авторскими правами, а также файлы нелегального содержания!


    _________________
    [Профиль] [ЛС]
    Показать сообщения:    
    Ответить на тему

    Текущее время: Сегодня, в 21:54

    Часовой пояс: GMT + 2



    Вы не можете начинать темы
    Вы не можете отвечать на сообщения
    Вы не можете редактировать свои сообщения
    Вы не можете удалять свои сообщения
    Вы не можете голосовать в опросах
    Вы не можете прикреплять файлы к сообщениям
    Вы не можете скачивать файлы