BitTorrentTracker PerecTracker.org
BitTorrentTracker PerecTracker.org
    
Регистрация  ·  Вход
 
 · 
Забыли пароль?

  • [ATV3] Пиксели / Pixels (Крис Коламбус / Chris Columbus ) [2015, США, Китай, Канада , Фантастика, боевик, комедия, WEB-DL, HD (1080p)] DUB + Original + sub (rus, eng, ukr)

    Ответить на тему
     
    Автор Сообщение

    Flirldrerve

    Создавать темы 27-Окт-2015 05:18

           

    [Цитировать]

    Пиксели / Pixels
    «It's time to save the World»
    6.047 / 10 5.60 / 10
    -Год выпуска: 2015
    Страна: США, Китай, Канада
    Жанр: Фантастика, боевик, комедия
    Продолжительность: 01:45:51
    Перевод: Дублированный (iTunes)
    Оригинальная аудиодорожка: Есть
    Cубтитры: Русские форсированные, Английские форсированные, Русские, Английские, Украинские
    Режиссёр: Крис Коламбус
    Сценарий: Тим Херлихи, Тимоти Даулинг, Патрик Жан
    Продюсер: Майкл Барнатан, Крис Коламбус, Аллен Коверт
    Оператор: Амир М. Мокри
    Композитор: Генри Джекман
    Художник: Питер Венхам, Рэмси Эйвери, Стив Кристенсен
    Монтаж: Пек Прайор, Хьюз Уинборн
    В ролях: Адам Сэндлер, Кевин Джеймс, Мишель Монахэн, Питер Динклэйдж, Джош Гад, Брайан Кокс, Мэттью Линтц, Шон Бин, Джейн Краковски, Дэн Эйкройд
    Бюджет: $88 000 000
    Сборы в США: $77 861 789
    Сборы в мире: + $158 500 000 = $236 361 789
    Сборы в России: $5 562 117
    Мировая премьера: 16 июля 2015
    Премьера (РФ): 23 июля 2015. «WDSSPR»
    Релиз на DVD: 22 октября 2015, «CP Дистрибуция»
    Релиз на Blu-Ray: 22 октября 2015, «CP Дистрибуция»
    Описание: Очередное вторжение инопланетян на Землю… Вы скажете: «Что может быть банальнее?!». Да, если бы на этот раз они не предстали в виде героев вселенски популярных компьютерных игр. Сражаться с пришельцами призвана команда бывших геймеров, в числе которых: Президент Соединенных Штатов Америки; карлик-зэк, большой ценитель прекрасного пола; зануда-параноик, свято верящий в теорию вселенского заговора; профессиональный неудачник и циник, в детстве подававший большие надежды. А помогает новоиспеченным героям очаровательная ученая фея.-Качество исходника: WEB-DL 1080p (BlueBird)
    Качество: WEB-DL
    Тип: HD (1080p)
    Контейнер: M4V
    Видео: H.264, 1920x796, 2.40:1, 4 469 Kbps, 23.976 fps
    Аудио 1: Русский/Дублированный (iTunes), AAC / 2.0 / 158 Kbps / 48.0 KHz
    Аудио 2: Английский/Оригинальная дорожка , AAC / 2.0 / 156 Kbps / 48.0 KHz
    Аудио 3: Украинский/Дублированный (iTunes), AAC / 2.0 / 156 Kbps / 44.1 KHz
    Аудио 4: Русский/Дублированный (iTunes), AC-3 / 5.1 / 384 Kbps / 48.0 KHz
    Аудио 5: Английский/Оригинальная дорожка , AC-3 / 5.1 / 384 Kbps / 48.0 KHz
    Субтитры 1: Русские форсированные
    Субтитры 2: Английские форсированные
    Субтитры 3: Русские полные
    Субтитры 4: Английские полные
    Субтитры 5: Украинские полные
    -

    iTunes Meta Tags

    Sort Name: Pixels
    XID: Apple:vendor_id:2015-651628
    contentID: 1015726603
    Copyright: © 2015 Columbia Pictures Industries, Inc., LSC Film Corporation and China Film Co., Ltd. All Rights Reserved. Pac-Man TM & © 2015 BANDAI NAMCO Entertainment Inc.
    Screenwriters: Тим Херлихи, Тимоти Даулинг, Патрик Жан
    Producers: Майкл Барнатан, Крис Коламбус, Аллен Коверт
    Director: Крис Коламбус
    Cast: Адам Сэндлер, Кевин Джеймс, Мишель Монахэн, Питер Динклэйдж, Джош Гад, Брайан Кокс, Мэттью Линтц, Шон Бин, Джейн Краковски, Дэн Эйкройд, Сергей Бурунов, Михаил Георгиу, Ирина Киреева, Илья Исаев, Данил Щебланов
    Studio: Happy Madson Productions
    Rating: 4
    Long Description: Очередное вторжение инопланетян на Землю... Вы скажете: \"Что может быть банальнее?!\". Да, если бы на этот раз они не предстали в виде героев вселенски популярных компьютерных игр. Сражаться с пришельцами призвана команда бывших геймеров, в числе которых: Президент Соединенных Штатов Америки; карлик-зэк, большой ценитель прекрасного пола; зануда-параноик, свято верящий в теорию вселенского заговора; профессиональный неудачник и циник, в детстве подававший большие надежды. А помогает новоиспеченным героям очаровательная ученая фея.
    Description: Очередное вторжение инопланетян на Землю... Вы скажете: \"Что может быть банальнее?!\". Да, если бы на этот раз они не предстали в виде героев вселенски популярных компьютерных игр.
    Release Date: 2015-07-16T08:00:00Z
    Genre: Action & Adventure
    Artist: Chris Columbus
    Name: Pixels

    MediaInfo

    General
    Complete name : /Users/imac/HandBrake/Pixels.WEB-DL.1080p.m4v
    Format : MPEG-4
    Codec ID : M4V
    File size : 4.23 GiB
    Duration : 1h 45mn
    Overall bit rate mode : Variable
    Overall bit rate : 5 719 Kbps
    Movie name : Pixels
    Performer : Chris Columbus
    Director : Крис Коламбус
    Actor : Адам Сэндлер / Кевин Джеймс / Мишель Монахэн / Питер Динклэйдж / Джош Гад / Брайан Кокс / Мэттью Линтц / Шон Бин / Джейн Краковски / Дэн Эйкройд / Сергей Бурунов / Михаил Георгиу / Ирина Киреева / Илья Исаев / Данил Щебланов
    Screenplay by : Тим Херлихи / Тимоти Даулинг / Патрик Жан
    Producer : Майкл Барнатан / Крис Коламбус / Аллен Коверт
    Production studio : Happy Madson Productions
    Genre : Action & Adventure
    ContentType : Short Film
    Description : Очередное вторжение инопланетян на Землю... Вы скажете: \"Что может быть банальнее?!\". Да, если бы на этот раз они не предстали в виде героев вселенски популярных компьютерных игр.
    Recorded date : UTC 2015-07-16 08:00:00
    Encoded date : UTC 2015-10-08 10:12:44
    Tagged date : UTC 2015-10-08 10:15:55
    Copyright : © 2015 Columbia Pictures Industries, Inc., LSC Film Corporation and China Film Co., Ltd. All Rights Reserved. Pac-Man TM & © 2015 BANDAI NAMCO Entertainment Inc.
    Cover : Yes
    Rating : None
    Title/Sort : Pixels
    LongDescription : Очередное вторжение инопланетян на Землю... Вы скажете: \"Что может быть банальнее?!\". Да, если бы на этот раз они не предстали в виде героев вселенски популярных компьютерных игр. Сражаться с пришельцами призвана команда бывших геймеров, в числе которых: Президент Соединенных Штатов Америки; карлик-зэк, большой ценитель прекрасного пола; зануда-параноик, свято верящий в теорию вселенского заговора; профессиональный неудачник и циник, в детстве подававший большие надежды. А помогает новоиспеченным героям очаровательная ученая фея.
    AppleStoreCatalogID : 1015726603
    Vendor : Apple:vendor_id:2015-651628
    ContentRating : mpaa|PG-13|300|
    Video #1
    ID : 1
    Format : AVC
    Format/Info : Advanced Video Codec
    Format profile : High@L4
    Format settings, CABAC : Yes
    Format settings, ReFrames : 5 frames
    Codec ID : avc1
    Codec ID/Info : Advanced Video Coding
    Duration : 1h 45mn
    Bit rate : 4 469 Kbps
    Width : 1 920 pixels
    Height : 796 pixels
    Display aspect ratio : 2.40:1
    Frame rate mode : Constant
    Frame rate : 23.976 fps
    Color space : YUV
    Chroma subsampling : 4:2:0
    Bit depth : 8 bits
    Scan type : Progressive
    Bits/(Pixel*Frame) : 0.122
    Stream size : 3.30 GiB (78%)
    Title : Main Program
    Language : English
    Encoded date : UTC 2015-10-08 10:12:44
    Tagged date : UTC 2015-10-08 10:12:51
    Color range : Limited
    Color primaries : BT.709
    Transfer characteristics : BT.709
    Matrix coefficients : BT.709
    Video #2
    ID : 13
    Format : JPEG
    Codec ID : jpeg
    Duration : 1h 45mn
    Bit rate mode : Variable
    Bit rate : 989 bps
    Width : 640 pixels
    Height : 265 pixels
    Display aspect ratio : 2.40:1
    Frame rate mode : Variable
    Frame rate : 0.003 fps
    Minimum frame rate : 0.001 fps
    Maximum frame rate : 0.004 fps
    Color space : YUV
    Chroma subsampling : 4:2:0
    Bit depth : 8 bits
    Compression mode : Lossy
    Bits/(Pixel*Frame) : 1.944
    Stream size : 644 KiB (0%)
    Title : Chapter Images
    Language : English
    Encoded date : UTC 2015-10-08 10:13:00
    Tagged date : UTC 2015-10-08 10:13:01
    Audio #1
    ID : 2
    Format : AAC
    Format/Info : Advanced Audio Codec
    Format profile : LC
    Codec ID : 40
    Duration : 1h 45mn
    Bit rate mode : Variable
    Bit rate : 158 Kbps
    Maximum bit rate : 270 Kbps
    Channel(s) : 2 channels
    Channel positions : Front: L R
    Sampling rate : 48.0 KHz
    Compression mode : Lossy
    Stream size : 119 MiB (3%)
    Title : Russian Stereo
    Language : Russian
    Encoded date : UTC 2015-10-08 10:12:44
    Tagged date : UTC 2015-10-08 10:12:54
    Audio #2
    ID : 3
    Format : AAC
    Format/Info : Advanced Audio Codec
    Format profile : LC
    Codec ID : 40
    Duration : 1h 45mn
    Bit rate mode : Variable
    Bit rate : 156 Kbps
    Maximum bit rate : 270 Kbps
    Channel(s) : 2 channels
    Channel positions : Front: L R
    Sampling rate : 48.0 KHz
    Compression mode : Lossy
    Stream size : 118 MiB (3%)
    Title : English Stereo
    Language : English
    Encoded date : UTC 2015-10-08 10:12:44
    Tagged date : UTC 2015-10-08 10:12:54
    Audio #3
    ID : 4
    Format : AAC
    Format/Info : Advanced Audio Codec
    Format profile : LC
    Codec ID : 40
    Duration : 1h 45mn
    Bit rate mode : Variable
    Bit rate : 156 Kbps
    Maximum bit rate : 281 Kbps
    Channel(s) : 2 channels
    Channel positions : Front: L R
    Sampling rate : 44.1 KHz
    Compression mode : Lossy
    Stream size : 118 MiB (3%)
    Title : Ukrainian Stereo
    Language : Ukrainian
    Encoded date : UTC 2015-10-08 10:12:44
    Tagged date : UTC 2015-10-08 10:12:54
    Audio #4
    ID : 5
    Format : AC-3
    Format/Info : Audio Coding 3
    Mode extension : CM (complete main)
    Format settings, Endianness : Big
    Codec ID : ac-3
    Duration : 1h 45mn
    Bit rate mode : Constant
    Bit rate : 384 Kbps
    Channel(s) : 6 channels
    Channel positions : Front: L C R, Side: L R, LFE
    Sampling rate : 48.0 KHz
    Bit depth : 16 bits
    Compression mode : Lossy
    Stream size : 291 MiB (7%)
    Title : Russian DD 5.1
    Language : Russian
    Encoded date : UTC 2015-10-08 10:12:44
    Tagged date : UTC 2015-10-08 10:12:53
    Audio #5
    ID : 6
    Format : AC-3
    Format/Info : Audio Coding 3
    Mode extension : CM (complete main)
    Format settings, Endianness : Big
    Codec ID : ac-3
    Duration : 1h 45mn
    Bit rate mode : Constant
    Bit rate : 384 Kbps
    Channel(s) : 6 channels
    Channel positions : Front: L C R, Side: L R, LFE
    Sampling rate : 48.0 KHz
    Bit depth : 16 bits
    Compression mode : Lossy
    Stream size : 291 MiB (7%)
    Title : English DD 5.1
    Language : English
    Encoded date : UTC 2015-10-08 10:12:44
    Tagged date : UTC 2015-10-08 10:12:53
    Text #1
    ID : 7
    Format : Timed Text
    Muxing mode : sbtl
    Codec ID : tx3g
    Duration : 1h 38mn
    Bit rate mode : Variable
    Bit rate : 1 bps
    Stream size : 491 Bytes (0%)
    Title : Russian forced
    Language : Russian
    Encoded date : UTC 2015-10-08 10:12:44
    Tagged date : UTC 2015-10-08 10:12:44
    Text #2
    ID : 8
    Format : Timed Text
    Muxing mode : sbtl
    Codec ID : tx3g
    Duration : 33mn 29s
    Bit rate mode : Variable
    Bit rate : 1 bps
    Stream size : 235 Bytes (0%)
    Title : English forced
    Language : English
    Encoded date : UTC 2015-10-08 10:12:44
    Tagged date : UTC 2015-10-08 10:12:44
    Text #3
    ID : 9
    Format : Timed Text
    Muxing mode : sbtl
    Codec ID : tx3g
    Duration : 1h 40mn
    Bit rate mode : Variable
    Bit rate : 127 bps
    Stream size : 93.6 KiB (0%)
    Title : Russian full
    Language : Russian
    Encoded date : UTC 2015-10-08 10:12:44
    Tagged date : UTC 2015-10-08 10:12:44
    Text #4
    ID : 10
    Format : Timed Text
    Muxing mode : sbtl
    Codec ID : tx3g
    Duration : 1h 37mn
    Bit rate mode : Variable
    Bit rate : 84 bps
    Stream size : 60.4 KiB (0%)
    Title : English full
    Language : English
    Encoded date : UTC 2015-10-08 10:12:44
    Tagged date : UTC 2015-10-08 10:12:44
    Text #5
    ID : 11
    Format : Timed Text
    Muxing mode : sbtl
    Codec ID : tx3g
    Duration : 1h 40mn
    Bit rate mode : Variable
    Bit rate : 132 bps
    Stream size : 97.3 KiB (0%)
    Title : Ukrainian full
    Language : Ukrainian
    Encoded date : UTC 2015-10-08 10:12:44
    Tagged date : UTC 2015-10-08 10:12:44
    Menu #1
    00:00:00.000 : 1
    00:04:54.000 : 2
    00:10:22.000 : 3
    00:14:52.000 : 4
    00:19:51.000 : 5
    00:26:19.000 : 6
    00:32:56.000 : 7
    00:40:34.000 : 8
    00:47:38.000 : 9
    00:52:31.000 : 10
    00:58:53.000 : 11
    01:05:04.000 : 12
    01:09:20.000 : 13
    01:18:09.000 : 14
    01:27:50.000 : 15
    01:33:48.000 : 16
    Menu #2
    ID : 12
    Codec ID : text
    Duration : 1h 45mn
    Language : English
    Encoded date : UTC 2015-10-08 10:12:54
    Tagged date : UTC 2015-10-08 10:12:54
    00:00:00.000 : 1
    00:04:54.000 : 2
    00:10:22.000 : 3
    00:14:52.000 : 4
    00:19:51.000 : 5
    00:26:19.000 : 6
    00:32:56.000 : 7
    00:40:34.000 : 8
    00:47:38.000 : 9
    00:52:31.000 : 10
    00:58:53.000 : 11
    01:05:04.000 : 12
    01:09:20.000 : 13
    01:18:09.000 : 14
    01:27:50.000 : 15
    01:33:48.000 : 16
    Bit rate mode : VBR

    Скриншоты

    -

    Релиз подготовлен для просмотра на Apple TV, iPad, iPhone, iPod Touch.
    Для просмотра данного релиза на компьютере с ОС Windows рекомендуется использовать VLC media player
    Скачать .torrent

    Скачать торрент-файл бесплатно и на максимальной скорости!

    Как скачивать? · Что такое торрент? · Рейтинг и ограничения

    !ВНИМАНИЕ!
    Сайт не распространяет и не хранит электронные версии произведений, а занимается лишь лишь предоставлением доступа к создаваемому пользователями каталогу ссылок на торрент-файлы, которые содержат только списки хеш-сумм, убедительная просьба с жалобами обращаться напрямую к пользователю. Файлы для обмена на трекере предоставлены пользователями сайта, и администрация не несёт ответственности за их содержание. Просьба не заливать файлы, защищенные авторскими правами, а также файлы нелегального содержания!


    _________________
    [Профиль] [ЛС]
    Показать сообщения:    
    Ответить на тему

    Текущее время: Сегодня, в 16:25

    Часовой пояс: GMT + 2



    Вы не можете начинать темы
    Вы не можете отвечать на сообщения
    Вы не можете редактировать свои сообщения
    Вы не можете удалять свои сообщения
    Вы не можете голосовать в опросах
    Вы не можете прикреплять файлы к сообщениям
    Вы не можете скачивать файлы