BitTorrentTracker PerecTracker.org
BitTorrentTracker PerecTracker.org
    
Регистрация  ·  Вход
 
 · 
Забыли пароль?

  • Шпион, выйди вон! / Tinker Tailor Soldier Spy (Томас Альфредсон) [2011, Франция, Великобритания, Германия, триллер, детектив, BDRip HD (720p), SD (480p)] DUB, AVO, Original + SUB (rus, ukr, eng)

    Ответить на тему
     
    Автор Сообщение

    Flirldrerve

    Создавать темы 27-Окт-2015 05:18

           

    [Цитировать]

    Шпион, выйди вон! / Tinker Tailor Soldier Spy
    "Секретная информация будет раскрыта"
    6.708 / 10
    -Год выпуска: 2011
    Страна: Франция, Великобритания, Германия
    Жанр: триллер, детектив
    Продолжительность: 127 мин.
    Перевод: Профессиональный дублированный перевод и одноголосый закадровый авторский перевод
    Оригинальная аудиодорожка: Есть
    Cубтитры: Русские полные, украинские полные и английские полные
    Режиссёр: Томас Альфредсон
    Сценарий: Бриджет О’Коннор, Питер Строхан, Джон ле Карре
    Продюсер: Тим Беван, Эрик Феллнер, Робин Слово
    Оператор: Хойте Ван Хойтема
    Композитор: Альберто Иглесиас
    Художник: Мария Джуркович, Том Браун, Пилар Фой
    Монтаж: Дино Йонсетер
    В ролях: Гари Олдман, Колин Фёрт, Том Харди, Джон Хёрт, Тоби Джонс, Марк Стронг, Бенедикт Камбербэтч, Киаран Хайндс
    Роли дублировали: Константин Хабенский, Светлана Ходченкова, Михаил Жонин, Владимир Терещук, Анатолий Пашнин, Олег Лепенец, Дмитрий Сова
    Бюджет: £20 000 000
    Сборы в США: $24 149 393
    Сборы в мире: + $56 481 215 = $80 630 608
    Сборы в России: $1 060 113
    Мировая премьера: 5 сентября 2011
    Премьера (РФ): 8 декабря 2011, Top Film Distribution
    Релиз на DVD: 15 марта 2012, New Dream media, Новый Диск
    Описание: Многие сотрудники британской разведки догадывались, что в ее руководстве давно засел "крот", работающий на Россию. Но те, кто отваживался об этом заявлять открыто, почему-то оказывались в отставке. Остальные предпочитали помалкивать. Но подтверждение существования русского агента пришло с совсем неожиданной стороны. Начинается тайное расследование, возглавляемое находящимся в отставке Джорджем Смайли. И никто, включая высшее руководство разведки, не должен догадаться, что на крота снова объявлена охота.-Качество исходника: BD-Remux 1080p
    Качество: BDRip
    Тип: 480p 720p
    Контейнер: m4v
    Видео: 640x362 анаморф 852x362 at 23.976 fps, MPEG-4 AVC, ~1700 kbps avg
    Видео: 1280x544 at 23.976 fps, MPEG-4 AVC, ~5500 kbps avg
    Аудио#1: Russian: 48 kHz, ААС, 2/0 (L,R), ~128.00 / 160.00 kbps avg |Дубляж|
    Аудио#2: Russian: 48 kHz, ААС, 2/0 (L,R), ~128.00 / 160.00 kbps avg |Одноголосый закадровый, Сергей Визгунов|
    Аудио#3: English: 48 kHz, ААС, 2/0 (L,R), ~128.00 / 160.00 kbps avg
    Аудио#4: English: 48 kHz, ААС, 2/0 (L,R), ~128.00 / 160.00 kbps avg |Комментарии|
    Аудио#5: Russian: 48 kHz, AC3, 3/2 (L,C,R,l,r) + LFE ch, ~384.00 kbps avg |Дубляж, |
    Аудио#6: Russian: 48 kHz, AC3, 3/2 (L,C,R,l,r) + LFE ch, ~640.00 kbps avg |Одноголосый закадровый, Сергей Визгунов|
    Аудио#7: English: 48 kHz, AC3, 3/2 (L,C,R,l,r) + LFE ch, ~640.00 kbps avg
    Субтитры №1: Russian: |Полные|
    Субтитры №2: Ukrainian: |Полные|
    Субтитры №3: English: |Полные|-

    Знаете ли Вы, что...

  • Фильм снят по мотивам романа Джона Ле Карре «Шпион, выйди вон!» (Tinker Tailor Soldier Spy, 1974).
  • Том Харди был утвержден на роль Рикки Тарра совершенно случайно. Продюсер фильма Тим Беван заявил, что актёр напоминает ему молодого Роберта Рэдфорда.
  • Чтобы подготовиться к роли Джорджа Смайли, Гари Олдман ел много патоки и заварного крема, чтоб отрастить «небольшой живот, как у людей пожилого возраста», наблюдал за игрой Алека Гиннесса в телесериале 1979 года, а также общался с «создателем» Смайли — Джоном Ле Карре.
  • Одним из первых кандидатов на роль Смайли был Джон Хёрт. Позже ему была отдана роль Контролёра.
  • Чтобы выбрать очки Джорджа Смайли, Олдман посетил магазин Old Focals в Пасадене, где он померил сотни пар оправ, прежде чем нашел нужную.
  • На ранних стадиях подготовки к съёмкам, переговоры с кинокомпанией вел Дэвид Тьюлис.
  • В фильме должен был сниматься Майкл Фассбендер, но в результате был заменен Томом Харди.
  • В оригинале фильм называется «Лудильщик, портной, солдат, шпион» (Tinker Tailor Soldier Spy). Это слова детской считалки, профессии из нее в фильме являются кодовыми именами главных героев.
  • Роман Джона Ле Карре «Шпион, выйди вон!» уже экранизировался в 1979 году в виде телевизионного мини-сериала. Джорджа Смайли сыграл Алек Гиннесс.
  • В романе Джона Ле Карре часть действия происходит в тогдашней Чехословакии. В фильме эти события перемещены в Венгрию, и там же в Будапеште проходили съёмки. Это связано с тем, что венгерские культурные власти предложили более выгодные условия, а именно 20% возмещение всех расходов.
  • Одна из ключевых ролей в фильме могла достаться Джареду Харрису, который потом выбыл из проекта из-за занятости на съёмках сиквела «Шерлока Холмса». На его место был приглашён Тоби Джонс.
  • Первоначальная версия сценария была написана известным британским сценаристом и драматургом Питером Морганом. Позднее из-за болезни матери он в этом качестве выбыл из проекта, а для доработки сценария были приглашены Питер Строхан и его жена Бриджит О’Коннор.
  • Фильм посвящён памяти работавшей над его сценарием британской писательницы, сценариста и драматурга Бриджит О’Коннор. Она скончалась от рака 22 сентября 2010 года в возрасте 49 лет менее чем за три недели до начала съёмок.
  • Автор послужившего основой для фильма шпионского романа Джон Ле Карре появляется в камео в качестве одного из гостей на вечеринке.

  • -

    iTunes Meta Tags for country us

    Name: Tinker Tailor Soldier Spy
    Artist: Tomas Alfredson
    Genre: Thriller
    Release Date: 2011-09-05T08:00:00Z
    Description: Многие сотрудники британской разведки догадывались, что в ее руководстве давно засел "крот", работающий на Россию. Но те, кто отваживался об этом заявлять открыто, почему-то оказывались в отставке. Остальные предпочитали помалкивать. Но подтверждение существования русского агента пришло с совсем неожиданной стороны...
    Long Description: Многие сотрудники британской разведки догадывались, что в ее руководстве давно засел "крот", работающий на Россию. Но те, кто отваживался об этом заявлять открыто, почему-то оказывались в отставке. Остальные предпочитали помалкивать. Но подтверждение существования русского агента пришло с совсем неожиданной стороны. Начинается тайное расследование, возглавляемое находящимся в отставке Джорджем Смайли. И никто, включая высшее руководство разведки, не должен догадаться, что на крота снова объявлена охота.
    Rating: R
    Rating Annotation: Rated R for violence, some sexuality/nudity and language.
    Studio: Focus Features
    Cast: Гари Олдман, Колин Фёрт, Том Харди, Джон Хёрт, Тоби Джонс, Марк Стронг, Бенедикт Камбербэтч, Киаран Хайндс
    Director: Томас Альфредсон
    Producers: Тим Беван, Эрик Феллнер, Робин Слово
    Screenwriters: Бриджет О’Коннор, Питер Строхан, Джон ле Карре
    Copyright: © 2011 Focus Features. All Rights Reserved.
    contentID: 499525501
    XID: Apple:vendor_id:2011-462548
    Sort Name: Tinker Tailor Soldier Spy

    MediaInfo 480p Release

    General
    Complete name : Tinker Tailor Soldier Spy.m4v
    Format : MPEG-4
    Codec ID : M4V
    File size : 1.99 GiB
    Duration : 2h 7mn
    Overall bit rate mode : Variable
    Overall bit rate : 2 237 Kbps
    Movie name : Tinker Tailor Soldier Spy
    Performer : Tomas Alfredson
    Director : Томас Альфредсон
    Actor : Гари Олдман / Колин Фёрт / Том Харди / Джон Хёрт / Тоби Джонс / Марк Стронг / Бенедикт Камбербэтч / Киаран Хайндс
    Screenplay by : Бриджет О’Коннор / Питер Строхан / Джон ле Карре
    Producer : Тим Беван / Эрик Феллнер / Робин Слово
    Production studio : Focus Features
    Genre : Thriller
    ContentType : Short Film
    Description : Многие сотрудники британской разведки догадывались, что в ее руководстве давно засел "крот", работающий на Россию. Но те, кто отваживался об этом заявлять открыто, почему-то оказывались в отставке. Остальные предпочитали помалкивать. Но подтверждение существования русского агента пришло с совсем неожиданной стороны...
    Recorded date : UTC 2011-09-05 08:00:00
    Encoded date : UTC 2015-10-08 09:09:00
    Tagged date : UTC 2015-10-08 09:10:23
    Copyright : © 2011 Focus Features. All Rights Reserved.
    Cover : Yes
    Rating : None
    Title/Sort : Tinker Tailor Soldier Spy
    LongDescription : Многие сотрудники британской разведки догадывались, что в ее руководстве давно засел "крот", работающий на Россию. Но те, кто отваживался об этом заявлять открыто, почему-то оказывались в отставке. Остальные предпочитали помалкивать. Но подтверждение существования русского агента пришло с совсем неожиданной стороны. Начинается тайное расследование, возглавляемое находящимся в отставке Джорджем Смайли. И никто, включая высшее руководство разведки, не должен догадаться, что на крота снова объявлена охота.
    AppleStoreCatalogID : 499525501
    Vendor : Apple:vendor_id:2011-462548
    ContentRating : mpaa|R|400|Rated R for violence, some sexuality/nudity and language.
    Video #1
    ID : 1
    Format : AVC
    Format/Info : Advanced Video Codec
    Format profile : Baseline@L3
    Format settings, CABAC : No
    Format settings, ReFrames : 2 frames
    Codec ID : avc1
    Codec ID/Info : Advanced Video Coding
    Duration : 2h 7mn
    Bit rate : 1 700 Kbps
    Width : 640 pixels
    Height : 362 pixels
    Display aspect ratio : 2.35:1
    Original display aspect ratio : 2.35:1
    Frame rate mode : Variable
    Frame rate : 23.976 fps
    Minimum frame rate : 12.048 fps
    Maximum frame rate : 24.390 fps
    Color space : YUV
    Chroma subsampling : 4:2:0
    Bit depth : 8 bits
    Scan type : Progressive
    Bits/(Pixel*Frame) : 0.306
    Stream size : 1.51 GiB (76%)
    Title : Main Program
    Writing library : x264 core 130 r2273 b3065e6
    Encoding settings : cabac=0 / ref=2 / deblock=1:0:0 / analyse=0x1:0x111 / me=umh / subme=6 / psy=1 / psy_rd=1.00:0.00 / mixed_ref=1 / me_range=16 / chroma_me=1 / trellis=0 / 8x8dct=0 / cqm=0 / deadzone=21,11 / fast_pskip=1 / chroma_qp_offset=-2 / threads=18 / lookahead_threads=2 / sliced_threads=0 / nr=0 / decimate=1 / interlaced=0 / bluray_compat=0 / constrained_intra=0 / bframes=0 / weightp=0 / keyint=240 / keyint_min=24 / scenecut=40 / intra_refresh=0 / rc_lookahead=40 / rc=2pass / mbtree=1 / bitrate=1700 / ratetol=1.0 / qcomp=0.60 / qpmin=0 / qpmax=69 / qpstep=4 / cplxblur=20.0 / qblur=0.5 / vbv_maxrate=5000 / vbv_bufsize=5000 / nal_hrd=none / ip_ratio=1.40 / aq=1:1.00
    Language : English
    Encoded date : UTC 2015-10-08 09:09:00
    Tagged date : UTC 2015-10-08 09:09:32
    Color range : Limited
    Color primaries : BT.709
    Transfer characteristics : BT.709
    Matrix coefficients : BT.709
    Video #2
    ID : 10
    Format : JPEG
    Codec ID : jpeg
    Duration : 2h 7mn
    Bit rate mode : Variable
    Bit rate : 511 bps
    Width : 640 pixels
    Height : 271 pixels
    Display aspect ratio : 2.35:1
    Frame rate mode : Variable
    Frame rate : 0.002 fps
    Minimum frame rate : 0.001 fps
    Maximum frame rate : 0.002 fps
    Color space : YUV
    Chroma subsampling : 4:2:0
    Bit depth : 8 bits
    Compression mode : Lossy
    Bits/(Pixel*Frame) : 1.473
    Stream size : 375 KiB (0%)
    Title : Chapter Images
    Language : English
    Encoded date : UTC 2015-10-08 09:09:34
    Tagged date : UTC 2015-10-08 09:09:34
    Audio #1
    ID : 2
    Format : AAC
    Format/Info : Advanced Audio Codec
    Format profile : LC
    Codec ID : 40
    Duration : 2h 7mn
    Bit rate mode : Variable
    Bit rate : 132 Kbps
    Maximum bit rate : 208 Kbps
    Channel(s) : 2 channels
    Channel positions : Front: L R
    Sampling rate : 48.0 KHz
    Compression mode : Lossy
    Stream size : 120 MiB (6%)
    Title : Russian DUB Stereo
    Language : Russian
    Encoded date : UTC 2015-10-08 09:09:00
    Tagged date : UTC 2015-10-08 09:09:09
    Audio #2
    ID : 3
    Format : AAC
    Format/Info : Advanced Audio Codec
    Format profile : LC
    Codec ID : 40
    Duration : 2h 7mn
    Bit rate mode : Variable
    Bit rate : 132 Kbps
    Maximum bit rate : 232 Kbps
    Channel(s) : 2 channels
    Channel positions : Front: L R
    Sampling rate : 48.0 KHz
    Compression mode : Lossy
    Stream size : 120 MiB (6%)
    Title : Russian AVO S.Vizgunov Stereo
    Language : Russian
    Encoded date : UTC 2015-10-08 09:09:00
    Tagged date : UTC 2015-10-08 09:09:09
    Audio #3
    ID : 4
    Format : AAC
    Format/Info : Advanced Audio Codec
    Format profile : LC
    Codec ID : 40
    Duration : 2h 7mn
    Bit rate mode : Variable
    Bit rate : 132 Kbps
    Maximum bit rate : 228 Kbps
    Channel(s) : 2 channels
    Channel positions : Front: L R
    Sampling rate : 48.0 KHz
    Compression mode : Lossy
    Stream size : 120 MiB (6%)
    Title : English Stereo
    Language : English
    Encoded date : UTC 2015-10-08 09:09:00
    Tagged date : UTC 2015-10-08 09:09:09
    Audio #4
    ID : 5
    Format : AAC
    Format/Info : Advanced Audio Codec
    Format profile : LC
    Codec ID : 40
    Duration : 2h 7mn
    Bit rate mode : Variable
    Bit rate : 132 Kbps
    Maximum bit rate : 198 Kbps
    Channel(s) : 2 channels
    Channel positions : Front: L R
    Sampling rate : 48.0 KHz
    Compression mode : Lossy
    Stream size : 119 MiB (6%)
    Title : English Commentary Stereo
    Language : English
    Encoded date : UTC 2015-10-08 09:09:00
    Tagged date : UTC 2015-10-08 09:09:09
    Text #1
    ID : 6
    Format : Timed Text
    Muxing mode : sbtl
    Codec ID : tx3g
    Duration : 1h 57mn
    Bit rate mode : Variable
    Bit rate : 73 bps
    Stream size : 62.9 KiB (0%)
    Title : Russian Subtitle
    Language : Russian
    Encoded date : UTC 2015-10-08 09:09:00
    Tagged date : UTC 2015-10-08 09:09:00
    Text #2
    ID : 7
    Format : Timed Text
    Muxing mode : sbtl
    Codec ID : tx3g
    Duration : 2h 1mn
    Bit rate mode : Variable
    Bit rate : 67 bps
    Stream size : 59.9 KiB (0%)
    Title : Ukrainian Subtitle
    Language : Ukrainian
    Encoded date : UTC 2015-10-08 09:09:00
    Tagged date : UTC 2015-10-08 09:09:00
    Text #3
    ID : 8
    Format : Timed Text
    Muxing mode : sbtl
    Codec ID : tx3g
    Duration : 1h 58mn
    Bit rate mode : Variable
    Bit rate : 45 bps
    Stream size : 39.0 KiB (0%)
    Title : English Subtitle
    Language : English
    Encoded date : UTC 2015-10-08 09:09:00
    Tagged date : UTC 2015-10-08 09:09:00
    Menu #1
    00:00:00.000 : 1
    00:12:39.800 : 2
    00:22:44.655 : 3
    00:35:04.852 : 4
    00:48:35.913 : 5
    00:59:11.256 : 6
    01:10:34.522 : 7
    01:24:45.706 : 8
    01:34:48.808 : 9
    01:41:51.146 : 10
    01:51:18.422 : 11
    02:00:19.337 : 12
    Menu #2
    ID : 9
    Codec ID : text
    Duration : 2h 7mn
    Title : Chapter Titles
    Language : English
    Encoded date : UTC 2015-10-08 09:09:32
    Tagged date : UTC 2015-10-08 09:09:32
    00:00:00.000 : 1
    00:12:39.800 : 2
    00:22:44.655 : 3
    00:35:04.852 : 4
    00:48:35.913 : 5
    00:59:11.256 : 6
    01:10:34.522 : 7
    01:24:45.706 : 8
    01:34:48.808 : 9
    01:41:51.146 : 10
    01:51:18.422 : 11
    02:00:19.337 : 12
    Bit rate mode : VBR

    MediaInfo 720p Release

    General
    Complete name : Tinker Tailor Soldier Spy (HD).m4v
    Format : MPEG-4
    Codec ID : M4V
    File size : 6.96 GiB
    Duration : 2h 7mn
    Overall bit rate mode : Variable
    Overall bit rate : 7 819 Kbps
    Movie name : Tinker Tailor Soldier Spy
    Performer : Tomas Alfredson
    Director : Томас Альфредсон
    Actor : Гари Олдман / Колин Фёрт / Том Харди / Джон Хёрт / Тоби Джонс / Марк Стронг / Бенедикт Камбербэтч / Киаран Хайндс
    Screenplay by : Бриджет О’Коннор / Питер Строхан / Джон ле Карре
    Producer : Тим Беван / Эрик Феллнер / Робин Слово
    Production studio : Focus Features
    Genre : Thriller
    ContentType : Short Film
    Description : Многие сотрудники британской разведки догадывались, что в ее руководстве давно засел "крот", работающий на Россию. Но те, кто отваживался об этом заявлять открыто, почему-то оказывались в отставке. Остальные предпочитали помалкивать. Но подтверждение существования русского агента пришло с совсем неожиданной стороны...
    Recorded date : UTC 2011-09-05 08:00:00
    Encoded date : UTC 2015-10-08 07:51:20
    Tagged date : UTC 2015-10-08 08:05:03
    Copyright : © 2011 Focus Features. All Rights Reserved.
    Cover : Yes
    Rating : None
    Title/Sort : Tinker Tailor Soldier Spy
    LongDescription : Многие сотрудники британской разведки догадывались, что в ее руководстве давно засел "крот", работающий на Россию. Но те, кто отваживался об этом заявлять открыто, почему-то оказывались в отставке. Остальные предпочитали помалкивать. Но подтверждение существования русского агента пришло с совсем неожиданной стороны. Начинается тайное расследование, возглавляемое находящимся в отставке Джорджем Смайли. И никто, включая высшее руководство разведки, не должен догадаться, что на крота снова объявлена охота.
    HDVideo : Yes
    AppleStoreCatalogID : 499525501
    Vendor : Apple:vendor_id:2011-462548
    ContentRating : mpaa|R|400|Rated R for violence, some sexuality/nudity and language.
    Video #1
    ID : 1
    Format : AVC
    Format/Info : Advanced Video Codec
    Format profile : High@L3.1
    Format settings, CABAC : No
    Format settings, ReFrames : 3 frames
    Codec ID : avc1
    Codec ID/Info : Advanced Video Coding
    Duration : 2h 7mn
    Source duration : 2h 7mn
    Bit rate : 5 500 Kbps
    Width : 1 280 pixels
    Height : 544 pixels
    Display aspect ratio : 2.35:1
    Frame rate mode : Variable
    Frame rate : 23.976 fps
    Minimum frame rate : 12.048 fps
    Maximum frame rate : 24.390 fps
    Color space : YUV
    Chroma subsampling : 4:2:0
    Bit depth : 8 bits
    Scan type : Progressive
    Bits/(Pixel*Frame) : 0.329
    Stream size : 4.88 GiB (70%)
    Source stream size : 4.88 GiB (70%)
    Title : Main Program
    Writing library : x264 core 130 r2273 b3065e6
    Encoding settings : cabac=0 / ref=3 / deblock=1:-3:-2 / analyse=0x3:0x113 / me=umh / subme=9 / psy=1 / psy_rd=0.80:0.25 / mixed_ref=1 / me_range=32 / chroma_me=1 / trellis=0 / 8x8dct=1 / cqm=0 / deadzone=6,6 / fast_pskip=0 / chroma_qp_offset=-2 / threads=18 / lookahead_threads=1 / sliced_threads=0 / nr=0 / decimate=0 / interlaced=0 / bluray_compat=0 / constrained_intra=0 / bframes=3 / b_pyramid=0 / b_adapt=2 / b_bias=0 / direct=1 / weightb=0 / open_gop=0 / weightp=0 / keyint=240 / keyint_min=24 / scenecut=40 / intra_refresh=0 / rc_lookahead=40 / rc=2pass / mbtree=1 / bitrate=5500 / ratetol=1.0 / qcomp=0.80 / qpmin=0 / qpmax=69 / qpstep=4 / cplxblur=20.0 / qblur=0.5 / vbv_maxrate=9500 / vbv_bufsize=9500 / nal_hrd=none / ip_ratio=1.10 / aq=1:0.50
    Language : English
    Encoded date : UTC 2015-10-08 07:51:20
    Tagged date : UTC 2015-10-08 07:52:17
    Color range : Limited
    Color primaries : BT.709
    Transfer characteristics : BT.709
    Matrix coefficients : BT.709
    Video #2
    ID : 13
    Format : JPEG
    Codec ID : jpeg
    Duration : 2h 7mn
    Bit rate mode : Variable
    Bit rate : 537 bps
    Width : 640 pixels
    Height : 272 pixels
    Display aspect ratio : 2.35:1
    Frame rate mode : Variable
    Frame rate : 0.002 fps
    Minimum frame rate : 0.001 fps
    Maximum frame rate : 0.002 fps
    Color space : YUV
    Chroma subsampling : 4:2:0
    Bit depth : 8 bits
    Compression mode : Lossy
    Bits/(Pixel*Frame) : 1.542
    Stream size : 394 KiB (0%)
    Title : Chapter Images
    Language : English
    Encoded date : UTC 2015-10-08 08:02:27
    Tagged date : UTC 2015-10-08 08:02:27
    Audio #1
    ID : 2
    Format : AAC
    Format/Info : Advanced Audio Codec
    Format profile : LC
    Codec ID : 40
    Duration : 2h 7mn
    Bit rate mode : Variable
    Bit rate : 163 Kbps
    Maximum bit rate : 249 Kbps
    Channel(s) : 2 channels
    Channel positions : Front: L R
    Sampling rate : 48.0 KHz
    Compression mode : Lossy
    Stream size : 149 MiB (2%)
    Title : Russian DUB Stereo
    Language : Russian
    Encoded date : UTC 2015-10-08 07:51:20
    Tagged date : UTC 2015-10-08 07:51:39
    Audio #2
    ID : 3
    Format : AAC
    Format/Info : Advanced Audio Codec
    Format profile : LC
    Codec ID : 40
    Duration : 2h 7mn
    Bit rate mode : Variable
    Bit rate : 164 Kbps
    Maximum bit rate : 283 Kbps
    Channel(s) : 2 channels
    Channel positions : Front: L R
    Sampling rate : 48.0 KHz
    Compression mode : Lossy
    Stream size : 150 MiB (2%)
    Title : Russian AVO S.Vizgunov Stereo
    Language : Russian
    Encoded date : UTC 2015-10-08 07:51:20
    Tagged date : UTC 2015-10-08 07:51:39
    Audio #3
    ID : 4
    Format : AAC
    Format/Info : Advanced Audio Codec
    Format profile : LC
    Codec ID : 40
    Duration : 2h 7mn
    Bit rate mode : Variable
    Bit rate : 165 Kbps
    Maximum bit rate : 276 Kbps
    Channel(s) : 2 channels
    Channel positions : Front: L R
    Sampling rate : 48.0 KHz
    Compression mode : Lossy
    Stream size : 150 MiB (2%)
    Title : English Stereo
    Language : English
    Encoded date : UTC 2015-10-08 07:51:20
    Tagged date : UTC 2015-10-08 07:51:39
    Audio #4
    ID : 5
    Format : AAC
    Format/Info : Advanced Audio Codec
    Format profile : LC
    Codec ID : 40
    Duration : 2h 7mn
    Bit rate mode : Variable
    Bit rate : 163 Kbps
    Maximum bit rate : 240 Kbps
    Channel(s) : 2 channels
    Channel positions : Front: L R
    Sampling rate : 48.0 KHz
    Compression mode : Lossy
    Stream size : 148 MiB (2%)
    Title : English Commentary Stereo
    Language : English
    Encoded date : UTC 2015-10-08 07:51:20
    Tagged date : UTC 2015-10-08 07:51:39
    Audio #5
    ID : 6
    Format : AC-3
    Format/Info : Audio Coding 3
    Mode extension : CM (complete main)
    Format settings, Endianness : Big
    Codec ID : ac-3
    Duration : 2h 7mn
    Bit rate mode : Constant
    Bit rate : 384 Kbps
    Channel(s) : 6 channels
    Channel positions : Front: L C R, Side: L R, LFE
    Sampling rate : 48.0 KHz
    Bit depth : 16 bits
    Compression mode : Lossy
    Stream size : 350 MiB (5%)
    Title : Russian DUB DD 5.1
    Language : Russian
    Encoded date : UTC 2015-10-08 07:51:20
    Tagged date : UTC 2015-10-08 07:51:34
    Audio #6
    ID : 7
    Format : AC-3
    Format/Info : Audio Coding 3
    Mode extension : CM (complete main)
    Format settings, Endianness : Big
    Codec ID : ac-3
    Duration : 2h 7mn
    Bit rate mode : Constant
    Bit rate : 640 Kbps
    Channel(s) : 6 channels
    Channel positions : Front: L C R, Side: L R, LFE
    Sampling rate : 48.0 KHz
    Bit depth : 16 bits
    Compression mode : Lossy
    Stream size : 583 MiB (8%)
    Title : Russian AVO S.Vizgunov DD 5.1
    Language : Russian
    Encoded date : UTC 2015-10-08 07:51:20
    Tagged date : UTC 2015-10-08 07:51:34
    Audio #7
    ID : 8
    Format : AC-3
    Format/Info : Audio Coding 3
    Mode extension : CM (complete main)
    Format settings, Endianness : Big
    Codec ID : ac-3
    Duration : 2h 7mn
    Bit rate mode : Constant
    Bit rate : 640 Kbps
    Channel(s) : 6 channels
    Channel positions : Front: L C R, Side: L R, LFE
    Sampling rate : 48.0 KHz
    Bit depth : 16 bits
    Compression mode : Lossy
    Stream size : 583 MiB (8%)
    Title : English DD 5.1
    Language : English
    Encoded date : UTC 2015-10-08 07:51:20
    Tagged date : UTC 2015-10-08 07:51:34
    Text #1
    ID : 9
    Format : Timed Text
    Muxing mode : sbtl
    Codec ID : tx3g
    Duration : 1h 57mn
    Bit rate mode : Variable
    Bit rate : 73 bps
    Stream size : 62.9 KiB (0%)
    Title : Russian Subtitle
    Language : Russian
    Encoded date : UTC 2015-10-08 08:00:50
    Tagged date : UTC 2015-10-08 08:00:50
    Text #2
    ID : 10
    Format : Timed Text
    Muxing mode : sbtl
    Codec ID : tx3g
    Duration : 2h 1mn
    Bit rate mode : Variable
    Bit rate : 67 bps
    Stream size : 59.9 KiB (0%)
    Title : Ukrainian Subtitle
    Language : Ukrainian
    Encoded date : UTC 2015-10-08 08:00:50
    Tagged date : UTC 2015-10-08 08:00:50
    Text #3
    ID : 11
    Format : Timed Text
    Muxing mode : sbtl
    Codec ID : tx3g
    Duration : 1h 58mn
    Bit rate mode : Variable
    Bit rate : 45 bps
    Stream size : 39.0 KiB (0%)
    Title : English Subtitle
    Language : English
    Encoded date : UTC 2015-10-08 08:00:50
    Tagged date : UTC 2015-10-08 08:00:50
    Menu #1
    00:00:00.000 : 1
    00:12:39.800 : 2
    00:22:44.655 : 3
    00:35:04.852 : 4
    00:48:35.913 : 5
    00:59:11.256 : 6
    01:10:34.522 : 7
    01:24:45.706 : 8
    01:34:48.808 : 9
    01:41:51.146 : 10
    01:51:18.422 : 11
    02:00:19.337 : 12
    Menu #2
    ID : 12
    Codec ID : text
    Duration : 2h 7mn
    Title : Chapter Titles
    Language : English
    Encoded date : UTC 2015-10-08 08:02:22
    Tagged date : UTC 2015-10-08 08:02:22
    00:00:00.000 : 1
    00:12:39.800 : 2
    00:22:44.655 : 3
    00:35:04.852 : 4
    00:48:35.913 : 5
    00:59:11.256 : 6
    01:10:34.522 : 7
    01:24:45.706 : 8
    01:34:48.808 : 9
    01:41:51.146 : 10
    01:51:18.422 : 11
    02:00:19.337 : 12
    Bit rate mode : VBR

    x264 лог 480p Release

    HandBrakeCLI -i "Shpion.vyjdi.von.2011.MPEG-4-AVC.BluRay-Remux.1080p.mkv" -t 1 -o "Tinker.Tailor.Soldier.Spy.480p.eng.m4v" -f mp4 -I -O -w 640 -l 362 --crop 132:132:0:0 --custom-anamorphic --modulus 2 --pixel-aspect 852:640 -e x264 -b 1700 -2 -a none -x cabac=0:ref=2:me=umh:bframes=0:weightp=0:subq=6:8x8dct=0:trellis=0:vbv-maxrate=5000:vbv-bufsize=5000 --verbose=1
    x264 [info]: frame I:2183  Avg QP:15.73  size: 28506  PSNR Mean Y:46.90 U:54.24 V:54.77 Avg:48.21 Global:47.77
    x264 [info]: frame P:181058 Avg QP:18.02  size:  8627  PSNR Mean Y:44.14 U:52.89 V:53.21 Avg:45.47 Global:45.06
    x264 [info]: mb I  I16..4: 24.0%  0.0% 76.0%
    x264 [info]: mb P  I16..4:  0.4%  0.0%  1.1%  P16..4: 48.0% 29.0% 11.8%  0.0%  0.0%    skip: 9.6%
    x264 [info]: coded y,uvDC,uvAC intra: 90.3% 59.9% 35.0% inter: 42.4% 12.4% 0.9%
    x264 [info]: i16 v,h,dc,p: 31% 11% 21% 38%
    x264 [info]: i4 v,h,dc,ddl,ddr,vr,hd,vl,hu: 25% 12% 22%  7%  7%  8%  6%  7%  5%
    x264 [info]: i8c dc,h,v,p: 56% 15% 24%  5%
    x264 [info]: ref P L0: 64.5% 35.5%
    x264 [info]: SSIM Mean Y:0.9736520 (15.793db)
    x264 [info]: PSNR Mean Y:44.177 U:52.906 V:53.228 Avg:45.500 Global:45.080 kb/s:1700.13

    x264 лог 720p Release

    HandBrakeCLI -i "Shpion.vyjdi.von.2011.MPEG-4-AVC.BluRay-Remux.1080p.mkv" -t 1 -o "Tinker.Tailor.Soldier.Spy.720p.eng.m4v" -f mp4 -4 -O -w 1280 -l 544 --crop 132:132:0:0 --modulus 4 -e x264 -b 5500 -2 -a none -x cabac=0:ref=3:me=umh:b-pyramid=none:b-adapt=2:weightb=0:trellis=0:weightp=0:vbv-maxrate=9500:vbv-bufsize=9500:subq=9:merange=32:deblock=-3,-2:qcomp=0.80:qpmin=0:qpmax=69:fast_pskip=0:aq-strength=0.5:no-dct-decimate=1:psy-rd=0.80,0.25:ipratio=1.1:pbratio=1.1:deadzone-inter=6:deadzone-intra=6 --verbose=1
    x264 [info]: frame I:1196  Avg QP:21.27  size: 66541  PSNR Mean Y:43.21 U:53.29 V:53.68 Avg:44.70 Global:44.26
    x264 [info]: frame P:54450 Avg QP:21.98  size: 47248  PSNR Mean Y:42.80 U:53.91 V:54.31 Avg:44.29 Global:43.74
    x264 [info]: frame B:127595 Avg QP:22.95  size: 20289  PSNR Mean Y:41.22 U:52.93 V:53.35 Avg:42.77 Global:42.25
    x264 [info]: consecutive B-frames:  2.1%  8.3% 20.6% 69.0%
    x264 [info]: mb I  I16..4:  8.2% 75.2% 16.6%
    x264 [info]: mb P  I16..4:  0.8%  7.0%  0.9%  P16..4: 48.3% 26.7% 10.5%  0.0%  0.0%    skip: 5.8%
    x264 [info]: mb B  I16..4:  0.0%  0.7%  0.1%  B16..8: 34.3%  9.9%  1.6%  direct: 8.2%  skip:45.1%  L0:41.8% L1:37.6% BI:20.6%
    x264 [info]: 8x8 transform intra:80.6% inter:40.1%
    x264 [info]: coded y,uvDC,uvAC intra: 93.9% 38.4% 8.0% inter: 48.0% 5.4% 0.4%
    x264 [info]: i16 v,h,dc,p: 41% 11% 12% 37%
    x264 [info]: i8 v,h,dc,ddl,ddr,vr,hd,vl,hu:  8%  7%  9% 12% 16% 14% 14% 11% 10%
    x264 [info]: i4 v,h,dc,ddl,ddr,vr,hd,vl,hu:  9%  9%  3% 13% 17% 16% 14% 10%  9%
    x264 [info]: i8c dc,h,v,p: 58% 16% 19%  6%
    x264 [info]: ref P L0: 55.3% 26.6% 18.1%
    x264 [info]: ref B L0: 72.9% 27.1%
    x264 [info]: SSIM Mean Y:0.9451914 (12.612db)
    x264 [info]: PSNR Mean Y:41.704 U:53.222 V:53.635 Avg:43.234 Global:42.654 kb/s:5486.02

    Скриншоты 480p Release

    Скриншоты 720p Release

    -

    Релиз подготовлен для просмотра на Apple TV, iPad, iPhone, iPod Touch.
    Для просмотра данного релиза на компьютере с ОС Windows рекомендуется использовать VLC media player
    Скачать .torrent

    Скачать торрент-файл бесплатно и на максимальной скорости!

    Как скачивать? · Что такое торрент? · Рейтинг и ограничения

    !ВНИМАНИЕ!
    Сайт не распространяет и не хранит электронные версии произведений, а занимается лишь лишь предоставлением доступа к создаваемому пользователями каталогу ссылок на торрент-файлы, которые содержат только списки хеш-сумм, убедительная просьба с жалобами обращаться напрямую к пользователю. Файлы для обмена на трекере предоставлены пользователями сайта, и администрация не несёт ответственности за их содержание. Просьба не заливать файлы, защищенные авторскими правами, а также файлы нелегального содержания!


    _________________
    [Профиль] [ЛС]
    Показать сообщения:    
    Ответить на тему

    Текущее время: Сегодня, в 18:19

    Часовой пояс: GMT + 2



    Вы не можете начинать темы
    Вы не можете отвечать на сообщения
    Вы не можете редактировать свои сообщения
    Вы не можете удалять свои сообщения
    Вы не можете голосовать в опросах
    Вы не можете прикреплять файлы к сообщениям
    Вы не можете скачивать файлы