BitTorrentTracker PerecTracker.org
BitTorrentTracker PerecTracker.org
    
Регистрация  ·  Вход
 
 · 
Забыли пароль?

  • Напролом / The Hard Way (Джон Бэдэм) [1991, США, боевик, комедия, криминал, BDRip HD (720p), SD (480p)] DUB, MVO, DVO, AVO, Original + SUB (rus, eng)

    Ответить на тему
     
    Автор Сообщение

    Flirldrerve

    Создавать темы 27-Окт-2015 05:18

           

    [Цитировать]

    Напролом / The Hard Way
    "Наши стволы без дела не болтаются!"
    7.385 / 10
    -Год выпуска: 1991
    Страна: США
    Жанр: боевик, комедия, криминал
    Продолжительность: 111 мин.
    Перевод: Профессиональный дублированный перевод, многоголосый закадровый перевод, двухголосый закадровый перевод и одноголосый закадровый авторский перевод
    Оригинальная аудиодорожка: Есть
    Cубтитры: Русские форсированные, русские полные и английские полные SDH
    Режиссёр: Джон Бэдэм
    Сценарий: Лем Доббс, Дэниэл Пайн, Майкл Козолл
    Продюсер: Роб Коэн, Уильям Сэкхайм, Ди Джей Карузо
    Оператор: Доналд МакЭлпайн, Роберт Праймс
    Композитор: Артур Б. Рубинстайн
    Художник: Филип Харрисон, Джон Касарда, Мэри Е. Вогт
    Монтаж: Тони Ломбардо, Фрэнк Моррисс
    В ролях: Майкл Дж. Фокс, Джеймс Вудс, Стивен Лэнг, Аннабелла Шиорра, Джон Каподиче, Луис Гусман, ЭлЭл Кул Джей, Мэри Мара, Делрой Линдо, Конрад Робертс
    Сборы в США: $25 895 485
    Сборы в мире: + $39 700 000 = $65 595 485
    Мировая премьера: 8 марта 1991
    Релиз на DVD: 29 ноября 2012, Neoclassica
    Описание: Ник Лэнг - знаменитая голливудская звезда. У Ника есть лишь одна мечта: расстаться со своим имиджем "славного парня" и сыграть настоящего "крутого" героя. И тут, как раз кстати, возникает возможность исполнить роль отважного детектива.
    Чтобы как можно лучше узнать о своем новом персонаже, Лэнг отправляется в Нью-Йорк, где знакомится с бывалым сыщиком Джоном Моссом, который должен помочь ему освоить полицейские приемы. Странная парочка отправляется на поиски самого настоящего серийного убийцы, терроризирующего весь город...-Качество исходника: Blu-Ray EUR 1080p
    Качество: BDRip
    Тип: 480p 720p
    Контейнер: m4v
    Видео: 640x362 анаморф 852x362 at 23.976 fps, MPEG-4 AVC, ~1700 kbps avg
    Видео: 1280x544 at 23.976 fps, MPEG-4 AVC, ~7000 kbps avg
    Аудио#1: Russian: 48 kHz, ААС, 2/0 (L,R), ~128.00 / 160.00 kbps avg |Дубляж, R5|
    Аудио#2: Russian: 48 kHz, ААС, 2/0 (L,R), ~128.00 / 160.00 kbps avg |Многоголосый закадровый, Неоклассика|
    Аудио#3: Russian: 48 kHz, ААС, 2/0 (L,R), ~128.00 / 160.00 kbps avg |Многоголосый закадровый, СТС|
    Аудио#4: Russian: 48 kHz, ААС, 2/0 (L,R), ~128.00 / 160.00 kbps avg |Многоголосый закадровый, 1 Канал|
    Аудио#5: Russian: 48 kHz, ААС, 2/0 (L,R), ~128.00 / 160.00 kbps avg |Многоголосый закадровый, ОРТ|
    Аудио#6: Russian: 48 kHz, ААС, 2/0 (L,R), ~128.00 / 160.00 kbps avg |Двухголосый закадровый, Премьер Видео|
    Аудио#7: Russian: 48 kHz, ААС, 2/0 (L,R), ~128.00 / 160.00 kbps avg |Двухголосый закадровый, студия Ульпаней Элром|
    Аудио#8: Russian: 48 kHz, ААС, 2/0 (L,R), ~128.00 / 160.00 kbps avg |Одноголосый закадровый, Вартан Дохалов|
    Аудио#9: Russian: 48 kHz, ААС, 2/0 (L,R), ~128.00 / 160.00 kbps avg |Одноголосый закадровый, Василий Горчаков|
    Аудио#10: Russian: 48 kHz, ААС, 2/0 (L,R), ~128.00 / 160.00 kbps avg |Одноголосый закадровый, Жучков|
    Аудио#11: Russian: 48 kHz, ААС, 2/0 (L,R), ~128.00 / 160.00 kbps avg |Одноголосый закадровый, Paul Bunyan|
    Аудио#12: English: 48 kHz, ААС, 2/0 (L,R), ~128.00 / 160.00 kbps avg
    Субтитры №1: Russian: |Форсированные|
    Субтитры №2: Russian: |Полные|
    Субтитры №3: English: |Полные, SDH|-

    из книги «3500 кинорецензий»


    Криминальная комедия-боевик (Сергей Кудрявцев 6.5/10)
    Буквальный перевод «Трудный путь» не совсем точен. Ведь полицейский Джон Мосс, непримиримый блюститель закона из Нью-Йорка, всегда предпочитает идти не в обход, а напролом, порой действительно затрудняя себе жизнь. Но и известный киноактёр Ник Лэнг, любимец публики, пожелавший после приключенческо-развлекательных ролей вжиться в образ «крутого копа», пожалуй, не уступит ему по упорству и упрямству характера, поступая сначала по прихоти звезды, а потом доказывая свой норов на самом прямом и коротком пути к намеченной цели.
    Как и в предыдущей ленте «Птичка на проводах», режиссёр Джон Бэдэм «разогревается» ближе к финалу, но, возможно, чересчур усердствует в нагромождении эффектных трюковых сцен, излишне продлевая действие ради демонстрации опасных ситуаций, в которых оказываются Мосс и Лэнг, пытаясь поймать неистребимого маньяка-убийцу. Положение спасает комедийное сопоставление реальных и «киношных» приключений, выпадающих на долю Ника Лэнга, особенно в пародийном парафразе на темы Альфреда Хичкока и Стивена Спилберга. Хотя открытый именно последним (как продюсером суперзрелищного кино) актёр Майкл Дж. Фокс не всегда удачно комикует в картине «Напролом», выбирая слишком простые, прямолинейные приёмы при воплощении своего персонажа. Начинает надоедать и Джеймс Вудс в «вечной» роли полицейского, который не хватает звёзд с неба, добивается справедливости не сразу и с трудом, в отличие от более суперменских героев Клинта Иствуда и Чарльза Бронсона.
    1992

    -

    iTunes Meta Tags for country us

    Name: The Hard Way
    Artist: John Badham
    Genre: Action & Adventure
    Release Date: 1991-03-08T08:00:00Z
    Description: Ник Лэнг - знаменитая голливудская звезда. У Ника есть лишь одна мечта: расстаться со своим имиджем "славного парня" и сыграть настоящего "крутого" героя. И тут, как раз кстати, возникает возможность исполнить роль отважного детектива...
    Long Description: Ник Лэнг - знаменитая голливудская звезда. У Ника есть лишь одна мечта: расстаться со своим имиджем "славного парня" и сыграть настоящего "крутого" героя. И тут, как раз кстати, возникает возможность исполнить роль отважного детектива.
    Чтобы как можно лучше узнать о своем новом персонаже, Лэнг отправляется в Нью-Йорк, где знакомится с бывалым сыщиком Джоном Моссом, который должен помочь ему освоить полицейские приемы. Странная парочка отправляется на поиски самого настоящего серийного убийцы, терроризирующего весь город...
    Rating: R
    Rating Annotation: Rated R For strong language.
    Studio: Universal Pictures
    Cast: Майкл Дж. Фокс, Джеймс Вудс, Стивен Лэнг, Аннабелла Шиорра, Джон Каподиче, Луис Гусман, ЭлЭл Кул Джей, Мэри Мара, Делрой Линдо, Конрад Робертс
    Director: Джон Бэдэм
    Producers: Роб Коэн, Уильям Сэкхайм, Ди Джей Карузо
    Screenwriters: Лем Доббс, Дэниэл Пайн, Майкл Козолл
    Copyright: © 1991 Universal City Studios, Inc. All Rights Reserved.
    contentID: 288993073
    XID: Apple:vendor_id:1991-4059
    Sort Name: Hard Way

    MediaInfo 480p Release

    General
    Complete name : The Hard Way.m4v
    Format : MPEG-4
    Codec ID : M4V
    File size : 2.46 GiB
    Duration : 1h 50mn
    Overall bit rate mode : Variable
    Overall bit rate : 3 183 Kbps
    Movie name : The Hard Way
    Performer : John Badham
    Director : Джон Бэдэм
    Actor : Майкл Дж. Фокс / Джеймс Вудс / Стивен Лэнг / Аннабелла Шиорра / Джон Каподиче / Луис Гусман / ЭлЭл Кул Джей / Мэри Мара / Делрой Линдо / Конрад Робертс
    Screenplay by : Лем Доббс / Дэниэл Пайн / Майкл Козолл
    Producer : Роб Коэн / Уильям Сэкхайм / Ди Джей Карузо
    Production studio : Universal Pictures
    Genre : Action & Adventure
    ContentType : Short Film
    Description : Ник Лэнг - знаменитая голливудская звезда. У Ника есть лишь одна мечта: расстаться со своим имиджем "славного парня" и сыграть настоящего "крутого" героя. И тут, как раз кстати, возникает возможность исполнить роль отважного детектива...
    Recorded date : UTC 1991-03-08 08:00:00
    Encoded date : UTC 2015-10-09 07:58:39
    Tagged date : UTC 2015-10-12 15:46:06
    Copyright : © 1991 Universal City Studios, Inc. All Rights Reserved.
    Cover : Yes
    Rating : None
    Title/Sort : Hard Way
    LongDescription : Ник Лэнг - знаменитая голливудская звезда. У Ника есть лишь одна мечта: расстаться со своим имиджем "славного парня" и сыграть настоящего "крутого" героя. И тут, как раз кстати, возникает возможность исполнить роль отважного детектива. / Чтобы как можно лучше узнать о своем новом персонаже, Лэнг отправляется в Нью-Йорк, где знакомится с бывалым сыщиком Джоном Моссом, который должен помочь ему освоить полицейские приемы. Странная парочка отправляется на поиски самого настоящего серийного убийцы, терроризирующего весь город...
    AppleStoreCatalogID : 288993073
    Vendor : Apple:vendor_id:1991-4059
    ContentRating : mpaa|R|400|Rated R For strong language.
    Video #1
    ID : 1
    Format : AVC
    Format/Info : Advanced Video Codec
    Format profile : Baseline@L3
    Format settings, CABAC : No
    Format settings, ReFrames : 2 frames
    Codec ID : avc1
    Codec ID/Info : Advanced Video Coding
    Duration : 1h 50mn
    Bit rate : 1 700 Kbps
    Width : 640 pixels
    Height : 362 pixels
    Display aspect ratio : 2.35:1
    Original display aspect ratio : 2.35:1
    Frame rate mode : Variable
    Frame rate : 23.976 fps
    Minimum frame rate : 11.989 fps
    Maximum frame rate : 23.981 fps
    Color space : YUV
    Chroma subsampling : 4:2:0
    Bit depth : 8 bits
    Scan type : Progressive
    Bits/(Pixel*Frame) : 0.306
    Stream size : 1.31 GiB (53%)
    Title : Main Program
    Writing library : x264 core 130 r2273 b3065e6
    Encoding settings : cabac=0 / ref=2 / deblock=1:0:0 / analyse=0x1:0x111 / me=umh / subme=6 / psy=1 / psy_rd=1.00:0.00 / mixed_ref=1 / me_range=16 / chroma_me=1 / trellis=0 / 8x8dct=0 / cqm=0 / deadzone=21,11 / fast_pskip=1 / chroma_qp_offset=-2 / threads=18 / lookahead_threads=2 / sliced_threads=0 / nr=0 / decimate=1 / interlaced=0 / bluray_compat=0 / constrained_intra=0 / bframes=0 / weightp=0 / keyint=240 / keyint_min=24 / scenecut=40 / intra_refresh=0 / rc_lookahead=40 / rc=2pass / mbtree=1 / bitrate=1700 / ratetol=1.0 / qcomp=0.60 / qpmin=0 / qpmax=69 / qpstep=4 / cplxblur=20.0 / qblur=0.5 / vbv_maxrate=5000 / vbv_bufsize=5000 / nal_hrd=none / ip_ratio=1.40 / aq=1:1.00
    Language : English
    Encoded date : UTC 2015-10-09 07:58:39
    Tagged date : UTC 2015-10-09 07:58:44
    Color range : Limited
    Color primaries : BT.709
    Transfer characteristics : BT.709
    Matrix coefficients : BT.709
    Video #2
    ID : 18
    Format : JPEG
    Codec ID : jpeg
    Duration : 1h 50mn
    Bit rate mode : Variable
    Bit rate : 702 bps
    Width : 640 pixels
    Height : 271 pixels
    Display aspect ratio : 2.35:1
    Frame rate mode : Variable
    Frame rate : 0.002 fps
    Minimum frame rate : 0.001 fps
    Maximum frame rate : 0.011 fps
    Color space : YUV
    Chroma subsampling : 4:2:0
    Bit depth : 8 bits
    Compression mode : Lossy
    Bits/(Pixel*Frame) : 2.024
    Stream size : 685 KiB (0%)
    Title : Chapter Images
    Language : English
    Encoded date : UTC 2015-10-12 15:28:15
    Tagged date : UTC 2015-10-12 15:28:15
    Audio #1
    ID : 2
    Format : AAC
    Format/Info : Advanced Audio Codec
    Format profile : LC
    Codec ID : 40
    Duration : 1h 50mn
    Bit rate mode : Variable
    Bit rate : 132 Kbps
    Maximum bit rate : 221 Kbps
    Channel(s) : 2 channels
    Channel positions : Front: L R
    Sampling rate : 48.0 KHz
    Compression mode : Lossy
    Stream size : 104 MiB (4%)
    Title : Russian DUB Blu-Ray EUR Stereo
    Language : Russian
    Encoded date : UTC 2015-10-09 07:58:39
    Tagged date : UTC 2015-10-09 07:58:49
    Audio #2
    ID : 3
    Format : AAC
    Format/Info : Advanced Audio Codec
    Format profile : LC
    Codec ID : 40
    Duration : 1h 50mn
    Bit rate mode : Variable
    Bit rate : 128 Kbps
    Maximum bit rate : 200 Kbps
    Channel(s) : 2 channels
    Channel positions : Front: L R
    Sampling rate : 48.0 KHz
    Compression mode : Lossy
    Stream size : 101 MiB (4%)
    Title : Russian MVO Neoclassica Stereo
    Language : Russian
    Encoded date : UTC 2015-10-09 07:58:39
    Tagged date : UTC 2015-10-09 07:58:48
    Audio #3
    ID : 4
    Format : AAC
    Format/Info : Advanced Audio Codec
    Format profile : LC
    Codec ID : 40
    Duration : 1h 50mn
    Bit rate mode : Variable
    Bit rate : 107 Kbps
    Maximum bit rate : 176 Kbps
    Channel(s) : 2 channels
    Channel positions : Front: L R
    Sampling rate : 48.0 KHz
    Compression mode : Lossy
    Stream size : 84.6 MiB (3%)
    Title : Russian MVO CTC Stereo
    Language : Russian
    Encoded date : UTC 2015-10-09 14:37:59
    Tagged date : UTC 2015-10-09 14:38:11
    Audio #4
    ID : 5
    Format : AAC
    Format/Info : Advanced Audio Codec
    Format profile : LC
    Codec ID : 40
    Duration : 1h 50mn
    Bit rate mode : Variable
    Bit rate : 106 Kbps
    Maximum bit rate : 195 Kbps
    Channel(s) : 2 channels
    Channel positions : Front: L R
    Sampling rate : 48.0 KHz
    Compression mode : Lossy
    Stream size : 83.8 MiB (3%)
    Title : Russian MVO 1 Channel Stereo
    Language : Russian
    Encoded date : UTC 2015-10-09 14:37:59
    Tagged date : UTC 2015-10-09 14:38:11
    Audio #5
    ID : 6
    Format : AAC
    Format/Info : Advanced Audio Codec
    Format profile : LC
    Codec ID : 40
    Duration : 1h 50mn
    Bit rate mode : Variable
    Bit rate : 107 Kbps
    Maximum bit rate : 168 Kbps
    Channel(s) : 2 channels
    Channel positions : Front: L R
    Sampling rate : 48.0 KHz
    Compression mode : Lossy
    Stream size : 84.9 MiB (3%)
    Title : Russian MVO OPT Stereo
    Language : Russian
    Encoded date : UTC 2015-10-09 14:37:59
    Tagged date : UTC 2015-10-09 14:38:11
    Audio #6
    ID : 7
    Format : AAC
    Format/Info : Advanced Audio Codec
    Format profile : LC
    Codec ID : 40
    Duration : 1h 50mn
    Bit rate mode : Variable
    Bit rate : 132 Kbps
    Maximum bit rate : 193 Kbps
    Channel(s) : 2 channels
    Channel positions : Front: L R
    Sampling rate : 48.0 KHz
    Compression mode : Lossy
    Stream size : 104 MiB (4%)
    Title : Russain DVO Premier Video Stereo
    Language : Russian
    Encoded date : UTC 2015-10-09 14:37:59
    Tagged date : UTC 2015-10-09 14:38:11
    Audio #7
    ID : 8
    Format : AAC
    Format/Info : Advanced Audio Codec
    Format profile : LC
    Codec ID : 40
    Duration : 1h 50mn
    Bit rate mode : Variable
    Bit rate : 132 Kbps
    Maximum bit rate : 182 Kbps
    Channel(s) : 2 channels
    Channel positions : Front: L R
    Sampling rate : 48.0 KHz
    Compression mode : Lossy
    Stream size : 104 MiB (4%)
    Title : Russain DVO Ulpaney Elrom Stereo
    Language : Russian
    Encoded date : UTC 2015-10-09 14:37:59
    Tagged date : UTC 2015-10-09 14:38:11
    Audio #8
    ID : 9
    Format : AAC
    Format/Info : Advanced Audio Codec
    Format profile : LC
    Codec ID : 40
    Duration : 1h 50mn
    Bit rate mode : Variable
    Bit rate : 102 Kbps
    Maximum bit rate : 205 Kbps
    Channel(s) : 2 channels
    Channel positions : Front: L R
    Sampling rate : 48.0 KHz
    Compression mode : Lossy
    Stream size : 80.6 MiB (3%)
    Title : Russian AVO V.Dohalov Stereo
    Language : Russian
    Encoded date : UTC 2015-10-09 14:37:59
    Tagged date : UTC 2015-10-09 14:38:11
    Audio #9
    ID : 10
    Format : AAC
    Format/Info : Advanced Audio Codec
    Format profile : LC
    Codec ID : 40
    Duration : 1h 50mn
    Bit rate mode : Variable
    Bit rate : 110 Kbps
    Maximum bit rate : 216 Kbps
    Channel(s) : 2 channels
    Channel positions : Front: L R
    Sampling rate : 48.0 KHz
    Compression mode : Lossy
    Stream size : 87.3 MiB (3%)
    Title : Russian AVO V.Gorchakov Stereo
    Language : Russian
    Encoded date : UTC 2015-10-09 14:37:59
    Tagged date : UTC 2015-10-09 14:38:11
    Audio #10
    ID : 11
    Format : AAC
    Format/Info : Advanced Audio Codec
    Format profile : LC
    Codec ID : 40
    Duration : 1h 50mn
    Bit rate mode : Variable
    Bit rate : 132 Kbps
    Maximum bit rate : 212 Kbps
    Channel(s) : 2 channels
    Channel positions : Front: L R
    Sampling rate : 48.0 KHz
    Compression mode : Lossy
    Stream size : 104 MiB (4%)
    Title : Russian AVO Zhuchkov Stereo
    Language : Russian
    Encoded date : UTC 2015-10-09 14:37:59
    Tagged date : UTC 2015-10-09 14:38:11
    Audio #11
    ID : 12
    Format : AAC
    Format/Info : Advanced Audio Codec
    Format profile : LC
    Codec ID : 40
    Duration : 1h 50mn
    Bit rate mode : Variable
    Bit rate : 132 Kbps
    Maximum bit rate : 191 Kbps
    Channel(s) : 2 channels
    Channel positions : Front: L R
    Sampling rate : 48.0 KHz
    Compression mode : Lossy
    Stream size : 106 MiB (4%)
    Title : Russian AVO Paul Bunyan Stereo
    Language : Russian
    Encoded date : UTC 2015-10-09 14:37:59
    Tagged date : UTC 2015-10-09 14:38:11
    Audio #12
    ID : 13
    Format : AAC
    Format/Info : Advanced Audio Codec
    Format profile : LC
    Codec ID : 40
    Duration : 1h 50mn
    Bit rate mode : Variable
    Bit rate : 139 Kbps
    Maximum bit rate : 201 Kbps
    Channel(s) : 2 channels
    Channel positions : Front: L R
    Sampling rate : 48.0 KHz
    Compression mode : Lossy
    Stream size : 110 MiB (4%)
    Title : English Stereo
    Language : English
    Encoded date : UTC 2015-10-09 14:38:53
    Tagged date : UTC 2015-10-09 14:39:06
    Text #1
    ID : 14
    Format : Timed Text
    Muxing mode : sbtl
    Codec ID : tx3g
    Duration : 1h 39mn
    Bit rate mode : Variable
    Bit rate : 1 bps
    Stream size : 973 Bytes (0%)
    Title : Russian Forced Subtitle
    Language : Russian
    Encoded date : UTC 2015-10-09 18:29:09
    Tagged date : UTC 2015-10-09 18:29:09
    Text #2
    ID : 15
    Format : Timed Text
    Muxing mode : sbtl
    Codec ID : tx3g
    Duration : 1h 47mn
    Bit rate mode : Variable
    Bit rate : 123 bps
    Stream size : 96.8 KiB (0%)
    Title : Russian Subtitle
    Language : Russian
    Encoded date : UTC 2015-10-09 18:29:09
    Tagged date : UTC 2015-10-09 18:29:09
    Text #3
    ID : 16
    Format : Timed Text
    Muxing mode : sbtl
    Codec ID : tx3g
    Duration : 1h 48mn
    Bit rate mode : Variable
    Bit rate : 94 bps
    Stream size : 75.3 KiB (0%)
    Title : English SDH Subtitle
    Language : English
    Encoded date : UTC 2015-10-12 15:26:45
    Tagged date : UTC 2015-10-12 15:26:46
    Menu #1
    00:00:00.000 : 1
    00:11:02.161 : 2
    00:16:26.736 : 3
    00:28:26.496 : 4
    00:39:46.092 : 5
    00:49:03.107 : 6
    00:55:49.054 : 7
    01:05:23.837 : 8
    01:10:38.484 : 9
    01:19:40.693 : 10
    01:25:19.072 : 11
    01:30:45.315 : 12
    01:33:30.772 : 13
    01:38:31.697 : 14
    01:45:44.797 : 15
    01:47:17.014 : 16
    Menu #2
    ID : 17
    Codec ID : text
    Duration : 1h 50mn
    Title : Chapter Titles
    Language : English
    Encoded date : UTC 2015-10-12 15:28:10
    Tagged date : UTC 2015-10-12 15:28:10
    00:00:00.000 : 1
    00:11:02.161 : 2
    00:16:26.736 : 3
    00:28:26.496 : 4
    00:39:46.092 : 5
    00:49:03.107 : 6
    00:55:49.054 : 7
    01:05:23.837 : 8
    01:10:38.484 : 9
    01:19:40.693 : 10
    01:25:19.072 : 11
    01:30:45.315 : 12
    01:33:30.772 : 13
    01:38:31.697 : 14
    01:45:44.797 : 15
    01:47:17.014 : 16
    Bit rate mode : VBR

    MediaInfo 720p Release

    General
    Complete name : The Hard Way (HD).m4v
    Format : MPEG-4
    Codec ID : M4V
    File size : 6.82 GiB
    Duration : 1h 50mn
    Overall bit rate mode : Variable
    Overall bit rate : 8 820 Kbps
    Movie name : The Hard Way
    Performer : John Badham
    Director : Джон Бэдэм
    Actor : Майкл Дж. Фокс / Джеймс Вудс / Стивен Лэнг / Аннабелла Шиорра / Джон Каподиче / Луис Гусман / ЭлЭл Кул Джей / Мэри Мара / Делрой Линдо / Конрад Робертс
    Screenplay by : Лем Доббс / Дэниэл Пайн / Майкл Козолл
    Producer : Роб Коэн / Уильям Сэкхайм / Ди Джей Карузо
    Production studio : Universal Pictures
    Genre : Action & Adventure
    ContentType : Short Film
    Description : Ник Лэнг - знаменитая голливудская звезда. У Ника есть лишь одна мечта: расстаться со своим имиджем "славного парня" и сыграть настоящего "крутого" героя. И тут, как раз кстати, возникает возможность исполнить роль отважного детектива...
    Recorded date : UTC 1991-03-08 08:00:00
    Encoded date : UTC 2015-10-09 08:10:16
    Tagged date : UTC 2015-10-12 15:41:01
    Copyright : © 1991 Universal City Studios, Inc. All Rights Reserved.
    Cover : Yes
    Rating : None
    Title/Sort : Hard Way
    LongDescription : Ник Лэнг - знаменитая голливудская звезда. У Ника есть лишь одна мечта: расстаться со своим имиджем "славного парня" и сыграть настоящего "крутого" героя. И тут, как раз кстати, возникает возможность исполнить роль отважного детектива. / Чтобы как можно лучше узнать о своем новом персонаже, Лэнг отправляется в Нью-Йорк, где знакомится с бывалым сыщиком Джоном Моссом, который должен помочь ему освоить полицейские приемы. Странная парочка отправляется на поиски самого настоящего серийного убийцы, терроризирующего весь город...
    HDVideo : Yes
    AppleStoreCatalogID : 288993073
    Vendor : Apple:vendor_id:1991-4059
    ContentRating : mpaa|R|400|Rated R For strong language.
    Video #1
    ID : 1
    Format : AVC
    Format/Info : Advanced Video Codec
    Format profile : High@L3.1
    Format settings, CABAC : No
    Format settings, ReFrames : 3 frames
    Codec ID : avc1
    Codec ID/Info : Advanced Video Coding
    Duration : 1h 50mn
    Source duration : 1h 50mn
    Bit rate : 7 000 Kbps
    Width : 1 280 pixels
    Height : 544 pixels
    Display aspect ratio : 2.35:1
    Frame rate mode : Variable
    Frame rate : 23.976 fps
    Minimum frame rate : 23.974 fps
    Maximum frame rate : 23.981 fps
    Color space : YUV
    Chroma subsampling : 4:2:0
    Bit depth : 8 bits
    Scan type : Progressive
    Bits/(Pixel*Frame) : 0.419
    Stream size : 5.40 GiB (79%)
    Source stream size : 5.40 GiB (79%)
    Title : Main Program
    Writing library : x264 core 130 r2273 b3065e6
    Encoding settings : cabac=0 / ref=3 / deblock=1:-3:-2 / analyse=0x3:0x113 / me=umh / subme=9 / psy=1 / psy_rd=0.80:0.25 / mixed_ref=1 / me_range=32 / chroma_me=1 / trellis=0 / 8x8dct=1 / cqm=0 / deadzone=6,6 / fast_pskip=0 / chroma_qp_offset=-2 / threads=18 / lookahead_threads=1 / sliced_threads=0 / nr=0 / decimate=0 / interlaced=0 / bluray_compat=0 / constrained_intra=0 / bframes=3 / b_pyramid=0 / b_adapt=2 / b_bias=0 / direct=1 / weightb=0 / open_gop=0 / weightp=0 / keyint=240 / keyint_min=24 / scenecut=40 / intra_refresh=0 / rc_lookahead=40 / rc=2pass / mbtree=1 / bitrate=7000 / ratetol=1.0 / qcomp=0.80 / qpmin=0 / qpmax=69 / qpstep=4 / cplxblur=20.0 / qblur=0.5 / vbv_maxrate=9500 / vbv_bufsize=9500 / nal_hrd=none / ip_ratio=1.10 / aq=1:0.50
    Language : English
    Encoded date : UTC 2015-10-09 08:10:16
    Tagged date : UTC 2015-10-09 08:10:31
    Color range : Limited
    Color primaries : BT.709
    Transfer characteristics : BT.709
    Matrix coefficients : BT.709
    Video #2
    ID : 18
    Format : JPEG
    Codec ID : jpeg
    Duration : 1h 50mn
    Bit rate mode : Variable
    Bit rate : 755 bps
    Width : 640 pixels
    Height : 272 pixels
    Display aspect ratio : 2.35:1
    Frame rate mode : Variable
    Frame rate : 0.002 fps
    Minimum frame rate : 0.001 fps
    Maximum frame rate : 0.011 fps
    Color space : YUV
    Chroma subsampling : 4:2:0
    Bit depth : 8 bits
    Compression mode : Lossy
    Bits/(Pixel*Frame) : 2.169
    Stream size : 737 KiB (0%)
    Title : Chapter Images
    Language : English
    Encoded date : UTC 2015-10-12 15:27:51
    Tagged date : UTC 2015-10-12 15:27:51
    Audio #1
    ID : 2
    Format : AAC
    Format/Info : Advanced Audio Codec
    Format profile : LC
    Codec ID : 40
    Duration : 1h 50mn
    Bit rate mode : Variable
    Bit rate : 165 Kbps
    Maximum bit rate : 272 Kbps
    Channel(s) : 2 channels
    Channel positions : Front: L R
    Sampling rate : 48.0 KHz
    Compression mode : Lossy
    Stream size : 131 MiB (2%)
    Title : Russian DUB Blu-Ray EUR Stereo
    Language : Russian
    Encoded date : UTC 2015-10-09 08:10:16
    Tagged date : UTC 2015-10-09 08:10:36
    Audio #2
    ID : 3
    Format : AAC
    Format/Info : Advanced Audio Codec
    Format profile : LC
    Codec ID : 40
    Duration : 1h 50mn
    Bit rate mode : Variable
    Bit rate : 159 Kbps
    Maximum bit rate : 242 Kbps
    Channel(s) : 2 channels
    Channel positions : Front: L R
    Sampling rate : 48.0 KHz
    Compression mode : Lossy
    Stream size : 126 MiB (2%)
    Title : Russian MVO Neoclassica Stereo
    Language : Russian
    Encoded date : UTC 2015-10-09 08:10:16
    Tagged date : UTC 2015-10-09 08:10:35
    Audio #3
    ID : 4
    Format : AAC
    Format/Info : Advanced Audio Codec
    Format profile : LC
    Codec ID : 40
    Duration : 1h 50mn
    Bit rate mode : Variable
    Bit rate : 129 Kbps
    Maximum bit rate : 212 Kbps
    Channel(s) : 2 channels
    Channel positions : Front: L R
    Sampling rate : 48.0 KHz
    Compression mode : Lossy
    Stream size : 102 MiB (1%)
    Title : Russian MVO CTC Stereo
    Language : Russian
    Encoded date : UTC 2015-10-09 13:32:07
    Tagged date : UTC 2015-10-09 13:32:12
    Audio #4
    ID : 5
    Format : AAC
    Format/Info : Advanced Audio Codec
    Format profile : LC
    Codec ID : 40
    Duration : 1h 50mn
    Bit rate mode : Variable
    Bit rate : 128 Kbps
    Maximum bit rate : 244 Kbps
    Channel(s) : 2 channels
    Channel positions : Front: L R
    Sampling rate : 48.0 KHz
    Compression mode : Lossy
    Stream size : 101 MiB (1%)
    Title : Russian MVO 1 Channel Stereo
    Language : Russian
    Encoded date : UTC 2015-10-09 13:32:45
    Tagged date : UTC 2015-10-09 13:32:50
    Audio #5
    ID : 6
    Format : AAC
    Format/Info : Advanced Audio Codec
    Format profile : LC
    Codec ID : 40
    Duration : 1h 50mn
    Bit rate mode : Variable
    Bit rate : 132 Kbps
    Maximum bit rate : 204 Kbps
    Channel(s) : 2 channels
    Channel positions : Front: L R
    Sampling rate : 48.0 KHz
    Compression mode : Lossy
    Stream size : 105 MiB (2%)
    Title : Russian MVO OPT Stereo
    Language : Russian
    Encoded date : UTC 2015-10-09 13:32:45
    Tagged date : UTC 2015-10-09 13:32:50
    Audio #6
    ID : 7
    Format : AAC
    Format/Info : Advanced Audio Codec
    Format profile : LC
    Codec ID : 40
    Duration : 1h 50mn
    Bit rate mode : Variable
    Bit rate : 165 Kbps
    Maximum bit rate : 237 Kbps
    Channel(s) : 2 channels
    Channel positions : Front: L R
    Sampling rate : 48.0 KHz
    Compression mode : Lossy
    Stream size : 130 MiB (2%)
    Title : Russain DVO Premier Video Stereo
    Language : Russian
    Encoded date : UTC 2015-10-09 13:33:10
    Tagged date : UTC 2015-10-09 13:33:14
    Audio #7
    ID : 8
    Format : AAC
    Format/Info : Advanced Audio Codec
    Format profile : LC
    Codec ID : 40
    Duration : 1h 50mn
    Bit rate mode : Variable
    Bit rate : 164 Kbps
    Maximum bit rate : 221 Kbps
    Channel(s) : 2 channels
    Channel positions : Front: L R
    Sampling rate : 48.0 KHz
    Compression mode : Lossy
    Stream size : 130 MiB (2%)
    Title : Russain DVO Ulpaney Elrom Stereo
    Language : Russian
    Encoded date : UTC 2015-10-09 13:33:37
    Tagged date : UTC 2015-10-09 13:33:42
    Audio #8
    ID : 9
    Format : AAC
    Format/Info : Advanced Audio Codec
    Format profile : LC
    Codec ID : 40
    Duration : 1h 50mn
    Bit rate mode : Variable
    Bit rate : 124 Kbps
    Maximum bit rate : 242 Kbps
    Channel(s) : 2 channels
    Channel positions : Front: L R
    Sampling rate : 48.0 KHz
    Compression mode : Lossy
    Stream size : 98.1 MiB (1%)
    Title : Russian AVO V.Dohalov Stereo
    Language : Russian
    Encoded date : UTC 2015-10-09 13:34:50
    Tagged date : UTC 2015-10-09 13:34:56
    Audio #9
    ID : 10
    Format : AAC
    Format/Info : Advanced Audio Codec
    Format profile : LC
    Codec ID : 40
    Duration : 1h 50mn
    Bit rate mode : Variable
    Bit rate : 137 Kbps
    Maximum bit rate : 267 Kbps
    Channel(s) : 2 channels
    Channel positions : Front: L R
    Sampling rate : 48.0 KHz
    Compression mode : Lossy
    Stream size : 109 MiB (2%)
    Title : Russian AVO V.Gorchakov Stereo
    Language : Russian
    Encoded date : UTC 2015-10-09 13:34:50
    Tagged date : UTC 2015-10-09 13:34:56
    Audio #10
    ID : 11
    Format : AAC
    Format/Info : Advanced Audio Codec
    Format profile : LC
    Codec ID : 40
    Duration : 1h 50mn
    Bit rate mode : Variable
    Bit rate : 164 Kbps
    Maximum bit rate : 255 Kbps
    Channel(s) : 2 channels
    Channel positions : Front: L R
    Sampling rate : 48.0 KHz
    Compression mode : Lossy
    Stream size : 130 MiB (2%)
    Title : Russian AVO Zhuchkov Stereo
    Language : Russian
    Encoded date : UTC 2015-10-09 13:34:50
    Tagged date : UTC 2015-10-09 13:34:56
    Audio #11
    ID : 12
    Format : AAC
    Format/Info : Advanced Audio Codec
    Format profile : LC
    Codec ID : 40
    Duration : 1h 50mn
    Bit rate mode : Variable
    Bit rate : 166 Kbps
    Maximum bit rate : 229 Kbps
    Channel(s) : 2 channels
    Channel positions : Front: L R
    Sampling rate : 48.0 KHz
    Compression mode : Lossy
    Stream size : 132 MiB (2%)
    Title : Russian AVO Paul Bunyan Stereo
    Language : Russian
    Encoded date : UTC 2015-10-09 13:35:22
    Tagged date : UTC 2015-10-09 13:35:27
    Audio #12
    ID : 13
    Format : AAC
    Format/Info : Advanced Audio Codec
    Format profile : LC
    Codec ID : 40
    Duration : 1h 50mn
    Bit rate mode : Variable
    Bit rate : 177 Kbps
    Maximum bit rate : 241 Kbps
    Channel(s) : 2 channels
    Channel positions : Front: L R
    Sampling rate : 48.0 KHz
    Compression mode : Lossy
    Stream size : 140 MiB (2%)
    Title : English Stereo
    Language : English
    Encoded date : UTC 2015-10-09 13:35:35
    Tagged date : UTC 2015-10-09 13:35:50
    Text #1
    ID : 14
    Format : Timed Text
    Muxing mode : sbtl
    Codec ID : tx3g
    Duration : 1h 39mn
    Bit rate mode : Variable
    Bit rate : 1 bps
    Stream size : 973 Bytes (0%)
    Title : Russian Forced Subtitle
    Language : Russian
    Encoded date : UTC 2015-10-09 18:29:06
    Tagged date : UTC 2015-10-09 18:29:06
    Text #2
    ID : 15
    Format : Timed Text
    Muxing mode : sbtl
    Codec ID : tx3g
    Duration : 1h 47mn
    Bit rate mode : Variable
    Bit rate : 123 bps
    Stream size : 96.8 KiB (0%)
    Title : Russian Subtitle
    Language : Russian
    Encoded date : UTC 2015-10-09 18:29:06
    Tagged date : UTC 2015-10-09 18:29:06
    Text #3
    ID : 16
    Format : Timed Text
    Muxing mode : sbtl
    Codec ID : tx3g
    Duration : 1h 48mn
    Bit rate mode : Variable
    Bit rate : 94 bps
    Stream size : 75.3 KiB (0%)
    Title : English SDH Subtitle
    Language : English
    Encoded date : UTC 2015-10-12 15:26:37
    Tagged date : UTC 2015-10-12 15:26:37
    Menu #1
    00:00:00.000 : 1
    00:11:02.161 : 2
    00:16:26.736 : 3
    00:28:26.496 : 4
    00:39:46.092 : 5
    00:49:03.107 : 6
    00:55:49.054 : 7
    01:05:23.837 : 8
    01:10:38.484 : 9
    01:19:40.693 : 10
    01:25:19.072 : 11
    01:30:45.315 : 12
    01:33:30.772 : 13
    01:38:31.697 : 14
    01:45:44.797 : 15
    01:47:17.014 : 16
    Menu #2
    ID : 17
    Codec ID : text
    Duration : 1h 50mn
    Title : Chapter Titles
    Language : English
    Encoded date : UTC 2015-10-12 15:27:44
    Tagged date : UTC 2015-10-12 15:27:44
    00:00:00.000 : 1
    00:11:02.161 : 2
    00:16:26.736 : 3
    00:28:26.496 : 4
    00:39:46.092 : 5
    00:49:03.107 : 6
    00:55:49.054 : 7
    01:05:23.837 : 8
    01:10:38.484 : 9
    01:19:40.693 : 10
    01:25:19.072 : 11
    01:30:45.315 : 12
    01:33:30.772 : 13
    01:38:31.697 : 14
    01:45:44.797 : 15
    01:47:17.014 : 16
    Bit rate mode : VBR

    x264 лог 480p Release

    HandBrakeCLI -i "/THE_HARD_WAY_UPB1_HDCLUB/BDMV/STREAM/00800.m2ts" -t 1 -o "The.Hard.Way.480p.eng.m4v" -f mp4 -I -O -w 640 -l 362 --crop 132:132:0:0 --custom-anamorphic --modulus 2 --pixel-aspect 852:640 -e x264 -b 1700 -2 -a none -x cabac=0:ref=2:me=umh:bframes=0:weightp=0:subq=6:8x8dct=0:trellis=0:vbv-maxrate=5000:vbv-bufsize=5000 --verbose=1
    x264 [info]: frame I:2593  Avg QP:18.91  size: 29515  PSNR Mean Y:44.34 U:47.67 V:49.09 Avg:45.25 Global:44.63
    x264 [info]: frame P:156704 Avg QP:21.68  size:  8521  PSNR Mean Y:41.24 U:46.08 V:47.05 Avg:42.34 Global:41.84
    x264 [info]: mb I  I16..4: 21.3%  0.0% 78.7%
    x264 [info]: mb P  I16..4:  0.8%  0.0%  3.3%  P16..4: 48.2% 23.3% 10.3%  0.0%  0.0%    skip:14.0%
    x264 [info]: coded y,uvDC,uvAC intra: 81.8% 82.4% 57.5% inter: 34.8% 27.0% 3.5%
    x264 [info]: i16 v,h,dc,p: 39% 14% 12% 36%
    x264 [info]: i4 v,h,dc,ddl,ddr,vr,hd,vl,hu: 27% 12% 18%  7%  8% 10%  6%  8%  5%
    x264 [info]: i8c dc,h,v,p: 50% 15% 26%  9%
    x264 [info]: ref P L0: 73.5% 26.5%
    x264 [info]: SSIM Mean Y:0.9682078 (14.977db)
    x264 [info]: PSNR Mean Y:41.290 U:46.104 V:47.081 Avg:42.384 Global:41.878 kb/s:1699.94

    x264 лог 720p Release

    HandBrakeCLI -i "/THE_HARD_WAY_UPB1_HDCLUB/BDMV/STREAM/00800.m2ts" -t 1 -o "The.Hard.Way.720p.eng.m4v" -f mp4 -4 -O -w 1280 -l 544 --crop 132:132:0:0 --modulus 4 -e x264 -b 7000 -2 -a none -x cabac=0:ref=3:me=umh:b-pyramid=none:b-adapt=2:weightb=0:trellis=0:weightp=0:vbv-maxrate=9500:vbv-bufsize=9500:subq=9:merange=32:deblock=-3,-2:qcomp=0.80:qpmin=0:qpmax=69:fast_pskip=0:aq-strength=0.5:no-dct-decimate=1:psy-rd=0.80,0.25:ipratio=1.1:pbratio=1.1:deadzone-inter=6:deadzone-intra=6 --verbose=1
    x264 [info]: frame I:1435  Avg QP:21.46  size: 86059  PSNR Mean Y:43.34 U:47.08 V:48.49 Avg:44.32 Global:43.93
    x264 [info]: frame P:50016 Avg QP:22.42  size: 54384  PSNR Mean Y:42.64 U:47.05 V:48.45 Avg:43.72 Global:43.20
    x264 [info]: frame B:107846 Avg QP:23.89  size: 27390  PSNR Mean Y:40.96 U:46.53 V:48.08 Avg:42.18 Global:41.56
    x264 [info]: consecutive B-frames:  1.9%  8.4% 45.6% 44.1%
    x264 [info]: mb I  I16..4: 10.8% 64.9% 24.3%
    x264 [info]: mb P  I16..4:  2.2% 15.1%  3.7%  P16..4: 40.7% 23.8%  9.2%  0.0%  0.0%    skip: 5.2%
    x264 [info]: mb B  I16..4:  0.2%  2.6%  0.5%  B16..8: 32.6% 12.3%  2.1%  direct:12.5%  skip:37.2%  L0:33.6% L1:34.3% BI:32.2%
    x264 [info]: 8x8 transform intra:72.8% inter:38.6%
    x264 [info]: coded y,uvDC,uvAC intra: 90.8% 71.7% 36.4% inter: 50.7% 19.4% 3.9%
    x264 [info]: i16 v,h,dc,p: 39% 14% 11% 36%
    x264 [info]: i8 v,h,dc,ddl,ddr,vr,hd,vl,hu: 10%  7%  7% 11% 16% 15% 13% 11% 10%
    x264 [info]: i4 v,h,dc,ddl,ddr,vr,hd,vl,hu:  9%  7%  4% 12% 18% 16% 13% 11%  9%
    x264 [info]: i8c dc,h,v,p: 49% 18% 22% 12%
    x264 [info]: ref P L0: 63.5% 22.9% 13.6%
    x264 [info]: ref B L0: 80.4% 19.6%
    x264 [info]: SSIM Mean Y:0.9595324 (13.929db)
    x264 [info]: PSNR Mean Y:41.512 U:46.700 V:48.198 Avg:42.681 Global:42.032 kb/s:6980.57

    Скриншоты 480p Release

    Скриншоты 720p Release

    Цитата:
  • Сохранены исходные чаптеры, как на Blu-Ray;
  • Дорожки № 2-11 взяты из раздачи. За их сихронизацию спасибо tеko, team_6strun и Mark20100;
  • Субтитры извлечны с Blu-Ray EUR и распознаны мной.-

    Релиз подготовлен для просмотра на Apple TV, iPad, iPhone, iPod Touch.
    Для просмотра данного релиза на компьютере с ОС Windows рекомендуется использовать VLC media player
    Скачать .torrent

    Скачать торрент-файл бесплатно и на максимальной скорости!

    Как скачивать? · Что такое торрент? · Рейтинг и ограничения

    !ВНИМАНИЕ!
    Сайт не распространяет и не хранит электронные версии произведений, а занимается лишь лишь предоставлением доступа к создаваемому пользователями каталогу ссылок на торрент-файлы, которые содержат только списки хеш-сумм, убедительная просьба с жалобами обращаться напрямую к пользователю. Файлы для обмена на трекере предоставлены пользователями сайта, и администрация не несёт ответственности за их содержание. Просьба не заливать файлы, защищенные авторскими правами, а также файлы нелегального содержания!


  • _________________
    [Профиль] [ЛС]
    Показать сообщения:    
    Ответить на тему

    Текущее время: Сегодня, в 06:16

    Часовой пояс: GMT + 2



    Вы не можете начинать темы
    Вы не можете отвечать на сообщения
    Вы не можете редактировать свои сообщения
    Вы не можете удалять свои сообщения
    Вы не можете голосовать в опросах
    Вы не можете прикреплять файлы к сообщениям
    Вы не можете скачивать файлы