BitTorrentTracker PerecTracker.org
BitTorrentTracker PerecTracker.org
    
Регистрация  ·  Вход
 
 · 
Забыли пароль?

  • Месть / Revenge (Тони Скотт) [Theatrical Cut] [1989, США, Мексика, боевик, триллер, драма, мелодрама, BDRip HD (720p), SD (480p)] DUB, MVO, AVO, Original + SUB (rus, eng)

    Ответить на тему
     
    Автор Сообщение

    Flirldrerve

    Создавать темы 27-Окт-2015 05:18

           

    [Цитировать]

    Месть / Revenge
    There's only one passion more uncontrollable than love
    7.1 / 10
    -Год выпуска: 1989
    Страна: США, Мексика
    Жанр: боевик, триллер, драма, мелодрама
    Продолжительность: 124 мин.
    Перевод: Профессиональный дублированный перевод, многоголосый закадровый перевод и одноголосый закадровый авторский перевод
    Оригинальная аудиодорожка: Есть
    Cубтитры: Русские полные и английские полные
    Режиссёр: Тони Скотт
    Сценарий: Джим Гаррисон, Джеффри Алан Фискин
    Продюсер: Хант Лоури, Стэнли Рубин
    Оператор: Джефри Л. Кимбалл
    Композитор: Джек Ницше
    Художник: Хорхе Сайнс, Томас Е. Сандерс
    Монтаж: Крис Лебензон, Майкл Троник
    В ролях: Кевин Костнер, Мэделин Стоу, Энтони Куинн, Хоакин Мартинес, Мигель Феррер, Томас Милиан, Джеймс Гэммон, Джон Легуизамо, Джесси Корти, Сэлли Кёркленд, Джо Сантос
    Роли дублировали: Вадим Андреев, Анна Каменкова, Рогволд Суховерко, Борис Быстров, Владислав Баландин, Даниил Нетребин, Владимир Герасимов, Ирина Савина
    Сборы в США: $15 645 616
    Мировая премьера: 16 февраля 1990
    Релиз на DVD: 25 марта 2010, Двадцатый Век Фокс СНГ
    Описание: Джей Кокрэн, летчик ВВС США, уволившись из армии, принимает приглашение старого приятеля Тибурона Мендеса, мексиканского латифундиста, политика и, вероятно, крупного мафиози.
    Приехав в гости в Мексику, где, впрочем, Кокрэн приобрел небольшую хижину в уединенном горном уголке, и встретив молодую и красивую Марию, жену Мендеса, он, забыв об опасности, отдается вспыхнувшему страстному чувству.-Качество исходника: BD-Remux 1080p (HDClub)
    Качество: BDRip
    Тип: 480p 720p
    Контейнер: m4v
    Видео: 640x360 анаморф 852x360 at 23.976 fps, MPEG-4 AVC, ~1200 kbps avg
    Видео: 1280x544 at 23.976 fps, MPEG-4 AVC, ~4500 kbps avg
    Аудио#1: Russian: 48 kHz, ААС, 2/0 (L,R), ~128.00 / 160.00 kbps avg |Многоголосый закадровый, R5|
    Аудио#2: Russian: 48 kHz, ААС, 2/0 (L,R), ~128.00 / 160.00 kbps avg |Многоголосый закадровый, 1 Канал|
    Аудио#3: Russian: 48 kHz, ААС, 2/0 (L,R), ~128.00 / 160.00 kbps avg |Дубляж, R5|
    Аудио#4: Russian: 48 kHz, ААС, 2/0 (L,R), ~128.00 / 160.00 kbps avg |Одноголосый закадровый, А. Гаврилов|
    Аудио#5: Russian: 48 kHz, ААС, 2/0 (L,R), ~128.00 / 160.00 kbps avg |Одноголосый закадровый, М. Иванов|
    Аудио#6: Russian: 48 kHz, ААС, 2/0 (L,R), ~128.00 / 160.00 kbps avg |Одноголосый закадровый, Ю. Живов|
    Аудио#7: English: 48 kHz, ААС, 2/0 (L,R), ~128.00 / 160.00 kbps avg
    Субтитры №1: Russian: |Полные|
    Субтитры №2: English: |Полные|-

    из книги «3500 кинорецензий»


    Криминальная мелодрама (Сергей Кудрявцев 6.5/10)
    Джей Кокрэн, лётчик ВВС США, уволившись из армии, принимает приглашение своего старого приятеля Тибурона Мендеса, мексиканского латифундиста, политика и, вероятно, крупного мафиози. Приехав к нему в гости в Мексику, где, впрочем, Кокрэн приобрёл для себя небольшую хижину в уединённом горном уголке, и встретив молодую и красивую Мирию, жену Мендеса, он, забыв об опасности, отдался внезапно вспыхнувшему страстному чувству. Но не так-то легко провести Тибурона (то есть «Акулу»), который начинает беспощадно мстить и жене, и другу. Трагический финал «жестокой мелодрамы» (причём в буквальном смысле этого слова, так как насилие и любовь в ней тесно переплетены) неизбежен.
    Начальные кадры фильма поневоле заставляют вспомнить эффектные «видеоклиповые» сцены воздушных боёв и тренировок на сверхзвуковых истребителях в популярной ленте «Супер-ас», снятой тем же Тони Скоттом. Но отступив от «рекламного», лёгкого и отнюдь не действующего на нервы впечатлительных зрителей стиля, избрав жар неукротимых страстей одних персонажей и слепую мстительность других, теряющих человеческое лицо, режиссёр проиграл в, казалось бы, беспроигрышной душещипательной ситуации и не получил признания американских зрителей, которые, видимо,
    были шокированы чрезмерной безжалостностью ряда эпизодов. Не помогли успеху ни «восходящая звезда» Кевин Костнер (он же — один из продюсеров, прогадавший в этой ставке, но через год познавший триумф с собственной картиной «Танцы с волками»), ни своего рода «последний из могикан» Энтони Куин, между прочим, мексиканец по происхождению.
    Но те, кто предпочитает в кино сильные страсти и роковую любовь, не раз уже доказывая личную приверженность к «жгучим мелодрамам», например, мексиканского производства, отнесутся также и к «Мести» с явным энтузиазмом. Вдобавок мексиканские реалии играют в этом фильме вовсе не служебную роль, и накал происходящего мало уступает раскалённому зною южных территорий. Данную ленту вполне можно было бы назвать «Дни зноя», ведь следующая работа Скотта, уже с радостью встреченная придирчивыми американцами, озаглавлена как «Дни грома».
    1993

    -

    iTunes Meta Tags for country us

    Name: Revenge
    Artist: Tony Scott
    Genre: Action & Adventure
    Release Date: 1990-02-16T08:00:00Z
    Description: Джей Кокрэн, летчик ВВС США, уволившись из армии, принимает приглашение старого приятеля Тибурона Мендеса, мексиканского латифундиста, политика и, вероятно, крупного мафиози.
    Long Description: Джей Кокрэн, летчик ВВС США, уволившись из армии, принимает приглашение старого приятеля Тибурона Мендеса, мексиканского латифундиста, политика и, вероятно, крупного мафиози.
    Приехав в гости в Мексику, где, впрочем, Кокрэн приобрел небольшую хижину в уединенном горном уголке, и встретив молодую и красивую Марию, жену Мендеса, он, забыв об опасности, отдается вспыхнувшему страстному чувству.
    Rating: R
    Rating Annotation: Rated R No Rating Reason Cited
    Studio: Sony Pictures
    Cast: Кевин Костнер, Мэделин Стоу, Энтони Куинн, Хоакин Мартинес, Мигель Феррер, Томас Милиан, Джеймс Гэммон, Джон Легуизамо, Джесси Корти, Сэлли Кёркленд, Джо Сантос
    Director: Тони Скотт
    Producers: Хант Лоури, Стэнли Рубин
    Screenwriters: Джим Гаррисон, Джеффри Алан Фискин
    Copyright: © 1990 Columbia Pictures Industries, Inc. All Rights Reserved.
    contentID: 282296295
    XID: Apple:vendor_id:1989-10168
    Sort Name: Revenge

    MediaInfo 480p Release

    General
    Complete name : Revenge.m4v
    Format : MPEG-4
    Codec ID : M4V
    File size : 1.81 GiB
    Duration : 2h 4mn
    Overall bit rate mode : Variable
    Overall bit rate : 2 094 Kbps
    Movie name : Revenge
    Performer : Tony Scott
    Director : Тони Скотт
    Actor : Кевин Костнер / Мэделин Стоу / Энтони Куинн / Хоакин Мартинес / Мигель Феррер / Томас Милиан / Джеймс Гэммон / Джон Легуизамо / Джесси Корти / Сэлли Кёркленд / Джо Сантос
    Screenplay by : Джим Гаррисон / Джеффри Алан Фискин
    Producer : Хант Лоури / Стэнли Рубин
    Production studio : Sony Pictures
    Genre : Action & Adventure
    ContentType : Short Film
    Description : Джей Кокрэн, летчик ВВС США, уволившись из армии, принимает приглашение старого приятеля Тибурона Мендеса, мексиканского латифундиста, политика и, вероятно, крупного мафиози.
    Recorded date : UTC 1990-02-16 08:00:00
    Encoded date : UTC 2015-10-12 08:24:29
    Tagged date : UTC 2015-10-12 08:34:00
    Copyright : © 1990 Columbia Pictures Industries, Inc. All Rights Reserved.
    Cover : Yes
    Rating : None
    Title/Sort : Revenge
    LongDescription : Джей Кокрэн, летчик ВВС США, уволившись из армии, принимает приглашение старого приятеля Тибурона Мендеса, мексиканского латифундиста, политика и, вероятно, крупного мафиози. / Приехав в гости в Мексику, где, впрочем, Кокрэн приобрел небольшую хижину в уединенном горном уголке, и встретив молодую и красивую Марию, жену Мендеса, он, забыв об опасности, отдается вспыхнувшему страстному чувству.
    AppleStoreCatalogID : 282296295
    Vendor : Apple:vendor_id:1989-10168
    ContentRating : mpaa|R|400|Rated R No Rating Reason Cited
    Video #1
    ID : 1
    Format : AVC
    Format/Info : Advanced Video Codec
    Format profile : Baseline@L3
    Format settings, CABAC : No
    Format settings, ReFrames : 2 frames
    Codec ID : avc1
    Codec ID/Info : Advanced Video Coding
    Duration : 2h 4mn
    Bit rate : 1 200 Kbps
    Width : 640 pixels
    Height : 360 pixels
    Display aspect ratio : 2.35:1
    Original display aspect ratio : 2.35:1
    Frame rate mode : Variable
    Frame rate : 23.976 fps
    Minimum frame rate : 23.810 fps
    Maximum frame rate : 24.390 fps
    Color space : YUV
    Chroma subsampling : 4:2:0
    Bit depth : 8 bits
    Scan type : Progressive
    Bits/(Pixel*Frame) : 0.217
    Stream size : 1.04 GiB (57%)
    Title : Main Program
    Writing library : x264 core 130 r2273 b3065e6
    Encoding settings : cabac=0 / ref=2 / deblock=1:0:0 / analyse=0x1:0x111 / me=umh / subme=6 / psy=1 / psy_rd=1.00:0.00 / mixed_ref=1 / me_range=16 / chroma_me=1 / trellis=0 / 8x8dct=0 / cqm=0 / deadzone=21,11 / fast_pskip=1 / chroma_qp_offset=-2 / threads=18 / lookahead_threads=2 / sliced_threads=0 / nr=0 / decimate=1 / interlaced=0 / bluray_compat=0 / constrained_intra=0 / bframes=0 / weightp=0 / keyint=240 / keyint_min=24 / scenecut=40 / intra_refresh=0 / rc_lookahead=40 / rc=2pass / mbtree=1 / bitrate=1200 / ratetol=1.0 / qcomp=0.60 / qpmin=0 / qpmax=69 / qpstep=4 / cplxblur=20.0 / qblur=0.5 / vbv_maxrate=5000 / vbv_bufsize=5000 / nal_hrd=none / ip_ratio=1.40 / aq=1:1.00
    Language : English
    Encoded date : UTC 2015-10-12 08:24:29
    Tagged date : UTC 2015-10-12 08:25:00
    Color range : Limited
    Color primaries : BT.709
    Transfer characteristics : BT.709
    Matrix coefficients : BT.709
    Video #2
    ID : 12
    Format : JPEG
    Codec ID : jpeg
    Duration : 2h 4mn
    Bit rate mode : Variable
    Bit rate : 585 bps
    Width : 640 pixels
    Height : 270 pixels
    Display aspect ratio : 2.40:1
    Frame rate mode : Variable
    Frame rate : 0.002 fps
    Minimum frame rate : 0.001 fps
    Maximum frame rate : 0.005 fps
    Color space : YUV
    Chroma subsampling : 4:2:0
    Bit depth : 8 bits
    Compression mode : Lossy
    Bits/(Pixel*Frame) : 1.693
    Stream size : 428 KiB (0%)
    Title : Chapter Images
    Language : English
    Encoded date : UTC 2015-10-12 08:33:41
    Tagged date : UTC 2015-10-12 08:33:41
    Audio #1
    ID : 2
    Format : AAC
    Format/Info : Advanced Audio Codec
    Format profile : LC
    Codec ID : 40
    Duration : 2h 3mn
    Bit rate mode : Variable
    Bit rate : 132 Kbps
    Maximum bit rate : 194 Kbps
    Channel(s) : 2 channels
    Channel positions : Front: L R
    Sampling rate : 48.0 KHz
    Compression mode : Lossy
    Stream size : 115 MiB (6%)
    Title : Russian MVO R5 Stereo
    Language : Russian
    Encoded date : UTC 2015-10-12 08:24:29
    Tagged date : UTC 2015-10-12 08:25:21
    Audio #2
    ID : 3
    Format : AAC
    Format/Info : Advanced Audio Codec
    Format profile : LC
    Codec ID : 40
    Duration : 2h 4mn
    Bit rate mode : Variable
    Bit rate : 120 Kbps
    Maximum bit rate : 183 Kbps
    Channel(s) : 2 channels
    Channel positions : Front: L R
    Sampling rate : 48.0 KHz
    Compression mode : Lossy
    Stream size : 107 MiB (6%)
    Title : Russian MVO 1 Channel Stereo
    Language : Russian
    Encoded date : UTC 2015-10-12 08:24:29
    Tagged date : UTC 2015-10-12 08:25:21
    Audio #3
    ID : 4
    Format : AAC
    Format/Info : Advanced Audio Codec
    Format profile : LC
    Codec ID : 40
    Duration : 2h 3mn
    Bit rate mode : Variable
    Bit rate : 101 Kbps
    Maximum bit rate : 113 Kbps
    Channel(s) : 2 channels
    Channel positions : Front: L R
    Sampling rate : 48.0 KHz
    Compression mode : Lossy
    Stream size : 89.0 MiB (5%)
    Title : Russian DUB Stereo
    Language : Russian
    Encoded date : UTC 2015-10-12 08:24:29
    Tagged date : UTC 2015-10-12 08:25:21
    Audio #4
    ID : 5
    Format : AAC
    Format/Info : Advanced Audio Codec
    Format profile : LC
    Codec ID : 40
    Duration : 2h 4mn
    Bit rate mode : Variable
    Bit rate : 132 Kbps
    Maximum bit rate : 211 Kbps
    Channel(s) : 2 channels
    Channel positions : Front: L R
    Sampling rate : 48.0 KHz
    Compression mode : Lossy
    Stream size : 117 MiB (6%)
    Title : Russian AVO A.Gavrilov Stereo
    Language : Russian
    Encoded date : UTC 2015-10-12 08:24:29
    Tagged date : UTC 2015-10-12 08:25:21
    Audio #5
    ID : 6
    Format : AAC
    Format/Info : Advanced Audio Codec
    Format profile : LC
    Codec ID : 40
    Duration : 2h 4mn
    Bit rate mode : Variable
    Bit rate : 132 Kbps
    Maximum bit rate : 218 Kbps
    Channel(s) : 2 channels
    Channel positions : Front: L R
    Sampling rate : 48.0 KHz
    Compression mode : Lossy
    Stream size : 118 MiB (6%)
    Title : Russian AVO M.Ivanov Stereo
    Language : Russian
    Encoded date : UTC 2015-10-12 08:24:29
    Tagged date : UTC 2015-10-12 08:25:21
    Audio #6
    ID : 7
    Format : AAC
    Format/Info : Advanced Audio Codec
    Format profile : LC
    Codec ID : 40
    Duration : 2h 3mn
    Bit rate mode : Variable
    Bit rate : 132 Kbps
    Maximum bit rate : 196 Kbps
    Channel(s) : 2 channels
    Channel positions : Front: L R
    Sampling rate : 48.0 KHz
    Compression mode : Lossy
    Stream size : 116 MiB (6%)
    Title : Russian AVO U.Zhivov Stereo
    Language : Russian
    Encoded date : UTC 2015-10-12 08:24:29
    Tagged date : UTC 2015-10-12 08:25:21
    Audio #7
    ID : 8
    Format : AAC
    Format/Info : Advanced Audio Codec
    Format profile : LC
    Codec ID : 40
    Duration : 2h 4mn
    Bit rate mode : Variable
    Bit rate : 132 Kbps
    Maximum bit rate : 211 Kbps
    Channel(s) : 2 channels
    Channel positions : Front: L R
    Sampling rate : 48.0 KHz
    Compression mode : Lossy
    Stream size : 118 MiB (6%)
    Title : English Stereo
    Language : English
    Encoded date : UTC 2015-10-12 08:24:29
    Tagged date : UTC 2015-10-12 08:25:21
    Text #1
    ID : 9
    Format : Timed Text
    Muxing mode : sbtl
    Codec ID : tx3g
    Duration : 1h 58mn
    Bit rate mode : Variable
    Bit rate : 65 bps
    Stream size : 56.7 KiB (0%)
    Title : Russian Subtitle
    Language : Russian
    Encoded date : UTC 2015-10-12 08:24:29
    Tagged date : UTC 2015-10-12 08:24:29
    Text #2
    ID : 10
    Format : Timed Text
    Muxing mode : sbtl
    Codec ID : tx3g
    Duration : 1h 58mn
    Bit rate mode : Variable
    Bit rate : 41 bps
    Stream size : 35.8 KiB (0%)
    Title : English Subtitle
    Language : English
    Encoded date : UTC 2015-10-12 08:24:29
    Tagged date : UTC 2015-10-12 08:24:29
    Menu #1
    00:00:00.000 : 1
    00:12:06.808 : 2
    00:22:19.587 : 3
    00:33:30.383 : 4
    00:45:52.958 : 5
    00:58:17.661 : 6
    01:09:25.369 : 7
    01:20:49.720 : 8
    01:32:25.582 : 9
    01:44:22.381 : 10
    01:55:14.198 : 11
    02:00:26.386 : 12
    Menu #2
    ID : 11
    Codec ID : text
    Duration : 2h 4mn
    Title : Chapter Titles
    Language : English
    Encoded date : UTC 2015-10-12 08:33:37
    Tagged date : UTC 2015-10-12 08:33:37
    00:00:00.000 : 1
    00:12:06.808 : 2
    00:22:19.587 : 3
    00:33:30.383 : 4
    00:45:52.958 : 5
    00:58:17.661 : 6
    01:09:25.369 : 7
    01:20:49.720 : 8
    01:32:25.582 : 9
    01:44:22.381 : 10
    01:55:14.198 : 11
    02:00:26.386 : 12
    Bit rate mode : VBR

    MediaInfo 720p Release

    General
    Complete name : Revenge (HD).m4v
    Format : MPEG-4
    Codec ID : M4V
    File size : 4.85 GiB
    Duration : 2h 4mn
    Overall bit rate mode : Variable
    Overall bit rate : 5 602 Kbps
    Movie name : Revenge
    Performer : Tony Scott
    Director : Тони Скотт
    Actor : Кевин Костнер / Мэделин Стоу / Энтони Куинн / Хоакин Мартинес / Мигель Феррер / Томас Милиан / Джеймс Гэммон / Джон Легуизамо / Джесси Корти / Сэлли Кёркленд / Джо Сантос
    Screenplay by : Джим Гаррисон / Джеффри Алан Фискин
    Producer : Хант Лоури / Стэнли Рубин
    Production studio : Sony Pictures
    Genre : Action & Adventure
    ContentType : Short Film
    Description : Джей Кокрэн, летчик ВВС США, уволившись из армии, принимает приглашение старого приятеля Тибурона Мендеса, мексиканского латифундиста, политика и, вероятно, крупного мафиози.
    Recorded date : UTC 1990-02-16 08:00:00
    Encoded date : UTC 2015-10-12 07:43:52
    Tagged date : UTC 2015-10-12 08:22:37
    Copyright : © 1990 Columbia Pictures Industries, Inc. All Rights Reserved.
    Cover : Yes
    Rating : None
    Title/Sort : Revenge
    LongDescription : Джей Кокрэн, летчик ВВС США, уволившись из армии, принимает приглашение старого приятеля Тибурона Мендеса, мексиканского латифундиста, политика и, вероятно, крупного мафиози. / Приехав в гости в Мексику, где, впрочем, Кокрэн приобрел небольшую хижину в уединенном горном уголке, и встретив молодую и красивую Марию, жену Мендеса, он, забыв об опасности, отдается вспыхнувшему страстному чувству.
    HDVideo : Yes
    AppleStoreCatalogID : 282296295
    Vendor : Apple:vendor_id:1989-10168
    ContentRating : mpaa|R|400|Rated R No Rating Reason Cited
    Video #1
    ID : 1
    Format : AVC
    Format/Info : Advanced Video Codec
    Format profile : High@L3.1
    Format settings, CABAC : No
    Format settings, ReFrames : 3 frames
    Codec ID : avc1
    Codec ID/Info : Advanced Video Coding
    Duration : 2h 4mn
    Source duration : 2h 4mn
    Bit rate : 4 500 Kbps
    Width : 1 280 pixels
    Height : 544 pixels
    Display aspect ratio : 2.35:1
    Frame rate mode : Variable
    Frame rate : 23.976 fps
    Minimum frame rate : 23.810 fps
    Maximum frame rate : 24.390 fps
    Color space : YUV
    Chroma subsampling : 4:2:0
    Bit depth : 8 bits
    Scan type : Progressive
    Bits/(Pixel*Frame) : 0.270
    Stream size : 3.89 GiB (80%)
    Source stream size : 3.89 GiB (80%)
    Title : Main Program
    Writing library : x264 core 130 r2273 b3065e6
    Encoding settings : cabac=0 / ref=3 / deblock=1:-3:-2 / analyse=0x3:0x113 / me=umh / subme=9 / psy=1 / psy_rd=1.00:0.25 / mixed_ref=1 / me_range=32 / chroma_me=1 / trellis=0 / 8x8dct=1 / cqm=0 / deadzone=21,11 / fast_pskip=0 / chroma_qp_offset=-2 / threads=18 / lookahead_threads=1 / sliced_threads=0 / nr=0 / decimate=0 / interlaced=0 / bluray_compat=0 / constrained_intra=0 / bframes=3 / b_pyramid=0 / b_adapt=2 / b_bias=0 / direct=1 / weightb=0 / open_gop=0 / weightp=0 / keyint=240 / keyint_min=24 / scenecut=40 / intra_refresh=0 / rc_lookahead=40 / rc=2pass / mbtree=1 / bitrate=4500 / ratetol=1.0 / qcomp=0.60 / qpmin=0 / qpmax=69 / qpstep=4 / cplxblur=20.0 / qblur=0.5 / vbv_maxrate=9500 / vbv_bufsize=9500 / nal_hrd=none / ip_ratio=1.40 / aq=1:0.80
    Language : English
    Encoded date : UTC 2015-10-12 07:43:52
    Tagged date : UTC 2015-10-12 07:47:13
    Color range : Limited
    Color primaries : BT.709
    Transfer characteristics : BT.709
    Matrix coefficients : BT.709
    Video #2
    ID : 12
    Format : JPEG
    Codec ID : jpeg
    Duration : 2h 4mn
    Bit rate mode : Variable
    Bit rate : 641 bps
    Width : 640 pixels
    Height : 272 pixels
    Display aspect ratio : 2.35:1
    Frame rate mode : Variable
    Frame rate : 0.002 fps
    Minimum frame rate : 0.001 fps
    Maximum frame rate : 0.005 fps
    Color space : YUV
    Chroma subsampling : 4:2:0
    Bit depth : 8 bits
    Compression mode : Lossy
    Bits/(Pixel*Frame) : 1.841
    Stream size : 469 KiB (0%)
    Title : Chapter Images
    Language : English
    Encoded date : UTC 2015-10-12 07:52:33
    Tagged date : UTC 2015-10-12 07:52:33
    Audio #1
    ID : 2
    Format : AAC
    Format/Info : Advanced Audio Codec
    Format profile : LC
    Codec ID : 40
    Duration : 2h 3mn
    Bit rate mode : Variable
    Bit rate : 164 Kbps
    Maximum bit rate : 225 Kbps
    Channel(s) : 2 channels
    Channel positions : Front: L R
    Sampling rate : 48.0 KHz
    Compression mode : Lossy
    Stream size : 145 MiB (3%)
    Title : Russian MVO R5 Stereo
    Language : Russian
    Encoded date : UTC 2015-10-12 07:43:52
    Tagged date : UTC 2015-10-12 07:50:07
    Audio #2
    ID : 3
    Format : AAC
    Format/Info : Advanced Audio Codec
    Format profile : LC
    Codec ID : 40
    Duration : 2h 4mn
    Bit rate mode : Variable
    Bit rate : 144 Kbps
    Maximum bit rate : 218 Kbps
    Channel(s) : 2 channels
    Channel positions : Front: L R
    Sampling rate : 48.0 KHz
    Compression mode : Lossy
    Stream size : 130 MiB (3%)
    Title : Russian MVO 1 Channel Stereo
    Language : Russian
    Encoded date : UTC 2015-10-12 07:43:52
    Tagged date : UTC 2015-10-12 07:50:07
    Audio #3
    ID : 4
    Format : AAC
    Format/Info : Advanced Audio Codec
    Format profile : LC
    Codec ID : 40
    Duration : 2h 3mn
    Bit rate mode : Variable
    Bit rate : 121 Kbps
    Maximum bit rate : 137 Kbps
    Channel(s) : 2 channels
    Channel positions : Front: L R
    Sampling rate : 48.0 KHz
    Compression mode : Lossy
    Stream size : 107 MiB (2%)
    Title : Russian DUB Stereo
    Language : Russian
    Encoded date : UTC 2015-10-12 07:43:52
    Tagged date : UTC 2015-10-12 07:50:07
    Audio #4
    ID : 5
    Format : AAC
    Format/Info : Advanced Audio Codec
    Format profile : LC
    Codec ID : 40
    Duration : 2h 4mn
    Bit rate mode : Variable
    Bit rate : 165 Kbps
    Maximum bit rate : 250 Kbps
    Channel(s) : 2 channels
    Channel positions : Front: L R
    Sampling rate : 48.0 KHz
    Compression mode : Lossy
    Stream size : 146 MiB (3%)
    Title : Russian AVO A.Gavrilov Stereo
    Language : Russian
    Encoded date : UTC 2015-10-12 07:43:52
    Tagged date : UTC 2015-10-12 07:50:07
    Audio #5
    ID : 6
    Format : AAC
    Format/Info : Advanced Audio Codec
    Format profile : LC
    Codec ID : 40
    Duration : 2h 4mn
    Bit rate mode : Variable
    Bit rate : 165 Kbps
    Maximum bit rate : 261 Kbps
    Channel(s) : 2 channels
    Channel positions : Front: L R
    Sampling rate : 48.0 KHz
    Compression mode : Lossy
    Stream size : 146 MiB (3%)
    Title : Russian AVO M.Ivanov Stereo
    Language : Russian
    Encoded date : UTC 2015-10-12 07:43:52
    Tagged date : UTC 2015-10-12 07:50:07
    Audio #6
    ID : 7
    Format : AAC
    Format/Info : Advanced Audio Codec
    Format profile : LC
    Codec ID : 40
    Duration : 2h 3mn
    Bit rate mode : Variable
    Bit rate : 164 Kbps
    Maximum bit rate : 223 Kbps
    Channel(s) : 2 channels
    Channel positions : Front: L R
    Sampling rate : 48.0 KHz
    Compression mode : Lossy
    Stream size : 145 MiB (3%)
    Title : Russian AVO U.Zhivov Stereo
    Language : Russian
    Encoded date : UTC 2015-10-12 07:43:52
    Tagged date : UTC 2015-10-12 07:50:07
    Audio #7
    ID : 8
    Format : AAC
    Format/Info : Advanced Audio Codec
    Format profile : LC
    Codec ID : 40
    Duration : 2h 4mn
    Bit rate mode : Variable
    Bit rate : 166 Kbps
    Maximum bit rate : 248 Kbps
    Channel(s) : 2 channels
    Channel positions : Front: L R
    Sampling rate : 48.0 KHz
    Compression mode : Lossy
    Stream size : 147 MiB (3%)
    Title : English Stereo
    Language : English
    Encoded date : UTC 2015-10-12 07:43:52
    Tagged date : UTC 2015-10-12 07:50:07
    Text #1
    ID : 9
    Format : Timed Text
    Muxing mode : sbtl
    Codec ID : tx3g
    Duration : 1h 58mn
    Bit rate mode : Variable
    Bit rate : 65 bps
    Stream size : 56.7 KiB (0%)
    Title : Russian Subtitle
    Language : Russian
    Encoded date : UTC 2015-10-12 07:43:52
    Tagged date : UTC 2015-10-12 07:43:52
    Text #2
    ID : 10
    Format : Timed Text
    Muxing mode : sbtl
    Codec ID : tx3g
    Duration : 1h 58mn
    Bit rate mode : Variable
    Bit rate : 41 bps
    Stream size : 35.8 KiB (0%)
    Title : English Subtitle
    Language : English
    Encoded date : UTC 2015-10-12 07:43:52
    Tagged date : UTC 2015-10-12 07:43:52
    Menu #1
    00:00:00.000 : 1
    00:12:06.808 : 2
    00:22:19.587 : 3
    00:33:30.383 : 4
    00:45:52.958 : 5
    00:58:17.661 : 6
    01:09:25.369 : 7
    01:20:49.720 : 8
    01:32:25.582 : 9
    01:44:22.381 : 10
    01:55:14.198 : 11
    02:00:26.386 : 12
    Menu #2
    ID : 11
    Codec ID : text
    Duration : 2h 4mn
    Title : Chapter Titles
    Language : English
    Encoded date : UTC 2015-10-12 07:52:27
    Tagged date : UTC 2015-10-12 07:52:27
    00:00:00.000 : 1
    00:12:06.808 : 2
    00:22:19.587 : 3
    00:33:30.383 : 4
    00:45:52.958 : 5
    00:58:17.661 : 6
    01:09:25.369 : 7
    01:20:49.720 : 8
    01:32:25.582 : 9
    01:44:22.381 : 10
    01:55:14.198 : 11
    02:00:26.386 : 12
    Bit rate mode : VBR

    x264 лог 480p Release

    HandBrakeCLI -i "/REVENGE_1990_BD-remux_HDCLUB/BDMV/STREAM/00000.m2ts" -t 1 -o "Revenge.480p.eng.m4v" -f mp4 -I -O -w 640 -l 360 --crop 134:134:0:0 --custom-anamorphic --modulus 8 --pixel-aspect 852:640 -e x264 -b 1200 -2 -a none -x cabac=0:ref=2:me=umh:bframes=0:weightp=0:subq=6:8x8dct=0:trellis=0:vbv-maxrate=5000:vbv-bufsize=5000 --verbose=1
    x264 [info]: frame I:2958  Avg QP:17.47  size: 21383  PSNR Mean Y:46.51 U:51.20 V:51.79 Avg:47.57 Global:47.09
    x264 [info]: frame P:175458 Avg QP:19.67  size:  6001  PSNR Mean Y:44.05 U:48.40 V:49.15 Avg:45.08 Global:44.63
    x264 [info]: mb I  I16..4: 23.9%  0.0% 76.1%
    x264 [info]: mb P  I16..4:  0.6%  0.0%  2.1%  P16..4: 52.8% 22.6%  8.6%  0.0%  0.0%    skip:13.3%
    x264 [info]: coded y,uvDC,uvAC intra: 78.4% 75.7% 44.3% inter: 27.6% 23.6% 1.9%
    x264 [info]: i16 v,h,dc,p: 32% 12% 10% 47%
    x264 [info]: i4 v,h,dc,ddl,ddr,vr,hd,vl,hu: 32% 12% 16%  6%  7%  9%  5%  7%  4%
    x264 [info]: i8c dc,h,v,p: 50% 15% 28%  8%
    x264 [info]: ref P L0: 72.3% 27.7%
    x264 [info]: SSIM Mean Y:0.9781899 (16.613db)
    x264 [info]: PSNR Mean Y:44.088 U:48.451 V:49.189 Avg:45.121 Global:44.658 kb/s:1199.94

    x264 лог 720p Release

    HandBrakeCLI -i "/REVENGE_1990_BD-remux_HDCLUB/BDMV/STREAM/00000.m2ts" -t 1 -o "Revenge.720p.eng.m4v" -f mp4 -4 -O -w 1280 -l 544 --crop 134:134:0:0 --modulus 16 -e x264 -b 4500 -2 -a none -x cabac=0:ref=3:me=umh:b-pyramid=none:b-adapt=2:weightb=0:trellis=0:weightp=0:vbv-maxrate=9500:vbv-bufsize=9500:subq=9:merange=32:deblock=-3,-2:qcomp=0.60:qpmin=0:qpmax=69:fast_pskip=0:aq-strength=0.8:no-dct-decimate=1:psy-rd=1.00,0.25 --verbose=1
    x264 [info]: frame I:1314  Avg QP:16.01  size:104717  PSNR Mean Y:47.05 U:52.15 V:52.90 Avg:48.20 Global:47.90
    x264 [info]: frame P:56862 Avg QP:18.44  size: 40365  PSNR Mean Y:44.76 U:50.02 V:50.74 Avg:45.93 Global:45.58
    x264 [info]: frame B:120240 Avg QP:20.08  size: 14531  PSNR Mean Y:43.45 U:49.60 V:50.53 Avg:44.72 Global:44.30
    x264 [info]: consecutive B-frames:  1.4% 10.9% 45.6% 42.1%
    x264 [info]: mb I  I16..4:  4.6% 68.5% 27.0%
    x264 [info]: mb P  I16..4:  1.0%  8.1%  2.7%  P16..4: 45.9% 29.2% 11.3%  0.0%  0.0%    skip: 1.8%
    x264 [info]: mb B  I16..4:  0.1%  1.0%  0.4%  B16..8: 50.1% 13.9%  2.3%  direct: 9.8%  skip:22.5%  L0:42.5% L1:49.2% BI: 8.3%
    x264 [info]: 8x8 transform intra:68.7% inter:47.9%
    x264 [info]: coded y,uvDC,uvAC intra: 92.7% 75.3% 38.7% inter: 39.8% 28.0% 5.9%
    x264 [info]: i16 v,h,dc,p: 27% 10% 10% 54%
    x264 [info]: i8 v,h,dc,ddl,ddr,vr,hd,vl,hu:  8%  6%  4% 12% 17% 17% 14% 12% 10%
    x264 [info]: i4 v,h,dc,ddl,ddr,vr,hd,vl,hu:  8%  6%  2% 13% 18% 18% 14% 12%  9%
    x264 [info]: i8c dc,h,v,p: 48% 17% 23% 12%
    x264 [info]: ref P L0: 65.6% 20.7% 13.7%
    x264 [info]: ref B L0: 80.7% 19.3%
    x264 [info]: SSIM Mean Y:0.9706950 (15.331db)
    x264 [info]: PSNR Mean Y:43.893 U:49.753 V:50.612 Avg:45.133 Global:44.690 kb/s:4493.80

    Скриншоты 480p Release

    Скриншоты 720p Release

    Цитата:
  • Это кинопрокатная версия. Director's cut на 20 мин короче;
  • В качестве исходника взял немецкий блюрей с битсов;
  • Сохранены оригинальные чаптеры как на Blu-ray;
  • Дорожка № 4-5 получены наложением чистого голоса на декодированный оригинал;
  • Голос на дорогу №5 изначально был как "неизвестный". Определили как "Яковлев". Если кто определит переводчика "правильнее", исправим в описании. Может это Иванов.-

    Релиз подготовлен для просмотра на Apple TV, iPad, iPhone, iPod Touch.
    Для просмотра данного релиза на компьютере с ОС Windows рекомендуется использовать VLC media player
    Скачать .torrent

    Скачать торрент-файл бесплатно и на максимальной скорости!

    Как скачивать? · Что такое торрент? · Рейтинг и ограничения

    !ВНИМАНИЕ!
    Сайт не распространяет и не хранит электронные версии произведений, а занимается лишь лишь предоставлением доступа к создаваемому пользователями каталогу ссылок на торрент-файлы, которые содержат только списки хеш-сумм, убедительная просьба с жалобами обращаться напрямую к пользователю. Файлы для обмена на трекере предоставлены пользователями сайта, и администрация не несёт ответственности за их содержание. Просьба не заливать файлы, защищенные авторскими правами, а также файлы нелегального содержания!


  • _________________
    [Профиль] [ЛС]
    Показать сообщения:    
    Ответить на тему

    Текущее время: Сегодня, в 19:39

    Часовой пояс: GMT + 2



    Вы не можете начинать темы
    Вы не можете отвечать на сообщения
    Вы не можете редактировать свои сообщения
    Вы не можете удалять свои сообщения
    Вы не можете голосовать в опросах
    Вы не можете прикреплять файлы к сообщениям
    Вы не можете скачивать файлы