BitTorrentTracker PerecTracker.org
BitTorrentTracker PerecTracker.org
    
Регистрация  ·  Вход
 
 · 
Забыли пароль?

  • Подцеплен по-крупному / 52 Pick-Up (Джон Франкенхаймер) [1986, США, триллер, криминал, BDRip HD (720p), SD (480p)] AVO, Original + SUB (eng)

    Ответить на тему
     
    Автор Сообщение

    Flirldrerve

    Создавать темы 27-Окт-2015 05:18

           

    [Цитировать]

    Подцеплен по-крупному / 52 Pick-Up
    "Greed. Extortion. Revenge"
    6.000 / 10
    -Год выпуска: 1986
    Страна: США
    Жанр: триллер, криминал
    Продолжительность: 114 мин.
    Перевод: Одноголосый закадровый авторский перевод
    Оригинальная аудиодорожка: Есть
    Cубтитры: Английские полные и английские полные SDH
    Режиссёр: Джон Франкенхаймер
    Сценарий: Элмор Леонард, Джон Степлинг
    Продюсер: Йорам Глобус, Менахем Голан, Генри Т. Вайнштейн
    Оператор: Йост Вакано, Стивен Рэмси
    Композитор: Гэри Чан
    Художник: Филип Харрисон, Расселл Кристиан, Рэй Саммерс
    Монтаж: Роберт Ф. Шугру
    В ролях: Рой Шайдер, Энн-Маргрет, Вэнити, Джон Гловер, Роберт Требор, Лонни Чэпмен, Келли Престон, Даг МакКлёр, Кларенс Уильямс III, Алекс Хентелоф
    Сборы в США: $5 186 646
    Мировая премьера: 7 ноября 1986
    Описание: Гарри Митчелл после 23 лет брака изменяет своей жене Барбаре, баллотирующейся в городской совет. Когда трое вооруженных людей в масках шантажируют его, показывая компрометирующую видеокассету, на которой он заснят со своей пассией, и вымогают кругленькую сумму, он не может обратиться в полицию - боится испортить жене карьеру. Дальше хуже: за невыполнение своих требований шантажисты убивают несчастную девушку и, засняв это на видео, показывают Митчеллу. Тут уж бывший майор начинает собственную игру...-Качество исходника: BD-Remux 1080p (HDClub)
    Качество: BDRip
    Тип: 480p 720p
    Контейнер: m4v
    Видео: 640x462 анаморф 852x462 at 23.976 fps, MPEG-4 AVC, ~1700 kbps avg
    Видео: 1280x694 at 23.976 fps, MPEG-4 AVC, ~6000 kbps avg
    Аудио#1: Russian: 48 kHz, ААС, 2/0 (L,R), ~128.00 / 160.00 kbps avg |Одноголосый закадровый, А. Михалев|
    Аудио#2: English: 48 kHz, ААС, 2/0 (L,R), ~128.00 / 160.00 kbps avg
    Субтитры №1: English: |Полные|
    Субтитры №2: English: |Полные, SDH|-

    из книги «3500 кинорецензий»


    Триллер (Сергей Кудрявцев 5/10)
    Солидного бизнесмена Хэрри Митчелла из Лос-Анджелеса стали шантажировать три гангстера, которые засняли на видеоплёнку его сексуальные контакты с молодой стриптизёршей Сини. Они потребовали от Митчелла выплаты денег в размере ста тысяч долларов. Однако он вступил в опасную игру с бандитами, надеясь выйти из неё победителем, потому что в прошлом был участником войны в Корее.
    Обычный триллер, в котором, может быть, нетрадиционными показались смелые эротические сцены и обыгрывание видеосъёмок, в том числе запечатлённого на плёнке садистского убийства Сини. Но и это не помогло Джону Франкенхаймеру хоть как-то обратить на себя внимание — как и в предшествующие семь лет, отделяющие от времени создания этим режиссёром мистической ленты «Пророчество», зрители вообще проигнорировали его очередной фильм. И почти мистически отозвался для Франкенхаймера провал второй части «Французского связного»: ведь в 1975 году он почему-то не взял из знаменитой первой серии актёра Роя Шайдера, сейчас же, вдруг вспомнив о нём, застал исполнителя далеко не в лучшей форме.
    Забавно и то, что постановщик умудрился снять картину «Подцеплен по-крупному» по одноимённому роману Элмора Леонарда (кстати, распространённый у нас перевод «52 тысячи» фактически неточен, а термин 52 Pick Up, который употребляется в США по отношению к выплате денег в течение 52-х недель, то есть целого года, здесь понят, скорее всего, образно), экранизированному двумя годами ранее в фильме «Посол» Дж. Ли Томпсона. И в той версии была замешана в адюльтерной связи жена, а не муж, причём с деятелем Организации Освобождения Палестины (!).
    1990

    -

    iTunes Meta Tags for country us

    Sort Name: 52 Pick-Up
    XID: Apple:vendor_id:1986-88793
    contentID: 88793
    Screenwriters: Элмор Леонард, Джон Степлинг
    Producers: Йорам Глобус, Менахем Голан, Генри Т. Вайнштейн
    Director: Джон Франкенхаймер
    Cast: Рой Шайдер, Энн-Маргрет, Вэнити, Джон Гловер, Роберт Требор, Лонни Чэпмен, Келли Престон, Даг МакКлёр, Кларенс Уильямс III, Алекс Хентелоф
    Rating: R
    Long Description: Гарри Митчелл после 23 лет брака изменяет своей жене Барбаре, баллотирующейся в городской совет. Когда трое вооруженных людей в масках шантажируют его, показывая компрометирующую видеокассету, на которой он заснят со своей пассией, и вымогают кругленькую сумму, он не может обратиться в полицию - боится испортить жене карьеру. Дальше хуже: за невыполнение своих требований шантажисты убивают несчастную девушку и, засняв это на видео, показывают Митчеллу. Тут уж бывший майор начинает собственную игру...
    Description: Гарри Митчелл после 23 лет брака изменяет своей жене Барбаре, баллотирующейся в городской совет. Когда трое вооруженных людей в масках шантажируют его, показывая компрометирующую видеокассету, на которой он заснят со своей пассией, и вымогают кругленькую сумму, он не может обратиться в полицию - боится испортить жене карьеру...
    Release Date: 1986-11-07T08:00:00Z
    Genre: Thriller
    Artist: John Frankenheimer
    Name: 52 Pick-Up

    MediaInfo 480p Release

    General
    Complete name : 52 Pick-Up.m4v
    Format : MPEG-4
    Codec ID : M4V
    File size : 1.50 GiB
    Duration : 1h 50mn
    Overall bit rate mode : Variable
    Overall bit rate : 1 940 Kbps
    Movie name : 52 Pick-Up
    Performer : John Frankenheimer
    Director : Джон Франкенхаймер
    Actor : Рой Шайдер / Энн-Маргрет / Вэнити / Джон Гловер / Роберт Требор / Лонни Чэпмен / Келли Престон / Даг МакКлёр / Кларенс Уильямс III / Алекс Хентелоф
    Screenplay by : Элмор Леонард / Джон Степлинг
    Producer : Йорам Глобус / Менахем Голан / Генри Т. Вайнштейн
    Genre : Thriller
    ContentType : Short Film
    Description : Гарри Митчелл после 23 лет брака изменяет своей жене Барбаре, баллотирующейся в городской совет. Когда трое вооруженных людей в масках шантажируют его, показывая компрометирующую видеокассету, на которой он заснят со своей пассией, и вымогают кругленькую сумму, он не может обратиться в полицию - боится испортить жене карьеру...
    Recorded date : UTC 1986-11-07 08:00:00
    Encoded date : UTC 2015-10-13 11:52:29
    Tagged date : UTC 2015-10-13 11:56:12
    Cover : Yes
    Rating : None
    Title/Sort : 52 Pick-Up
    LongDescription : Гарри Митчелл после 23 лет брака изменяет своей жене Барбаре, баллотирующейся в городской совет. Когда трое вооруженных людей в масках шантажируют его, показывая компрометирующую видеокассету, на которой он заснят со своей пассией, и вымогают кругленькую сумму, он не может обратиться в полицию - боится испортить жене карьеру. Дальше хуже: за невыполнение своих требований шантажисты убивают несчастную девушку и, засняв это на видео, показывают Митчеллу. Тут уж бывший майор начинает собственную игру...
    AppleStoreCatalogID : 88793
    Vendor : Apple:vendor_id:1986-88793
    ContentRating : mpaa|R|400|
    Video #1
    ID : 1
    Format : AVC
    Format/Info : Advanced Video Codec
    Format profile : Baseline@L3
    Format settings, CABAC : No
    Format settings, ReFrames : 2 frames
    Codec ID : avc1
    Codec ID/Info : Advanced Video Coding
    Duration : 1h 50mn
    Bit rate : 1 700 Kbps
    Width : 640 pixels
    Height : 462 pixels
    Display aspect ratio : 1.85:1
    Frame rate mode : Variable
    Frame rate : 23.976 fps
    Minimum frame rate : 23.974 fps
    Maximum frame rate : 23.981 fps
    Color space : YUV
    Chroma subsampling : 4:2:0
    Bit depth : 8 bits
    Scan type : Progressive
    Bits/(Pixel*Frame) : 0.240
    Stream size : 1.31 GiB (88%)
    Title : Main Program
    Writing library : x264 core 130 r2273 b3065e6
    Encoding settings : cabac=0 / ref=2 / deblock=1:0:0 / analyse=0x1:0x111 / me=umh / subme=6 / psy=1 / psy_rd=1.00:0.00 / mixed_ref=1 / me_range=16 / chroma_me=1 / trellis=0 / 8x8dct=0 / cqm=0 / deadzone=21,11 / fast_pskip=1 / chroma_qp_offset=-2 / threads=18 / lookahead_threads=3 / sliced_threads=0 / nr=0 / decimate=1 / interlaced=0 / bluray_compat=0 / constrained_intra=0 / bframes=0 / weightp=0 / keyint=240 / keyint_min=24 / scenecut=40 / intra_refresh=0 / rc_lookahead=40 / rc=2pass / mbtree=1 / bitrate=1700 / ratetol=1.0 / qcomp=0.60 / qpmin=0 / qpmax=69 / qpstep=4 / cplxblur=20.0 / qblur=0.5 / vbv_maxrate=5000 / vbv_bufsize=5000 / nal_hrd=none / ip_ratio=1.40 / aq=1:1.00
    Language : English
    Encoded date : UTC 2015-10-13 11:52:29
    Tagged date : UTC 2015-10-13 11:52:34
    Color range : Limited
    Color primaries : BT.709
    Transfer characteristics : BT.709
    Matrix coefficients : BT.709
    Video #2
    ID : 7
    Format : JPEG
    Codec ID : jpeg
    Duration : 1h 50mn
    Bit rate mode : Variable
    Bit rate : 330 bps
    Width : 640 pixels
    Height : 347 pixels
    Display aspect ratio : 1.85:1
    Frame rate mode : Constant
    Frame rate : 0.001 fps
    Color space : YUV
    Chroma subsampling : 4:2:0
    Bit depth : 8 bits
    Compression mode : Lossy
    Bits/(Pixel*Frame) : 1.486
    Stream size : 323 KiB (0%)
    Title : Chapter Images
    Language : English
    Encoded date : UTC 2015-10-13 11:55:00
    Tagged date : UTC 2015-10-13 11:55:00
    Audio #1
    ID : 2
    Format : AAC
    Format/Info : Advanced Audio Codec
    Format profile : LC
    Codec ID : 40
    Duration : 1h 50mn
    Bit rate mode : Variable
    Bit rate : 100 Kbps
    Maximum bit rate : 111 Kbps
    Channel(s) : 2 channels
    Channel positions : Front: L R
    Sampling rate : 48.0 KHz
    Compression mode : Lossy
    Stream size : 79.1 MiB (5%)
    Title : Russian AVO A.Mihalev Stereo
    Language : Russian
    Encoded date : UTC 2015-10-13 11:52:29
    Tagged date : UTC 2015-10-13 11:52:38
    Audio #2
    ID : 3
    Format : AAC
    Format/Info : Advanced Audio Codec
    Format profile : LC
    Codec ID : 40
    Duration : 1h 50mn
    Bit rate mode : Variable
    Bit rate : 132 Kbps
    Maximum bit rate : 174 Kbps
    Channel(s) : 2 channels
    Channel positions : Front: L R
    Sampling rate : 48.0 KHz
    Compression mode : Lossy
    Stream size : 105 MiB (7%)
    Title : English Stereo
    Language : English
    Encoded date : UTC 2015-10-13 11:52:29
    Tagged date : UTC 2015-10-13 11:52:38
    Text #1
    ID : 4
    Format : Timed Text
    Muxing mode : sbtl
    Codec ID : tx3g
    Duration : 1h 46mn
    Bit rate mode : Variable
    Bit rate : 59 bps
    Stream size : 45.6 KiB (0%)
    Title : English Subtitle
    Language : English
    Encoded date : UTC 2015-10-13 11:52:29
    Tagged date : UTC 2015-10-13 11:54:59
    Text #2
    ID : 5
    Format : Timed Text
    Muxing mode : sbtl
    Codec ID : tx3g
    Duration : 1h 46mn
    Bit rate mode : Variable
    Bit rate : 61 bps
    Stream size : 47.6 KiB (0%)
    Title : English SDH Subtitle
    Language : English
    Encoded date : UTC 2015-10-13 11:52:29
    Tagged date : UTC 2015-10-13 11:54:59
    Menu #1
    00:00:00.000 : 1
    00:18:04.009 : 2
    00:33:45.659 : 3
    00:47:29.983 : 4
    01:05:24.306 : 5
    01:19:20.682 : 6
    01:28:59.761 : 7
    01:39:06.576 : 8
    Menu #2
    ID : 6
    Codec ID : text
    Duration : 1h 50mn
    Title : Chapter Titles
    Language : English
    Encoded date : UTC 2015-10-13 11:54:59
    Tagged date : UTC 2015-10-13 11:54:59
    Bit rate mode : CBR
    00:00:00.000 : 1
    00:18:04.009 : 2
    00:33:45.659 : 3
    00:47:29.983 : 4
    01:05:24.306 : 5
    01:19:20.682 : 6
    01:28:59.761 : 7
    01:39:06.576 : 8

    MediaInfo 720p Release

    General
    Complete name : 52 Pick-Up (HD).m4v
    Format : MPEG-4
    Codec ID : M4V
    File size : 4.84 GiB
    Duration : 1h 50mn
    Overall bit rate mode : Variable
    Overall bit rate : 6 277 Kbps
    Movie name : 52 Pick-Up
    Performer : John Frankenheimer
    Director : Джон Франкенхаймер
    Actor : Рой Шайдер / Энн-Маргрет / Вэнити / Джон Гловер / Роберт Требор / Лонни Чэпмен / Келли Престон / Даг МакКлёр / Кларенс Уильямс III / Алекс Хентелоф
    Screenplay by : Элмор Леонард / Джон Степлинг
    Producer : Йорам Глобус / Менахем Голан / Генри Т. Вайнштейн
    Genre : Thriller
    ContentType : Short Film
    Description : Гарри Митчелл после 23 лет брака изменяет своей жене Барбаре, баллотирующейся в городской совет. Когда трое вооруженных людей в масках шантажируют его, показывая компрометирующую видеокассету, на которой он заснят со своей пассией, и вымогают кругленькую сумму, он не может обратиться в полицию - боится испортить жене карьеру...
    Recorded date : UTC 1986-11-07 08:00:00
    Encoded date : UTC 2015-10-13 12:08:08
    Tagged date : UTC 2015-10-13 12:09:06
    Cover : Yes
    Rating : None
    Title/Sort : 52 Pick-Up
    LongDescription : Гарри Митчелл после 23 лет брака изменяет своей жене Барбаре, баллотирующейся в городской совет. Когда трое вооруженных людей в масках шантажируют его, показывая компрометирующую видеокассету, на которой он заснят со своей пассией, и вымогают кругленькую сумму, он не может обратиться в полицию - боится испортить жене карьеру. Дальше хуже: за невыполнение своих требований шантажисты убивают несчастную девушку и, засняв это на видео, показывают Митчеллу. Тут уж бывший майор начинает собственную игру...
    HDVideo : Yes
    AppleStoreCatalogID : 88793
    Vendor : Apple:vendor_id:1986-88793
    ContentRating : mpaa|R|400|
    Video #1
    ID : 1
    Format : AVC
    Format/Info : Advanced Video Codec
    Format profile : High@L3.1
    Format settings, CABAC : No
    Format settings, ReFrames : 3 frames
    Codec ID : avc1
    Codec ID/Info : Advanced Video Coding
    Duration : 1h 50mn
    Source duration : 1h 50mn
    Bit rate : 6 000 Kbps
    Width : 1 280 pixels
    Height : 694 pixels
    Display aspect ratio : 1.85:1
    Frame rate mode : Variable
    Frame rate : 23.976 fps
    Minimum frame rate : 23.974 fps
    Maximum frame rate : 23.981 fps
    Color space : YUV
    Chroma subsampling : 4:2:0
    Bit depth : 8 bits
    Scan type : Progressive
    Bits/(Pixel*Frame) : 0.282
    Stream size : 4.61 GiB (95%)
    Source stream size : 4.61 GiB (95%)
    Title : Main Program
    Writing library : x264 core 130 r2273 b3065e6
    Encoding settings : cabac=0 / ref=3 / deblock=1:-3:-2 / analyse=0x3:0x113 / me=umh / subme=9 / psy=1 / psy_rd=1.00:0.25 / mixed_ref=1 / me_range=32 / chroma_me=1 / trellis=0 / 8x8dct=1 / cqm=0 / deadzone=21,11 / fast_pskip=0 / chroma_qp_offset=-2 / threads=18 / lookahead_threads=1 / sliced_threads=0 / nr=0 / decimate=0 / interlaced=0 / bluray_compat=0 / constrained_intra=0 / bframes=3 / b_pyramid=0 / b_adapt=2 / b_bias=0 / direct=1 / weightb=0 / open_gop=0 / weightp=0 / keyint=240 / keyint_min=24 / scenecut=40 / intra_refresh=0 / rc_lookahead=40 / rc=2pass / mbtree=1 / bitrate=6000 / ratetol=1.0 / qcomp=0.60 / qpmin=0 / qpmax=69 / qpstep=4 / cplxblur=20.0 / qblur=0.5 / vbv_maxrate=9500 / vbv_bufsize=9500 / nal_hrd=none / ip_ratio=1.40 / aq=1:0.80
    Language : English
    Encoded date : UTC 2015-10-13 12:08:08
    Tagged date : UTC 2015-10-13 12:08:21
    Color range : Limited
    Color primaries : BT.709
    Transfer characteristics : BT.709
    Matrix coefficients : BT.709
    Video #2
    ID : 7
    Format : JPEG
    Codec ID : jpeg
    Duration : 1h 50mn
    Bit rate mode : Variable
    Bit rate : 345 bps
    Width : 640 pixels
    Height : 347 pixels
    Display aspect ratio : 1.85:1
    Frame rate mode : Constant
    Frame rate : 0.001 fps
    Color space : YUV
    Chroma subsampling : 4:2:0
    Bit depth : 8 bits
    Compression mode : Lossy
    Bits/(Pixel*Frame) : 1.553
    Stream size : 337 KiB (0%)
    Title : Chapter Images
    Language : English
    Encoded date : UTC 2015-10-13 12:08:28
    Tagged date : UTC 2015-10-13 12:08:28
    Audio #1
    ID : 2
    Format : AAC
    Format/Info : Advanced Audio Codec
    Format profile : LC
    Codec ID : 40
    Duration : 1h 50mn
    Bit rate mode : Variable
    Bit rate : 121 Kbps
    Maximum bit rate : 130 Kbps
    Channel(s) : 2 channels
    Channel positions : Front: L R
    Sampling rate : 48.0 KHz
    Compression mode : Lossy
    Stream size : 95.4 MiB (2%)
    Title : Russian AVO A.Mihalev Stereo
    Language : Russian
    Encoded date : UTC 2015-10-13 12:08:08
    Tagged date : UTC 2015-10-13 12:08:25
    Audio #2
    ID : 3
    Format : AAC
    Format/Info : Advanced Audio Codec
    Format profile : LC
    Codec ID : 40
    Duration : 1h 50mn
    Bit rate mode : Variable
    Bit rate : 166 Kbps
    Maximum bit rate : 217 Kbps
    Channel(s) : 2 channels
    Channel positions : Front: L R
    Sampling rate : 48.0 KHz
    Compression mode : Lossy
    Stream size : 131 MiB (3%)
    Title : English Stereo
    Language : English
    Encoded date : UTC 2015-10-13 12:08:08
    Tagged date : UTC 2015-10-13 12:08:25
    Text #1
    ID : 4
    Format : Timed Text
    Muxing mode : sbtl
    Codec ID : tx3g
    Duration : 1h 46mn
    Bit rate mode : Variable
    Bit rate : 59 bps
    Stream size : 45.6 KiB (0%)
    Title : English Subtitle
    Language : English
    Encoded date : UTC 2015-10-13 12:08:08
    Tagged date : UTC 2015-10-13 12:08:08
    Text #2
    ID : 5
    Format : Timed Text
    Muxing mode : sbtl
    Codec ID : tx3g
    Duration : 1h 46mn
    Bit rate mode : Variable
    Bit rate : 61 bps
    Stream size : 47.6 KiB (0%)
    Title : English SDH Subtitle
    Language : English
    Encoded date : UTC 2015-10-13 12:08:08
    Tagged date : UTC 2015-10-13 12:08:08
    Menu #1
    00:00:00.000 : 1
    00:18:04.009 : 2
    00:33:45.659 : 3
    00:47:29.983 : 4
    01:05:24.306 : 5
    01:19:20.682 : 6
    01:28:59.761 : 7
    01:39:06.576 : 8
    Menu #2
    ID : 6
    Codec ID : text
    Duration : 1h 50mn
    Title : Chapter Titles
    Language : English
    Encoded date : UTC 2015-10-13 12:08:25
    Tagged date : UTC 2015-10-13 12:08:25
    Bit rate mode : CBR
    00:00:00.000 : 1
    00:18:04.009 : 2
    00:33:45.659 : 3
    00:47:29.983 : 4
    01:05:24.306 : 5
    01:19:20.682 : 6
    01:28:59.761 : 7
    01:39:06.576 : 8

    x264 лог 480p Release

    HandBrakeCLI -i "/52_PICK-UP_1986_REMUX_HDCLUB/BDMV/STREAM/00000.m2ts" -t 1 -o "52.Pick.Up.480p.eng.m4v" -f mp4 -I -O -w 640 -l 462 --crop 20:20:0:0 --custom-anamorphic --modulus 2 --pixel-aspect 852:640 -e x264 -b 1700 -2 -a none -x cabac=0:ref=2:me=umh:bframes=0:weightp=0:subq=6:8x8dct=0:trellis=0:vbv-maxrate=5000:vbv-bufsize=5000 --verbose=1
    x264 [info]: frame I:2374  Avg QP:15.96  size: 26099  PSNR Mean Y:48.42 U:50.49 V:53.29 Avg:49.18 Global:48.60
    x264 [info]: frame P:156314 Avg QP:18.43  size:  8601  PSNR Mean Y:45.35 U:47.47 V:49.00 Avg:46.07 Global:45.67
    x264 [info]: mb I  I16..4: 23.3%  0.0% 76.7%
    x264 [info]: mb P  I16..4:  1.0%  0.0%  2.6%  P16..4: 50.1% 25.8%  9.8%  0.0%  0.0%    skip:10.7%
    x264 [info]: coded y,uvDC,uvAC intra: 74.1% 79.7% 57.9% inter: 32.2% 32.2% 5.4%
    x264 [info]: i16 v,h,dc,p: 46% 13% 12% 29%
    x264 [info]: i4 v,h,dc,ddl,ddr,vr,hd,vl,hu: 27% 14% 17%  7%  8%  9%  6%  7%  5%
    x264 [info]: i8c dc,h,v,p: 55% 15% 23%  7%
    x264 [info]: ref P L0: 68.2% 31.8%
    x264 [info]: SSIM Mean Y:0.9845677 (18.116db)
    x264 [info]: PSNR Mean Y:45.393 U:47.515 V:49.065 Avg:46.120 Global:45.702 kb/s:1699.97

    x264 лог 720p Release

    HandBrakeCLI -i "/52_PICK-UP_1986_REMUX_HDCLUB/BDMV/STREAM/00000.m2ts" -t 1 -o "52.Pick.Up.720p.eng.m4v" -f mp4 -4 -O -w 1280 -l 694 --crop 20:20:0:0 --modulus 2 -e x264 -b 6000 -2 -a none -x cabac=0:ref=3:me=umh:b-pyramid=none:b-adapt=2:weightb=0:trellis=0:weightp=0:vbv-maxrate=9500:vbv-bufsize=9500:subq=9:merange=32:deblock=-3,-2:qcomp=0.60:qpmin=0:qpmax=69:fast_pskip=0:aq-strength=0.8:no-dct-decimate=1:psy-rd=1.00,0.25 --verbose=1
    x264 [info]: frame I:1083  Avg QP:14.14  size:116677  PSNR Mean Y:49.78 U:51.42 V:53.55 Avg:50.46 Global:50.17
    x264 [info]: frame P:48824 Avg QP:16.73  size: 52933  PSNR Mean Y:47.28 U:49.00 V:51.18 Avg:47.98 Global:47.64
    x264 [info]: frame B:108781 Avg QP:18.76  size: 20569  PSNR Mean Y:45.67 U:47.43 V:50.36 Avg:46.43 Global:46.02
    x264 [info]: consecutive B-frames:  1.5%  9.1% 36.2% 53.1%
    x264 [info]: mb I  I16..4:  6.0% 62.1% 31.9%
    x264 [info]: mb P  I16..4:  2.7% 13.5%  3.9%  P16..4: 38.9% 26.9% 10.7%  0.0%  0.0%    skip: 3.4%
    x264 [info]: mb B  I16..4:  0.5%  2.4%  0.6%  B16..8: 45.0% 16.2%  2.5%  direct:11.5%  skip:21.3%  L0:42.4% L1:44.0% BI:13.6%
    x264 [info]: 8x8 transform intra:67.4% inter:49.9%
    x264 [info]: coded y,uvDC,uvAC intra: 80.8% 84.2% 62.4% inter: 35.6% 41.3% 17.6%
    x264 [info]: i16 v,h,dc,p: 45% 15% 12% 28%
    x264 [info]: i8 v,h,dc,ddl,ddr,vr,hd,vl,hu: 11%  8%  8% 11% 14% 14% 13% 11% 11%
    x264 [info]: i4 v,h,dc,ddl,ddr,vr,hd,vl,hu: 12%  8%  6% 11% 16% 15% 13% 10%  8%
    x264 [info]: i8c dc,h,v,p: 55% 17% 19% 10%
    x264 [info]: ref P L0: 61.5% 23.1% 15.4%
    x264 [info]: ref B L0: 74.5% 25.5%
    x264 [info]: SSIM Mean Y:0.9833453 (17.785db)
    x264 [info]: PSNR Mean Y:46.193 U:47.943 V:50.634 Avg:46.932 Global:46.477 kb/s:5981.10

    Скриншоты 480p Release

    Скриншоты 720p Release

    -В iTunes Store этого фильма нет, поэтому при создании релиза готовил 4 различных постера для фильма. Ниже привожу их все (счелкните по люблму и получите полноразмерный постер): -

    Релиз подготовлен для просмотра на Apple TV, iPad, iPhone, iPod Touch.
    Для просмотра данного релиза на компьютере с ОС Windows рекомендуется использовать VLC media player
    Скачать .torrent

    Скачать торрент-файл бесплатно и на максимальной скорости!

    Как скачивать? · Что такое торрент? · Рейтинг и ограничения

    !ВНИМАНИЕ!
    Сайт не распространяет и не хранит электронные версии произведений, а занимается лишь лишь предоставлением доступа к создаваемому пользователями каталогу ссылок на торрент-файлы, которые содержат только списки хеш-сумм, убедительная просьба с жалобами обращаться напрямую к пользователю. Файлы для обмена на трекере предоставлены пользователями сайта, и администрация не несёт ответственности за их содержание. Просьба не заливать файлы, защищенные авторскими правами, а также файлы нелегального содержания!


    _________________
    [Профиль] [ЛС]
    Показать сообщения:    
    Ответить на тему

    Текущее время: Сегодня, в 04:19

    Часовой пояс: GMT + 2



    Вы не можете начинать темы
    Вы не можете отвечать на сообщения
    Вы не можете редактировать свои сообщения
    Вы не можете удалять свои сообщения
    Вы не можете голосовать в опросах
    Вы не можете прикреплять файлы к сообщениям
    Вы не можете скачивать файлы