BitTorrentTracker PerecTracker.org
BitTorrentTracker PerecTracker.org
    
Регистрация  ·  Вход
 
 · 
Забыли пароль?

  • Грэйс: Одержимость / Grace: The Possession (Джефф Чан) [2014, США, Канада, ужасы, триллер, WEB-DL HD (720p)] MVO, Original

    Ответить на тему
     
    Автор Сообщение

    Flirldrerve

    Создавать темы 27-Окт-2015 05:18

           

    [Цитировать]

    Грэйс: Одержимость / Grace: The Possession
    4.626 / 10
    -Год выпуска: 2014
    Страна: США, Канада
    Жанр: ужасы, триллер
    Продолжительность: 87 мин.
    Перевод: Многоголосый закадровый перевод
    Оригинальная аудиодорожка: Есть
    Cубтитры: Нет
    Режиссёр: Джефф Чан
    Сценарий: Джефф Чан, Крис Паре, Пит Хуанг
    Продюсер: Крис Фергюсон, Брайан Кэвэна-Джонс, Риан Кехилл
    Оператор: Норм Ли
    Композитор: Джозеф Бишара
    Художник: Уолтер Барнетт, Мила Франович
    Монтаж: Грег ЭнДжи
    В ролях: Алексия Фаст, Дэниэл Арнольд, Мадлен Артур, Джошуа Дж. Баллард, Марго Бернер, Наташа Барнетт, Алан Дэйл, Бретт Дир, Алексис Нэп, Джоэль Мур
    Мировая премьера: 21 октября 2014
    Описание: Грейс, наивная первокурсница-девственница, которая пытается противопоставить свою религиозность культуре кампуса, но несмотря на ее благочестивость, зло захватывает ее тело и погружает ее в хаос..-Качество исходника: WEB-DL 720p (HDClub)
    Качество: WEB-DL
    Тип: 720p
    Контейнер: m4v
    Видео: 1280x720 at 23.976 fps, MPEG-4 AVC, ~4100 kbps avg
    Аудио#1: Russian: 48 kHz, ААС, 2/0 (L,R), ~160.00 kbps avg |Многоголосый закадровый, iTunes Russia|
    Аудио#2: English: 48 kHz, ААС, 2/0 (L,R), ~160.00 kbps avg
    Аудио#3: Russian: 48 kHz, AC3, 3/2 (L,C,R,l,r) + LFE ch, ~384.00 kbps avg |Многоголосый закадровый, iTunes Russia|-

    iTunes Meta Tags for country ru

    Name: Грэйс: Одержимость
    Artist: Jeff Chan
    Genre: Horror
    Release Date: 2014-10-21T08:00:00Z
    Description: Грейс, наивная первокурсница-девственница, которая пытается противопоставить свою религиозность культуре кампуса, но несмотря на ее благочестивость, зло захватывает ее тело и погружает ее в хаос..
    Long Description: Грейс, наивная первокурсница-девственница, которая пытается противопоставить свою религиозность культуре кампуса, но несмотря на ее благочестивость, зло захватывает ее тело и погружает ее в хаос..
    Rating: 18+
    Studio: Automatic Entertainment; Colony Pictures, Ltd.
    Cast: Алексия Фаст, Дэниэл Арнольд, Мадлен Артур, Джошуа Дж. Баллард, Марго Бернер, Наташа Барнетт, Алан Дэйл, Бретт Дир, Алексис Нэп, Джоэль Мур
    Director: Джефф Чан
    Producers: Крис Фергюсон, Брайан Кэвэна-Джонс, Риан Кехилл
    Screenwriters: Джефф Чан, Крис Паре, Пит Хуанг
    contentID: 920301710
    XID: Apple:vendor_id:2014-783209
    Sort Name: Грэйс: Одержимость

    iTunes Meta Tags for country us

    Name: Grace: The Possession
    Artist: Jeff Chan
    Genre: Horror
    Release Date: 2014-10-21T08:00:00Z
    Description: Грейс, наивная первокурсница-девственница, которая пытается противопоставить свою религиозность культуре кампуса, но несмотря на ее благочестивость, зло захватывает ее тело и погружает ее в хаос..
    Long Description: Грейс, наивная первокурсница-девственница, которая пытается противопоставить свою религиозность культуре кампуса, но несмотря на ее благочестивость, зло захватывает ее тело и погружает ее в хаос..
    Rating: R
    Studio: Automatic Entertainment; Colony Pictures, Ltd.
    Cast: Алексия Фаст, Дэниэл Арнольд, Мадлен Артур, Джошуа Дж. Баллард, Марго Бернер, Наташа Барнетт, Алан Дэйл, Бретт Дир, Алексис Нэп, Джоэль Мур
    Director: Джефф Чан
    Producers: Крис Фергюсон, Брайан Кэвэна-Джонс, Риан Кехилл
    Screenwriters: Джефф Чан, Крис Паре, Пит Хуанг
    Copyright: © 2014 Automatik Entertainment , LLC. All Rights Reserved.
    contentID: 920301710
    XID: Apple:vendor_id:2014-783209
    Sort Name: Grace: The Possession

    MediaInfo 720p Release

    General
    Complete name : Grace_ The Possession (HD).m4v
    Format : MPEG-4
    Codec ID : M4V
    File size : 2.95 GiB
    Duration : 1h 27mn
    Overall bit rate mode : Variable
    Overall bit rate : 4 816 Kbps
    Movie name : Grace: The Possession
    Performer : Jeff Chan
    Director : Джефф Чан
    Actor : Алексия Фаст / Дэниэл Арнольд / Мадлен Артур / Джошуа Дж. Баллард / Марго Бернер / Наташа Барнетт / Алан Дэйл / Бретт Дир / Алексис Нэп / Джоэль Мур
    Screenplay by : Джефф Чан / Крис Паре / Пит Хуанг
    Producer : Крис Фергюсон / Брайан Кэвэна-Джонс / Риан Кехилл
    Production studio : Automatic Entertainment; Colony Pictures, Ltd.
    Genre : Horror
    ContentType : Short Film
    Description : Грейс, наивная первокурсница-девственница, которая пытается противопоставить свою религиозность культуре кампуса, но несмотря на ее благочестивость, зло захватывает ее тело и погружает ее в хаос..
    Recorded date : UTC 2014-10-21 08:00:00
    Encoded date : UTC 2015-10-13 13:40:46
    Tagged date : UTC 2015-10-13 13:44:48
    Copyright : © 2014 Automatik Entertainment , LLC. All Rights Reserved.
    Cover : Yes
    Rating : None
    Title/Sort : Grace: The Possession
    LongDescription : Грейс, наивная первокурсница-девственница, которая пытается противопоставить свою религиозность культуре кампуса, но несмотря на ее благочестивость, зло захватывает ее тело и погружает ее в хаос..
    HDVideo : Yes
    AppleStoreCatalogID : 920301710
    Vendor : Apple:vendor_id:2014-783209
    ContentRating : mpaa|R|400|
    Video #1
    ID : 1
    Format : AVC
    Format/Info : Advanced Video Codec
    Format profile : High@L3.1
    Format settings, CABAC : No
    Format settings, ReFrames : 2 frames
    Codec ID : avc1
    Codec ID/Info : Advanced Video Coding
    Duration : 1h 27mn
    Bit rate : 4 097 Kbps
    Width : 1 280 pixels
    Height : 720 pixels
    Display aspect ratio : 16:9
    Frame rate mode : Variable
    Frame rate : 23.976 fps
    Minimum frame rate : 23.810 fps
    Maximum frame rate : 24.390 fps
    Color space : YUV
    Chroma subsampling : 4:2:0
    Bit depth : 8 bits
    Scan type : Progressive
    Bits/(Pixel*Frame) : 0.185
    Stream size : 2.51 GiB (85%)
    Title : Main Program
    Language : English
    Encoded date : UTC 2015-10-13 13:40:46
    Tagged date : UTC 2015-10-13 13:44:01
    Color range : Limited
    Color primaries : BT.709
    Transfer characteristics : BT.709
    Matrix coefficients : BT.709
    Video #2
    ID : 6
    Format : JPEG
    Codec ID : jpeg
    Duration : 1h 27mn
    Bit rate mode : Variable
    Bit rate : 626 bps
    Width : 640 pixels
    Height : 360 pixels
    Display aspect ratio : 16:9
    Frame rate mode : Variable
    Frame rate : 0.003 fps
    Minimum frame rate : 0.001 fps
    Maximum frame rate : 0.007 fps
    Color space : YUV
    Chroma subsampling : 4:2:0
    Bit depth : 8 bits
    Compression mode : Lossy
    Bits/(Pixel*Frame) : 0.906
    Stream size : 408 KiB (0%)
    Title : Chapter Images
    Language : English
    Encoded date : UTC 2015-10-13 13:44:05
    Tagged date : UTC 2015-10-13 13:44:05
    Audio #1
    ID : 2
    Format : AAC
    Format/Info : Advanced Audio Codec
    Format profile : LC
    Codec ID : 40
    Duration : 1h 27mn
    Bit rate mode : Variable
    Bit rate : 164 Kbps
    Maximum bit rate : 238 Kbps
    Channel(s) : 2 channels
    Channel positions : Front: L R
    Sampling rate : 48.0 KHz
    Compression mode : Lossy
    Stream size : 103 MiB (3%)
    Title : Russian MVO from iTunes Stereo
    Language : Russian
    Encoded date : UTC 2015-10-13 13:40:46
    Tagged date : UTC 2015-10-13 13:40:49
    Audio #2
    ID : 3
    Format : AAC
    Format/Info : Advanced Audio Codec
    Format profile : LC
    Codec ID : 40
    Duration : 1h 27mn
    Bit rate mode : Variable
    Bit rate : 156 Kbps
    Maximum bit rate : 238 Kbps
    Channel(s) : 2 channels
    Channel positions : Front: L R
    Sampling rate : 48.0 KHz
    Compression mode : Lossy
    Stream size : 97.9 MiB (3%)
    Title : English Stereo
    Language : English
    Encoded date : UTC 2015-10-13 13:40:46
    Tagged date : UTC 2015-10-13 13:44:01
    Audio #3
    ID : 4
    Format : AC-3
    Format/Info : Audio Coding 3
    Mode extension : CM (complete main)
    Format settings, Endianness : Big
    Codec ID : ac-3
    Duration : 1h 27mn
    Bit rate mode : Constant
    Bit rate : 384 Kbps
    Channel(s) : 6 channels
    Channel positions : Front: L C R, Side: L R, LFE
    Sampling rate : 48.0 KHz
    Bit depth : 16 bits
    Compression mode : Lossy
    Stream size : 240 MiB (8%)
    Title : Russian MVO from iTunes DD 5.1
    Language : Russian
    Encoded date : UTC 2015-10-13 13:40:46
    Tagged date : UTC 2015-10-13 13:44:01
    Menu #1
    00:00:00.000 : 1
    00:11:49.000 : 2
    00:16:56.000 : 3
    00:19:39.000 : 4
    00:25:58.000 : 5
    00:28:19.000 : 6
    00:32:06.000 : 7
    00:37:33.000 : 8
    00:41:38.000 : 9
    00:46:48.000 : 10
    00:52:27.000 : 11
    00:59:00.000 : 12
    01:03:26.000 : 13
    01:09:50.000 : 14
    01:17:02.000 : 15
    01:20:53.000 : 16
    Menu #2
    ID : 5
    Codec ID : text
    Duration : 1h 27mn
    Title : Chapter Titles
    Language : English
    Encoded date : UTC 2015-10-13 13:44:01
    Tagged date : UTC 2015-10-13 13:44:01
    00:00:00.000 : 1
    00:11:49.000 : 2
    00:16:56.000 : 3
    00:19:39.000 : 4
    00:25:58.000 : 5
    00:28:19.000 : 6
    00:32:06.000 : 7
    00:37:33.000 : 8
    00:41:38.000 : 9
    00:46:48.000 : 10
    00:52:27.000 : 11
    00:59:00.000 : 12
    01:03:26.000 : 13
    01:09:50.000 : 14
    01:17:02.000 : 15
    01:20:53.000 : 16
    Bit rate mode : VBR

    Скриншоты 720p Release

    -

    Релиз подготовлен для просмотра на Apple TV, iPad, iPhone, iPod Touch.
    Для просмотра данного релиза на компьютере с ОС Windows рекомендуется использовать VLC media player
    Скачать .torrent

    Скачать торрент-файл бесплатно и на максимальной скорости!

    Как скачивать? · Что такое торрент? · Рейтинг и ограничения

    !ВНИМАНИЕ!
    Сайт не распространяет и не хранит электронные версии произведений, а занимается лишь лишь предоставлением доступа к создаваемому пользователями каталогу ссылок на торрент-файлы, которые содержат только списки хеш-сумм, убедительная просьба с жалобами обращаться напрямую к пользователю. Файлы для обмена на трекере предоставлены пользователями сайта, и администрация не несёт ответственности за их содержание. Просьба не заливать файлы, защищенные авторскими правами, а также файлы нелегального содержания!


    _________________
    [Профиль] [ЛС]
    Показать сообщения:    
    Ответить на тему

    Текущее время: Сегодня, в 04:24

    Часовой пояс: GMT + 2



    Вы не можете начинать темы
    Вы не можете отвечать на сообщения
    Вы не можете редактировать свои сообщения
    Вы не можете удалять свои сообщения
    Вы не можете голосовать в опросах
    Вы не можете прикреплять файлы к сообщениям
    Вы не можете скачивать файлы