BitTorrentTracker PerecTracker.org
BitTorrentTracker PerecTracker.org
    
Регистрация  ·  Вход
 
 · 
Забыли пароль?

  • Любит не любит (Клим Шипенко) [2014, Россия, комедия, WEB-DL HD (720p)] Original

    Ответить на тему
     
    Автор Сообщение

    Flirldrerve

    Создавать темы 27-Окт-2015 05:18

           

    [Цитировать]

    Любит не любит
    6.329 / 10
    -Год выпуска: 2014
    Страна: Россия
    Жанр: комедия
    Продолжительность: 83 мин.
    Перевод: Не требуется
    Оригинальная аудиодорожка: Есть
    Cубтитры: Нет
    Режиссёр: Клим Шипенко
    Сценарий: Клим Шипенко
    Продюсер: Эдуард Илоян, Виталий Шляппо, Денис Жалинский
    Оператор: Борис Литовченко
    Композитор: -
    Монтаж: Павел Ханютин
    В ролях: Максим Матвеев, Светлана Ходченкова, Юрий Колокольников, Любовь Аксенова, Сергей Газаров, Екатерина Васильева, Максим Виторган, Александр Ратников, Никита Панфилов, Олег Комаров
    Сборы в России: $2 342 423
    Мировая премьера: 4 декабря 2014
    Премьера (РФ): 4 декабря 2014, Централ Партнершип
    Релиз на DVD: 20 января 2015, CD Land
    Описание: Леша и Алена вот-вот должны пожениться. И все бы ничего, если бы не знакомство Леши с известной журналисткой Ирой накануне помолвки. Её образ никак не вписывается в рамки привычной для Алексея жизни. Ира вносит хаос в его жизнь, а Алёна - наивная девушка, любит его таким, какой он есть, и мечтает стать его женой.
    Авантюризм Иры и ее готовность совершать безумные поступки дают Леше понять, что его жизнь может быть гораздо красочнее. Но готов ли он к авантюрным поступкам, когда на кону счастливое будущее с Аленой?-Качество исходника: WEB-DL 720p (HDClub)
    Качество: WEB-DL
    Тип: 720p
    Контейнер: m4v
    Видео: 1280x538 at 24.000 fps, MPEG-4 AVC, ~4100 kbps avg
    Аудио#1: Russian: 48 kHz, ААС, 2/0 (L,R), ~160.00 kbps avg
    Аудио#2: Russian: 48 kHz, AC3, 3/2 (L,C,R,l,r) + LFE ch, ~384.00 kbps avg-

    iTunes Meta Tags for country ru

    Name: Любит не любит
    Artist: Клим Шипенко
    Genre: Comedy
    Release Date: 2014-12-04T08:00:00Z
    Description: Леша и Алена вот-вот должны пожениться. И все бы ничего, если бы не знакомство Леши с известной журналисткой Ирой накануне помолвки. Её образ никак не вписывается в рамки привычной для Алексея жизни. Ира вносит хаос в его жизнь, а Алёна - наивная девушка, любит его таким, какой он есть, и мечтает стать его женой...
    Long Description: Леша и Алена вот-вот должны пожениться. И все бы ничего, если бы не знакомство Леши с известной журналисткой Ирой накануне помолвки. Её образ никак не вписывается в рамки привычной для Алексея жизни. Ира вносит хаос в его жизнь, а Алёна - наивная девушка, любит его таким, какой он есть, и мечтает стать его женой.
    Авантюризм Иры и ее готовность совершать безумные поступки дают Леше понять, что его жизнь может быть гораздо красочнее. Но готов ли он к авантюрным поступкам, когда на кону счастливое будущее с Аленой?
    Rating: 12+
    Studio: Yellow, Black & White
    Cast: Максим Матвеев, Светлана Ходченкова, Юрий Колокольников, Любовь Аксенова, Сергей Газаров, Екатерина Васильева, Максим Виторган, Александр Ратников, Никита Панфилов, Олег Комаров
    Director: Клим Шипенко
    Producers: Эдуард Илоян, Виталий Шляппо, Денис Жалинский
    Screenwriters: Клим Шипенко
    Copyright: © 2014 Централ Партнершип
    contentID: 951112854
    XID: Apple:vendor_id:2014-705379
    Sort Name: Любит не любит

    MediaInfo 720p Release

    General
    Complete name : Любит не любит (HD).m4v
    Format : MPEG-4
    Codec ID : M4V
    File size : 2.69 GiB
    Duration : 1h 23mn
    Overall bit rate mode : Variable
    Overall bit rate : 4 610 Kbps
    Movie name : Любит не любит
    Performer : Клим Шипенко
    Director : Клим Шипенко
    Actor : Максим Матвеев / Светлана Ходченкова / Юрий Колокольников / Любовь Аксенова / Сергей Газаров / Екатерина Васильева / Максим Виторган / Александр Ратников / Никита Панфилов / Олег Комаров
    Screenplay by : Клим Шипенко
    Producer : Эдуард Илоян / Виталий Шляппо / Денис Жалинский
    Production studio : Yellow, Black & White
    Genre : Comedy
    ContentType : Short Film
    Description : Леша и Алена вот-вот должны пожениться. И все бы ничего, если бы не знакомство Леши с известной журналисткой Ирой накануне помолвки. Её образ никак не вписывается в рамки привычной для Алексея жизни. Ира вносит хаос в его жизнь, а Алёна - наивная девушка, любит его таким, какой он есть, и мечтает стать его женой...
    Recorded date : UTC 2014-12-04 08:00:00
    Encoded date : UTC 2015-10-13 14:49:18
    Tagged date : UTC 2015-10-13 15:00:01
    Copyright : © 2014 Централ Партнершип
    Cover : Yes
    Rating : None
    Title/Sort : Любит не любит
    LongDescription : Леша и Алена вот-вот должны пожениться. И все бы ничего, если бы не знакомство Леши с известной журналисткой Ирой накануне помолвки. Её образ никак не вписывается в рамки привычной для Алексея жизни. Ира вносит хаос в его жизнь, а Алёна - наивная девушка, любит его таким, какой он есть, и мечтает стать его женой. / Авантюризм Иры и ее готовность совершать безумные поступки дают Леше понять, что его жизнь может быть гораздо красочнее. Но готов ли он к авантюрным поступкам, когда на кону счастливое будущее с Аленой?
    HDVideo : Yes
    AppleStoreCatalogID : 951112854
    Vendor : Apple:vendor_id:2014-705379
    ContentRating : ru-movie|12+|200|
    Video #1
    ID : 1
    Format : AVC
    Format/Info : Advanced Video Codec
    Format profile : Main@L3.1
    Format settings, CABAC : No
    Format settings, ReFrames : 2 frames
    Codec ID : avc1
    Codec ID/Info : Advanced Video Coding
    Duration : 1h 23mn
    Bit rate : 4 053 Kbps
    Width : 1 280 pixels
    Height : 538 pixels
    Display aspect ratio : 2.40:1
    Frame rate mode : Variable
    Frame rate : 24.000 fps
    Minimum frame rate : 23.810 fps
    Maximum frame rate : 24.390 fps
    Color space : YUV
    Chroma subsampling : 4:2:0
    Bit depth : 8 bits
    Scan type : Progressive
    Bits/(Pixel*Frame) : 0.245
    Stream size : 2.36 GiB (88%)
    Title : Main Program
    Language : Russian
    Encoded date : UTC 2015-10-13 14:49:18
    Tagged date : UTC 2015-10-13 14:59:11
    Color range : Limited
    Color primaries : BT.709
    Transfer characteristics : BT.709
    Matrix coefficients : BT.709
    Video #2
    ID : 5
    Format : JPEG
    Codec ID : jpeg
    Duration : 1h 23mn
    Bit rate mode : Variable
    Bit rate : 987 bps
    Width : 640 pixels
    Height : 269 pixels
    Display aspect ratio : 2.40:1
    Frame rate mode : Variable
    Frame rate : 0.003 fps
    Minimum frame rate : 0.003 fps
    Maximum frame rate : 0.004 fps
    Color space : YUV
    Chroma subsampling : 4:2:0
    Bit depth : 8 bits
    Compression mode : Lossy
    Bits/(Pixel*Frame) : 1.911
    Stream size : 683 KiB (0%)
    Title : Chapter Images
    Language : Russian
    Encoded date : UTC 2015-10-13 14:59:15
    Tagged date : UTC 2015-10-13 14:59:16
    Audio #1
    ID : 2
    Format : AAC
    Format/Info : Advanced Audio Codec
    Format profile : LC
    Codec ID : 40
    Duration : 1h 23mn
    Bit rate mode : Variable
    Bit rate : 165 Kbps
    Maximum bit rate : 245 Kbps
    Channel(s) : 2 channels
    Channel positions : Front: L R
    Sampling rate : 48.0 KHz
    Compression mode : Lossy
    Stream size : 98.2 MiB (4%)
    Title : Russian Stereo
    Language : Russian
    Encoded date : UTC 2015-10-13 14:49:18
    Tagged date : UTC 2015-10-13 14:49:22
    Audio #2
    ID : 3
    Format : AC-3
    Format/Info : Audio Coding 3
    Mode extension : CM (complete main)
    Format settings, Endianness : Big
    Codec ID : ac-3
    Duration : 1h 23mn
    Bit rate mode : Constant
    Bit rate : 384 Kbps
    Channel(s) : 6 channels
    Channel positions : Front: L C R, Side: L R, LFE
    Sampling rate : 48.0 KHz
    Bit depth : 16 bits
    Compression mode : Lossy
    Stream size : 229 MiB (8%)
    Title : Russian DD 5.1
    Language : Russian
    Encoded date : UTC 2015-10-13 14:49:18
    Tagged date : UTC 2015-10-13 14:59:11
    Menu #1
    00:00:00.000 : 1
    00:04:52.000 : 2
    00:10:34.000 : 3
    00:14:36.000 : 4
    00:19:33.000 : 5
    00:24:56.000 : 6
    00:30:02.000 : 7
    00:34:42.000 : 8
    00:39:25.000 : 9
    00:45:33.000 : 10
    00:50:48.000 : 11
    00:55:13.000 : 12
    00:59:40.000 : 13
    01:04:35.000 : 14
    01:09:54.000 : 15
    01:14:40.000 : 16
    01:18:55.000 : 17
    Menu #2
    ID : 4
    Codec ID : text
    Duration : 1h 23mn
    Title : Chapter Titles
    Language : Russian
    Encoded date : UTC 2015-10-13 14:59:11
    Tagged date : UTC 2015-10-13 14:59:11
    00:00:00.000 : 1
    00:04:52.000 : 2
    00:10:34.000 : 3
    00:14:36.000 : 4
    00:19:33.000 : 5
    00:24:56.000 : 6
    00:30:02.000 : 7
    00:34:42.000 : 8
    00:39:25.000 : 9
    00:45:33.000 : 10
    00:50:48.000 : 11
    00:55:13.000 : 12
    00:59:40.000 : 13
    01:04:35.000 : 14
    01:09:54.000 : 15
    01:14:40.000 : 16
    01:18:55.000 : 17
    Bit rate mode : VBR

    Скриншоты 720p Release

    -

    Релиз подготовлен для просмотра на Apple TV, iPad, iPhone, iPod Touch.
    Для просмотра данного релиза на компьютере с ОС Windows рекомендуется использовать VLC media player
    Скачать .torrent

    Скачать торрент-файл бесплатно и на максимальной скорости!

    Как скачивать? · Что такое торрент? · Рейтинг и ограничения

    !ВНИМАНИЕ!
    Сайт не распространяет и не хранит электронные версии произведений, а занимается лишь лишь предоставлением доступа к создаваемому пользователями каталогу ссылок на торрент-файлы, которые содержат только списки хеш-сумм, убедительная просьба с жалобами обращаться напрямую к пользователю. Файлы для обмена на трекере предоставлены пользователями сайта, и администрация не несёт ответственности за их содержание. Просьба не заливать файлы, защищенные авторскими правами, а также файлы нелегального содержания!


    _________________
    [Профиль] [ЛС]
    Показать сообщения:    
    Ответить на тему

    Текущее время: Сегодня, в 18:28

    Часовой пояс: GMT + 2



    Вы не можете начинать темы
    Вы не можете отвечать на сообщения
    Вы не можете редактировать свои сообщения
    Вы не можете удалять свои сообщения
    Вы не можете голосовать в опросах
    Вы не можете прикреплять файлы к сообщениям
    Вы не можете скачивать файлы