BitTorrentTracker PerecTracker.org
BitTorrentTracker PerecTracker.org
    
Регистрация  ·  Вход
 
 · 
Забыли пароль?

  • Дубровский (Александр Вартанов, Кирилл Михановский) [2014, Россия, драма, BDRip HD (720p), SD (480p)] Original

    Ответить на тему
     
    Автор Сообщение

    Flirldrerve

    Создавать темы 27-Окт-2015 05:18

           

    [Цитировать]

    Дубровский
    5.739 / 10
    -Год выпуска: 2014
    Страна: Россия
    Жанр: драма
    Продолжительность: 123 мин.
    Перевод: Не требуется
    Оригинальная аудиодорожка: Есть
    Cубтитры: Нет
    Режиссёр: Александр Вартанов, Кирилл Михановский
    Сценарий: Константин Чернозатонский, Михаил Брашинский, Кирилл Михановский
    Продюсер: Евгений Гиндилис
    Оператор: Анастасий Михайлов, Всеволод Каптур
    Композитор: Алексей Айги
    Художник: Анна Полякова
    Монтаж: Иван Гаев, Александр Вартанов, Дмитрий Наумов
    В ролях: Данила Козловский, Клавдия Коршунова, Юрий Цурило, Александр Мезенцев, Игорь Гордин, Дмитрий Поднозов, Елена Дудина, Евгений Вакунов, Артем Кобзев, Любовь Сергеева
    Бюджет: $2 500 000
    Сборы в России: $1 677 946
    Мировая премьера: 6 марта 2014
    Премьера (РФ): 6 марта 2014, DreamTeam
    Релиз на Blu-Ray: 21 апреля 2014, Новый Диск
    Релиз на DVD: 7 апреля 2014, Новый Диск
    Описание: Владимир Дубровский - успешный столичный юрист и завсегдатай модных клубов, Маша Троекурова - выпускница английского колледжа и нежная дочь... Хозяева собственных судеб, они едва ли похожи на героев Пушкина. Но внезапная ссора их отцов решительно меняет жизнь Владимира и Маши - они погружаются в реальность, где действуют совсем другие законы...-Качество исходника: Blu-Ray 1080p (BlueBird)
    Качество: BDRip
    Тип: 480p 720p
    Контейнер: m4v
    Видео: 640х460 анаморф 852x460 at 24.000 fps, MPEG-4 AVC, ~1200 kbps avg
    Видео: 1280х690 at 24.000 fps, MPEG-4 AVC, ~3800 kbps avg
    Аудио#1: Russian: 48 kHz, ААС, 2/0 (L,R), ~128.00 / 192.00 kbps avg
    Аудио#2: Russian: 48 kHz, AC3, 3/2 (L,C,R,l,r) + LFE ch, ~640.00 kbps avg-

    Знаете ли Вы, что...
  • Экранизация повести Александра Пушкина «Дубровский».
  • В сцене нападения на пост ГАИ по радио звучит новость — известная в свое время комичная запись «Схватка двух якодзун».
    -

    iTunes Meta Tags for country ru

    Name: Дубровский
    Artist: Александр Вартанов & Кирилл Михановский
    Genre: Drama
    Release Date: 2014-03-06T08:00:00Z
    Description: Владимир Дубровский - успешный столичный юрист и завсегдатай модных клубов, Маша Троекурова - выпускница английского колледжа и нежная дочь... Хозяева собственных судеб, они едва ли похожи на героев Пушкина...
    Long Description: Владимир Дубровский - успешный столичный юрист и завсегдатай модных клубов, Маша Троекурова - выпускница английского колледжа и нежная дочь... Хозяева собственных судеб, они едва ли похожи на героев Пушкина. Но внезапная ссора их отцов решительно меняет жизнь Владимира и Маши - они погружаются в реальность, где действуют совсем другие законы...
    Rating: 16+
    Studio: ООО "Авангард Медиа"
    Cast: Данила Козловский, Клавдия Коршунова, Юрий Цурило, Александр Мезенцев, Игорь Гордин, Дмитрий Поднозов, Елена Дудина, Евгений Вакунов, Артем Кобзев, Любовь Сергеева
    Director: Александр Вартанов, Кирилл Михановский
    Producers: Евгений Гиндилис
    Screenwriters: Константин Чернозатонский, Михаил Брашинский, Кирилл Михановский
    contentID: 869105357
    XID: Apple:vendor_id:2014-677731
    Sort Name: Дубровский

    MediaInfo 480p Release

    General
    Complete name : Дубровский.m4v
    Format : MPEG-4
    Codec ID : M4V
    File size : 1.21 GiB
    Duration : 2h 10mn
    Overall bit rate mode : Variable
    Overall bit rate : 1 332 Kbps
    Movie name : Дубровский
    Performer : Александр Вартанов & Кирилл Михановский
    Director : Александр Вартанов / Кирилл Михановский
    Actor : Данила Козловский / Клавдия Коршунова / Юрий Цурило / Александр Мезенцев / Игорь Гордин / Дмитрий Поднозов / Елена Дудина / Евгений Вакунов / Артем Кобзев / Любовь Сергеева
    Screenplay by : Константин Чернозатонский / Михаил Брашинский / Кирилл Михановский
    Producer : Евгений Гиндилис
    Production studio : ООО "Авангард Медиа"
    Genre : Drama
    ContentType : Short Film
    Description : Владимир Дубровский - успешный столичный юрист и завсегдатай модных клубов, Маша Троекурова - выпускница английского колледжа и нежная дочь... Хозяева собственных судеб, они едва ли похожи на героев Пушкина...
    Recorded date : UTC 2014-03-06 08:00:00
    Encoded date : UTC 2015-09-17 09:45:25
    Tagged date : UTC 2015-09-17 09:47:17
    Cover : Yes
    Rating : None
    Title/Sort : Дубровский
    LongDescription : Владимир Дубровский - успешный столичный юрист и завсегдатай модных клубов, Маша Троекурова - выпускница английского колледжа и нежная дочь... Хозяева собственных судеб, они едва ли похожи на героев Пушкина. Но внезапная ссора их отцов решительно меняет жизнь Владимира и Маши - они погружаются в реальность, где действуют совсем другие законы...
    AppleStoreCatalogID : 869105357
    Vendor : Apple:vendor_id:2014-677731
    ContentRating : ru-movie|16+|375|
    Video #1
    ID : 1
    Format : AVC
    Format/Info : Advanced Video Codec
    Format profile : Baseline@L3
    Format settings, CABAC : No
    Format settings, ReFrames : 2 frames
    Codec ID : avc1
    Codec ID/Info : Advanced Video Coding
    Duration : 2h 10mn
    Bit rate : 1 200 Kbps
    Width : 640 pixels
    Height : 460 pixels
    Display aspect ratio : 1.85:1
    Frame rate mode : Constant
    Frame rate : 24.000 fps
    Color space : YUV
    Chroma subsampling : 4:2:0
    Bit depth : 8 bits
    Scan type : Progressive
    Bits/(Pixel*Frame) : 0.170
    Stream size : 1.09 GiB (90%)
    Title : Main Program
    Writing library : x264 core 130 r2273 b3065e6
    Encoding settings : cabac=0 / ref=2 / deblock=1:0:0 / analyse=0x1:0x111 / me=umh / subme=6 / psy=1 / psy_rd=1.00:0.00 / mixed_ref=1 / me_range=16 / chroma_me=1 / trellis=0 / 8x8dct=0 / cqm=0 / deadzone=21,11 / fast_pskip=1 / chroma_qp_offset=-2 / threads=18 / lookahead_threads=3 / sliced_threads=0 / nr=0 / decimate=1 / interlaced=0 / bluray_compat=0 / constrained_intra=0 / bframes=0 / weightp=0 / keyint=240 / keyint_min=24 / scenecut=40 / intra_refresh=0 / rc_lookahead=40 / rc=2pass / mbtree=1 / bitrate=1200 / ratetol=1.0 / qcomp=0.60 / qpmin=0 / qpmax=69 / qpstep=4 / cplxblur=20.0 / qblur=0.5 / vbv_maxrate=5000 / vbv_bufsize=5000 / nal_hrd=none / ip_ratio=1.40 / aq=1:1.00
    Language : Russian
    Encoded date : UTC 2015-09-17 09:45:25
    Tagged date : UTC 2015-09-17 09:45:29
    Color range : Limited
    Color primaries : BT.709
    Transfer characteristics : BT.709
    Matrix coefficients : BT.709
    Video #2
    ID : 4
    Format : JPEG
    Codec ID : jpeg
    Duration : 2h 10mn
    Bit rate mode : Variable
    Bit rate : 322 bps
    Width : 640 pixels
    Height : 345 pixels
    Display aspect ratio : 1.85:1
    Frame rate mode : Variable
    Frame rate : 0.001 fps
    Minimum frame rate : 0.001 fps
    Maximum frame rate : 0.009 fps
    Color space : YUV
    Chroma subsampling : 4:2:0
    Bit depth : 8 bits
    Compression mode : Lossy
    Bits/(Pixel*Frame) : 1.458
    Stream size : 354 KiB (0%)
    Title : Chapter Images
    Language : Russian
    Encoded date : UTC 2015-09-17 09:45:34
    Tagged date : UTC 2015-09-17 09:45:34
    Audio
    ID : 2
    Format : AAC
    Format/Info : Advanced Audio Codec
    Format profile : LC
    Codec ID : 40
    Duration : 2h 10mn
    Bit rate mode : Variable
    Bit rate : 132 Kbps
    Maximum bit rate : 235 Kbps
    Channel(s) : 2 channels
    Channel positions : Front: L R
    Sampling rate : 48.0 KHz
    Compression mode : Lossy
    Stream size : 123 MiB (10%)
    Title : Russian Stereo
    Language : Russian
    Encoded date : UTC 2015-09-17 09:45:25
    Tagged date : UTC 2015-09-17 09:45:32
    Menu #1
    00:00:00.000 : 1
    00:01:54.292 : 2
    00:14:32.875 : 3
    00:27:59.333 : 4
    00:43:19.292 : 5
    01:00:07.625 : 6
    01:15:44.833 : 7
    01:33:29.292 : 8
    01:52:33.875 : 9
    Menu #2
    ID : 3
    Codec ID : text
    Duration : 2h 10mn
    Title : Chapter Titles
    Language : Russian
    Encoded date : UTC 2015-09-17 09:45:32
    Tagged date : UTC 2015-09-17 09:45:32
    Bit rate mode : CBR
    00:00:00.000 : 1
    00:01:54.292 : 2
    00:14:32.875 : 3
    00:27:59.333 : 4
    00:43:19.292 : 5
    01:00:07.625 : 6
    01:15:44.833 : 7
    01:33:29.292 : 8
    01:52:33.875 : 9

    MediaInfo 720p Release

    General
    Complete name : Дубровский (HD).m4v
    Format : MPEG-4
    Codec ID : M4V
    File size : 4.23 GiB
    Duration : 2h 10mn
    Overall bit rate mode : Variable
    Overall bit rate : 4 638 Kbps
    Movie name : Дубровский
    Performer : Александр Вартанов & Кирилл Михановский
    Director : Александр Вартанов / Кирилл Михановский
    Actor : Данила Козловский / Клавдия Коршунова / Юрий Цурило / Александр Мезенцев / Игорь Гордин / Дмитрий Поднозов / Елена Дудина / Евгений Вакунов / Артем Кобзев / Любовь Сергеева
    Screenplay by : Константин Чернозатонский / Михаил Брашинский / Кирилл Михановский
    Producer : Евгений Гиндилис
    Production studio : ООО "Авангард Медиа"
    Genre : Drama
    ContentType : Short Film
    Description : Владимир Дубровский - успешный столичный юрист и завсегдатай модных клубов, Маша Троекурова - выпускница английского колледжа и нежная дочь... Хозяева собственных судеб, они едва ли похожи на героев Пушкина...
    Recorded date : UTC 2014-03-06 08:00:00
    Encoded date : UTC 2015-09-17 09:44:38
    Tagged date : UTC 2015-09-17 09:46:19
    Cover : Yes
    Rating : None
    Title/Sort : Дубровский
    LongDescription : Владимир Дубровский - успешный столичный юрист и завсегдатай модных клубов, Маша Троекурова - выпускница английского колледжа и нежная дочь... Хозяева собственных судеб, они едва ли похожи на героев Пушкина. Но внезапная ссора их отцов решительно меняет жизнь Владимира и Маши - они погружаются в реальность, где действуют совсем другие законы...
    HDVideo : Yes
    AppleStoreCatalogID : 869105357
    Vendor : Apple:vendor_id:2014-677731
    ContentRating : ru-movie|16+|375|
    Video #1
    ID : 1
    Format : AVC
    Format/Info : Advanced Video Codec
    Format profile : High@L3.1
    Format settings, CABAC : No
    Format settings, ReFrames : 3 frames
    Codec ID : avc1
    Codec ID/Info : Advanced Video Coding
    Duration : 2h 10mn
    Source duration : 2h 10mn
    Nominal bit rate : 3 800 Kbps
    Width : 1 280 pixels
    Height : 690 pixels
    Display aspect ratio : 1.85:1
    Frame rate mode : Constant
    Frame rate : 24.000 fps
    Color space : YUV
    Chroma subsampling : 4:2:0
    Bit depth : 8 bits
    Scan type : Progressive
    Bits/(Pixel*Frame) : 0.179
    Source stream size : 3.46 GiB (82%)
    Title : Main Program
    Writing library : x264 core 130 r2273 b3065e6
    Encoding settings : cabac=0 / ref=3 / deblock=1:-2:-2 / analyse=0x3:0x113 / me=umh / subme=9 / psy=1 / psy_rd=1.00:0.15 / mixed_ref=1 / me_range=32 / chroma_me=1 / trellis=0 / 8x8dct=1 / cqm=0 / deadzone=21,11 / fast_pskip=0 / chroma_qp_offset=-2 / threads=18 / lookahead_threads=1 / sliced_threads=0 / nr=0 / decimate=0 / interlaced=0 / bluray_compat=0 / constrained_intra=0 / bframes=3 / b_pyramid=0 / b_adapt=2 / b_bias=0 / direct=1 / weightb=0 / open_gop=0 / weightp=0 / keyint=240 / keyint_min=24 / scenecut=40 / intra_refresh=0 / rc_lookahead=40 / rc=2pass / mbtree=1 / bitrate=3800 / ratetol=1.0 / qcomp=0.70 / qpmin=0 / qpmax=69 / qpstep=4 / cplxblur=20.0 / qblur=0.5 / vbv_maxrate=9500 / vbv_bufsize=9500 / nal_hrd=none / ip_ratio=1.40 / aq=1:1.00
    Language : Russian
    Encoded date : UTC 2015-09-17 09:44:38
    Tagged date : UTC 2015-09-17 09:44:50
    Color range : Limited
    Color primaries : BT.709
    Transfer characteristics : BT.709
    Matrix coefficients : BT.709
    Video #2
    ID : 5
    Format : JPEG
    Codec ID : jpeg
    Duration : 2h 10mn
    Bit rate mode : Variable
    Bit rate : 343 bps
    Width : 640 pixels
    Height : 345 pixels
    Display aspect ratio : 1.85:1
    Frame rate mode : Variable
    Frame rate : 0.001 fps
    Minimum frame rate : 0.001 fps
    Maximum frame rate : 0.009 fps
    Color space : YUV
    Chroma subsampling : 4:2:0
    Bit depth : 8 bits
    Compression mode : Lossy
    Bits/(Pixel*Frame) : 1.553
    Stream size : 377 KiB (0%)
    Title : Chapter Images
    Language : Russian
    Encoded date : UTC 2015-09-17 09:44:57
    Tagged date : UTC 2015-09-17 09:44:57
    Audio #1
    ID : 2
    Format : AAC
    Format/Info : Advanced Audio Codec
    Format profile : LC
    Codec ID : 40
    Duration : 2h 10mn
    Bit rate mode : Variable
    Bit rate : 198 Kbps
    Maximum bit rate : 341 Kbps
    Channel(s) : 2 channels
    Channel positions : Front: L R
    Sampling rate : 48.0 KHz
    Compression mode : Lossy
    Stream size : 185 MiB (4%)
    Title : Russian Stereo
    Language : Russian
    Encoded date : UTC 2015-09-17 09:44:38
    Tagged date : UTC 2015-09-17 09:44:54
    Audio #2
    ID : 3
    Format : AC-3
    Format/Info : Audio Coding 3
    Mode extension : CM (complete main)
    Format settings, Endianness : Big
    Codec ID : ac-3
    Duration : 2h 10mn
    Bit rate mode : Constant
    Bit rate : 640 Kbps
    Channel(s) : 6 channels
    Channel positions : Front: L C R, Side: L R, LFE
    Sampling rate : 48.0 KHz
    Bit depth : 16 bits
    Compression mode : Lossy
    Stream size : 597 MiB (14%)
    Title : Russian DD 5.1
    Language : Russian
    Encoded date : UTC 2015-09-17 09:44:38
    Tagged date : UTC 2015-09-17 09:44:47
    Menu #1
    00:00:00.000 : 1
    00:01:54.292 : 2
    00:14:32.875 : 3
    00:27:59.333 : 4
    00:43:19.292 : 5
    01:00:07.625 : 6
    01:15:44.833 : 7
    01:33:29.292 : 8
    01:52:33.875 : 9
    Menu #2
    ID : 4
    Codec ID : text
    Duration : 2h 10mn
    Title : Chapter Titles
    Language : Russian
    Encoded date : UTC 2015-09-17 09:44:54
    Tagged date : UTC 2015-09-17 09:44:54
    Bit rate mode : CBR
    00:00:00.000 : 1
    00:01:54.292 : 2
    00:14:32.875 : 3
    00:27:59.333 : 4
    00:43:19.292 : 5
    01:00:07.625 : 6
    01:15:44.833 : 7
    01:33:29.292 : 8
    01:52:33.875 : 9

    x264 лог 480p Release

    HandBrakeCLI -i "/DUBROVSKIY_BLUEBIRD/BDMV/STREAM/00004.m2ts" -t 1 -o "Dubrovsky.480p.rus.m4v” -f mp4 -I -O -w 640 -l 460 --crop 22:22:0:0 --custom-anamorphic --modulus 4 --pixel-aspect 852:640 -e x264 -b 1200 -2 -a none -x cabac=0:ref=2:me=umh:bframes=0:weightp=0:subq=6:8x8dct=0:trellis=0:vbv-maxrate=5000:vbv-bufsize=5000 --verbose=1
    x264 [info]: frame I:3770  Avg QP:17.74  size: 18943  PSNR Mean Y:48.79 U:50.94 V:51.12 Avg:49.28 Global:47.71
    x264 [info]: frame P:184099 Avg QP:20.68  size:  5974  PSNR Mean Y:44.41 U:48.53 V:48.35 Avg:45.14 Global:44.33
    x264 [info]: mb I  I16..4: 49.8%  0.0% 50.2%
    x264 [info]: mb P  I16..4:  1.7%  0.0%  2.3%  P16..4: 43.8% 16.2%  6.7%  0.0%  0.0%    skip:29.2%
    x264 [info]: coded y,uvDC,uvAC intra: 49.3% 67.1% 39.0% inter: 18.7% 21.5% 4.1%
    x264 [info]: i16 v,h,dc,p: 51% 14%  8% 28%
    x264 [info]: i4 v,h,dc,ddl,ddr,vr,hd,vl,hu: 30% 13% 16%  6%  8%  9%  6%  8%  4%
    x264 [info]: i8c dc,h,v,p: 53% 13% 25%  9%
    x264 [info]: ref P L0: 73.5% 26.5%
    x264 [info]: SSIM Mean Y:0.9840988 (17.986db)
    x264 [info]: PSNR Mean Y:44.494 U:48.579 V:48.406 Avg:45.220 Global:44.377 kb/s:1196.97

    x264 лог 720p Release

    HandBrakeCLI -i "/DUBROVSKIY_BLUEBIRD/BDMV/STREAM/00004.m2ts" -t 1 -o "Dubrovsky.720p.rus.m4v" -f mp4 -4 -O -w 1280 -l 690 --crop 22:22:0:0 --modulus 2 -e x264 -b 3800 -2 -a none -x cabac=0:ref=3:me=umh:b-pyramid=none:b-adapt=2:weightb=0:trellis=0:weightp=0:vbv-maxrate=9500:vbv-bufsize=9500:subq=9:merange=32:deblock=-2,-2:qcomp=0.70:qpmin=0:qpmax=69:fast_pskip=0:aq-strength=1.0:no-dct-decimate=1:psy-rd=1.00,0.15:ip_ratio=1.2:pb_ratio=1.2 --verbose=1
    x264 [info]: frame I:1392  Avg QP:15.90  size:106140  PSNR Mean Y:48.22 U:51.09 V:51.02 Avg:48.83 Global:48.30
    x264 [info]: frame P:68933 Avg QP:18.57  size: 34447  PSNR Mean Y:45.97 U:49.80 V:49.70 Avg:46.71 Global:46.01
    x264 [info]: frame B:117544 Avg QP:20.15  size: 10129  PSNR Mean Y:45.15 U:49.69 V:49.58 Avg:45.92 Global:45.19
    x264 [info]: consecutive B-frames:  3.3% 29.0% 32.0% 35.6%
    x264 [info]: mb I  I16..4: 10.7% 55.3% 33.9%
    x264 [info]: mb P  I16..4:  4.7%  7.9%  3.6%  P16..4: 47.8% 21.0%  8.7%  0.0%  0.0%    skip: 6.4%
    x264 [info]: mb B  I16..4:  0.7%  1.2%  0.5%  B16..8: 41.5%  9.0%  1.2%  direct: 5.5%  skip:40.4%  L0:38.5% L1:52.8% BI: 8.7%
    x264 [info]: 8x8 transform intra:49.4% inter:46.4%
    x264 [info]: coded y,uvDC,uvAC intra: 62.8% 73.6% 44.6% inter: 20.4% 24.6% 12.0%
    x264 [info]: i16 v,h,dc,p: 41% 15%  8% 36%
    x264 [info]: i8 v,h,dc,ddl,ddr,vr,hd,vl,hu: 13%  7%  7% 10% 14% 14% 13% 12% 10%
    x264 [info]: i4 v,h,dc,ddl,ddr,vr,hd,vl,hu: 17%  9%  6% 10% 14% 14% 12% 10%  7%
    x264 [info]: i8c dc,h,v,p: 48% 19% 21% 12%
    x264 [info]: ref P L0: 72.4% 16.6% 11.0%
    x264 [info]: ref B L0: 80.8% 19.2%
    x264 [info]: SSIM Mean Y:0.9831035 (17.722db)
    x264 [info]: PSNR Mean Y:45.472 U:49.739 V:49.636 Avg:46.232 Global:45.488 kb/s:3794.48

    Скриншоты 480p Release

    Скриншоты 720p Release

    -

    Релиз подготовлен для просмотра на Apple TV, iPad, iPhone, iPod Touch.
    Для просмотра данного релиза на компьютере с ОС Windows рекомендуется использовать VLC media player
    Скачать .torrent

    Скачать торрент-файл бесплатно и на максимальной скорости!

    Как скачивать? · Что такое торрент? · Рейтинг и ограничения

    !ВНИМАНИЕ!
    Сайт не распространяет и не хранит электронные версии произведений, а занимается лишь лишь предоставлением доступа к создаваемому пользователями каталогу ссылок на торрент-файлы, которые содержат только списки хеш-сумм, убедительная просьба с жалобами обращаться напрямую к пользователю. Файлы для обмена на трекере предоставлены пользователями сайта, и администрация не несёт ответственности за их содержание. Просьба не заливать файлы, защищенные авторскими правами, а также файлы нелегального содержания!


  • _________________
    [Профиль] [ЛС]
    Показать сообщения:    
    Ответить на тему

    Текущее время: Сегодня, в 18:55

    Часовой пояс: GMT + 2



    Вы не можете начинать темы
    Вы не можете отвечать на сообщения
    Вы не можете редактировать свои сообщения
    Вы не можете удалять свои сообщения
    Вы не можете голосовать в опросах
    Вы не можете прикреплять файлы к сообщениям
    Вы не можете скачивать файлы