BitTorrentTracker PerecTracker.org
BitTorrentTracker PerecTracker.org
    
Регистрация  ·  Вход
 
 · 
Забыли пароль?

  • Идеальный голос 2 / Pitch Perfect 2 (Элизабет Бэнкс) [2015, США, комедия, музыка, WEB-DL HD (720p)] DUB, Original + SUB (rus)

    Ответить на тему
     
    Автор Сообщение

    Flirldrerve

    Создавать темы 27-Окт-2015 05:18

           

    [Цитировать]

    Идеальный голос 2 / Pitch Perfect 2
    "Самые крутые девчонки возвращаются"
    6.851 / 10
    -Год выпуска: 2015
    Страна: США
    Жанр: комедия, музыка
    Продолжительность: 114 мин.
    Перевод: Профессиональный дублированный перевод
    Оригинальная аудиодорожка: Есть
    Cубтитры: Русские форсированные и русские полные
    Режиссёр: Элизабет Бэнкс
    Сценарий: Кэй Кэннон, Мики Рэпкин
    Продюсер: Элизабет Бэнкс, Пол Брукс, Макс Хандельман
    Оператор: Джим Дено
    Композитор: Марк Мазерсбо
    Художник: Тоби Корбетт, Нат Джонс, Сальвадор Перез мл.
    Монтаж: Крэйг Элперт
    В ролях: Анна Кендрик, Ребел Уилсон, Хейли Стайнфелд, Бриттани Сноу, Скайлар Эстин, Адам Дивайн, Кэти Сагал, Анна Кэмп, Бен Платт, Алексис Нэп
    Роли дублировали: Василиса Воронина, Анастасия Лапина, Наталья Терешкова, Анастасия Жаркова, Антон Эльдаров
    Бюджет: $29 000 000
    Сборы в США: $183 785 415
    Сборы в мире: + $101 380 369 = $285 165 784
    Сборы в России: $145 274
    Мировая премьера: 20 апреля 2015
    Премьера (РФ): 14 мая 2015, UPI
    Описание: Самые крутые девчонки возвращаются! Теперь у них все по-взрослому: ремиксы - моднее, каблуки - выше, юбки - короче. Но идеальный голос всегда на месте.-Качество исходника: WEB-DL 720p (HDClub)
    Качество: WEB-DL
    Тип: 720p
    Контейнер: m4v
    Видео: 1280x692 at 23.976 fps, MPEG-4 AVC, ~4000 kbps avg
    Аудио#1: Russian: 48 kHz, ААС, 2/0 (L,R), ~160.00 kbps avg |Дубляж, iTunes Russia|
    Аудио#2: English: 48 kHz, ААС, 2/0 (L,R), ~160.00 kbps avg
    Аудио#3: Russian: 48 kHz, AC3, 3/2 (L,C,R,l,r) + LFE ch, ~384.00 kbps avg |Дубляж, iTunes Russia|
    Субтитры №1: Russian: |Форсированные, iTunes|
    Субтитры №2: Russian: |Полные, iTunes|-

    Знаете ли Вы, что...
  • В съемках фильма принимали участие реальные группы, поющие а-капелла. Среди них была группа Pentatonix.
  • Ребел Уилсон хотела, чтобы Деми Ловато сыграла в фильме роль одной из участниц коллектива «Беллы», но Ловато отказалась от роли, решив сосредоточиться на своей музыкальной карьере.
  • Финальная сцена была снята в городе Батон-Руж, штат Луизиана, США, при участии более 2000 статистов.
  • В сцене, где «Беллы» читают гневные письма, письмо в руках у Эми подписано Соней Сотомэйор, которая на момент выхода фильма являлась судьей Верховного суда США.
    -

    iTunes Meta Tags for country ru

    Name: Идеальный Голос 2
    Artist: Elizabeth Banks
    Genre: Musicals
    Release Date: 2015-04-20T08:00:00Z
    Description: Самые крутые девчонки возвращаются! Теперь у них все по-взрослому: ремиксы - моднее, каблуки - выше, юбки - короче. Но идеальный голос всегда на месте.
    Long Description: Самые крутые девчонки возвращаются! Теперь у них все по-взрослому: ремиксы - моднее, каблуки - выше, юбки - короче. Но идеальный голос всегда на месте.
    Rating: 16+
    Studio: Universal Pictures
    Cast: Анна Кендрик, Ребел Уилсон, Хейли Стайнфелд, Бриттани Сноу, Скайлар Эстин, Адам Дивайн, Кэти Сагал, Анна Кэмп, Бен Платт, Алексис Нэп
    Director: Элизабет Бэнкс
    Producers: Элизабет Бэнкс, Пол Брукс, Макс Хандельман
    Screenwriters: Кэй Кэннон, Мики Рэпкин
    Copyright: © 2015 Universal Studios. All Rights Reserved.
    contentID: 986178488
    XID: Apple:vendor_id:2015-758197
    Sort Name: Идеальный Голос 2

    iTunes Meta Tags for country us

    Name: Pitch Perfect 2
    Artist: Elizabeth Banks
    Genre: Comedy
    Release Date: 2015-04-20T08:00:00Z
    Description: Самые крутые девчонки возвращаются! Теперь у них все по-взрослому: ремиксы - моднее, каблуки - выше, юбки - короче. Но идеальный голос всегда на месте.
    Long Description: Самые крутые девчонки возвращаются! Теперь у них все по-взрослому: ремиксы - моднее, каблуки - выше, юбки - короче. Но идеальный голос всегда на месте.
    Rating: PG-13
    Rating Annotation: Rated PG-13 for innuendo and language.
    Studio: Universal Pictures
    Cast: Анна Кендрик, Ребел Уилсон, Хейли Стайнфелд, Бриттани Сноу, Скайлар Эстин, Адам Дивайн, Кэти Сагал, Анна Кэмп, Бен Платт, Алексис Нэп
    Director: Элизабет Бэнкс
    Producers: Элизабет Бэнкс, Пол Брукс, Макс Хандельман
    Screenwriters: Кэй Кэннон, Мики Рэпкин
    Copyright: © 2014 Universal Studios. All Rights Reserved.
    contentID: 973586985
    XID: Apple:vendor_id:2015-758197
    Sort Name: Pitch Perfect 2

    MediaInfo 720p Release

    General
    Complete name : Pitch Perfect 2 (HD).m4v
    Format : MPEG-4
    Codec ID : M4V
    File size : 3.75 GiB
    Duration : 1h 54mn
    Overall bit rate mode : Variable
    Overall bit rate : 4 682 Kbps
    Movie name : Pitch Perfect 2
    Performer : Elizabeth Banks
    Director : Элизабет Бэнкс
    Actor : Анна Кендрик / Ребел Уилсон / Хейли Стайнфелд / Бриттани Сноу / Скайлар Эстин / Адам Дивайн / Кэти Сагал / Анна Кэмп / Бен Платт / Алексис Нэп
    Screenplay by : Кэй Кэннон / Мики Рэпкин
    Producer : Элизабет Бэнкс / Пол Брукс / Макс Хандельман
    Production studio : Universal Pictures
    Genre : Comedy
    ContentType : Short Film
    Description : Самые крутые девчонки возвращаются! Теперь у них все по-взрослому: ремиксы - моднее, каблуки - выше, юбки - короче. Но идеальный голос всегда на месте.
    Recorded date : UTC 2015-04-20 08:00:00
    Encoded date : UTC 2015-10-14 11:14:17
    Tagged date : UTC 2015-10-14 11:38:31
    Copyright : © 2014 Universal Studios. All Rights Reserved.
    Cover : Yes
    Rating : None
    Title/Sort : Pitch Perfect 2
    LongDescription : Самые крутые девчонки возвращаются! Теперь у них все по-взрослому: ремиксы - моднее, каблуки - выше, юбки - короче. Но идеальный голос всегда на месте.
    HDVideo : Yes
    AppleStoreCatalogID : 973586985
    Vendor : Apple:vendor_id:2015-758197
    ContentRating : mpaa|PG-13|300|Rated PG-13 for innuendo and language.
    Video #1
    ID : 1
    Format : AVC
    Format/Info : Advanced Video Codec
    Format profile : High@L3.1
    Format settings, CABAC : No
    Format settings, ReFrames : 2 frames
    Format settings, GOP : M=2, N=90
    Codec ID : avc1
    Codec ID/Info : Advanced Video Coding
    Duration : 1h 54mn
    Bit rate : 3 967 Kbps
    Width : 1 280 pixels
    Height : 692 pixels
    Display aspect ratio : 1.85:1
    Frame rate mode : Variable
    Frame rate : 23.976 fps
    Minimum frame rate : 23.810 fps
    Maximum frame rate : 24.390 fps
    Color space : YUV
    Chroma subsampling : 4:2:0
    Bit depth : 8 bits
    Scan type : Progressive
    Bits/(Pixel*Frame) : 0.187
    Stream size : 3.18 GiB (85%)
    Title : Main Program
    Language : English
    Encoded date : UTC 2015-10-14 11:14:17
    Tagged date : UTC 2015-10-14 11:19:38
    Color range : Limited
    Color primaries : BT.709
    Transfer characteristics : BT.709
    Matrix coefficients : BT.709
    Video #2
    ID : 8
    Format : JPEG
    Codec ID : jpeg
    Duration : 1h 54mn
    Bit rate mode : Variable
    Bit rate : 1 169 bps
    Width : 640 pixels
    Height : 346 pixels
    Display aspect ratio : 1.85:1
    Frame rate mode : Variable
    Frame rate : 0.003 fps
    Minimum frame rate : 0.002 fps
    Maximum frame rate : 0.004 fps
    Color space : YUV
    Chroma subsampling : 4:2:0
    Bit depth : 8 bits
    Compression mode : Lossy
    Bits/(Pixel*Frame) : 1.760
    Stream size : 951 KiB (0%)
    Title : Chapter Images
    Language : English
    Encoded date : UTC 2015-10-14 11:19:47
    Tagged date : UTC 2015-10-14 11:19:47
    Audio #1
    ID : 2
    Format : AAC
    Format/Info : Advanced Audio Codec
    Format profile : LC
    Codec ID : 40
    Duration : 1h 54mn
    Bit rate mode : Variable
    Bit rate : 165 Kbps
    Maximum bit rate : 265 Kbps
    Channel(s) : 2 channels
    Channel positions : Front: L R
    Sampling rate : 48.0 KHz
    Compression mode : Lossy
    Stream size : 135 MiB (4%)
    Title : Russian DUB from iTunes Stereo
    Language : Russian
    Encoded date : UTC 2015-10-14 11:14:17
    Tagged date : UTC 2015-10-14 11:14:23
    Audio #2
    ID : 3
    Format : AAC
    Format/Info : Advanced Audio Codec
    Format profile : LC
    Codec ID : 40
    Duration : 1h 54mn
    Bit rate mode : Variable
    Bit rate : 155 Kbps
    Maximum bit rate : 252 Kbps
    Channel(s) : 2 channels
    Channel positions : Front: L R
    Sampling rate : 48.0 KHz
    Compression mode : Lossy
    Stream size : 127 MiB (3%)
    Title : English Stereo
    Language : English
    Encoded date : UTC 2015-10-14 11:14:17
    Tagged date : UTC 2015-10-14 11:19:38
    Audio #3
    ID : 4
    Format : AC-3
    Format/Info : Audio Coding 3
    Mode extension : CM (complete main)
    Format settings, Endianness : Big
    Codec ID : ac-3
    Duration : 1h 54mn
    Bit rate mode : Constant
    Bit rate : 384 Kbps
    Channel(s) : 6 channels
    Channel positions : Front: L C R, Side: L R, LFE
    Sampling rate : 48.0 KHz
    Bit depth : 16 bits
    Compression mode : Lossy
    Stream size : 315 MiB (8%)
    Title : Russian DUB from iTunes DD 5.1
    Language : Russian
    Encoded date : UTC 2015-10-14 11:14:17
    Tagged date : UTC 2015-10-14 11:19:38
    Text #1
    ID : 5
    Format : Timed Text
    Muxing mode : sbtl
    Codec ID : tx3g
    Duration : 1h 48mn
    Bit rate mode : Variable
    Bit rate : 7 bps
    Stream size : 5.76 KiB (0%)
    Title : Russian Forced Subtitle
    Language : Russian
    Encoded date : UTC 2015-10-14 11:14:17
    Tagged date : UTC 2015-10-14 11:14:17
    Text #2
    ID : 6
    Format : Timed Text
    Muxing mode : sbtl
    Codec ID : tx3g
    Duration : 1h 50mn
    Bit rate mode : Variable
    Bit rate : 126 bps
    Stream size : 102 KiB (0%)
    Title : Russian Subtitle
    Language : Russian
    Encoded date : UTC 2015-10-14 11:14:17
    Tagged date : UTC 2015-10-14 11:14:17
    Menu #1
    00:00:00.000 : 1
    00:05:51.000 : 2
    00:10:16.000 : 3
    00:15:30.000 : 4
    00:19:19.000 : 5
    00:26:59.000 : 6
    00:31:55.000 : 7
    00:39:01.000 : 8
    00:46:11.000 : 9
    00:53:22.000 : 10
    00:58:34.000 : 11
    01:02:53.000 : 12
    01:08:36.000 : 13
    01:12:26.000 : 14
    01:17:22.000 : 15
    01:22:44.000 : 16
    01:28:17.000 : 17
    01:34:29.000 : 18
    01:38:44.000 : 19
    01:45:53.000 : 20
    Menu #2
    ID : 7
    Codec ID : text
    Duration : 1h 54mn
    Title : Chapter Titles
    Language : English
    Encoded date : UTC 2015-10-14 11:19:38
    Tagged date : UTC 2015-10-14 11:19:38
    00:00:00.000 : 1
    00:05:51.000 : 2
    00:10:16.000 : 3
    00:15:30.000 : 4
    00:19:19.000 : 5
    00:26:59.000 : 6
    00:31:55.000 : 7
    00:39:01.000 : 8
    00:46:11.000 : 9
    00:53:22.000 : 10
    00:58:34.000 : 11
    01:02:53.000 : 12
    01:08:36.000 : 13
    01:12:26.000 : 14
    01:17:22.000 : 15
    01:22:44.000 : 16
    01:28:17.000 : 17
    01:34:29.000 : 18
    01:38:44.000 : 19
    01:45:53.000 : 20
    Bit rate mode : VBR

    Скриншоты 720p Release

    -

    Релиз подготовлен для просмотра на Apple TV, iPad, iPhone, iPod Touch.
    Для просмотра данного релиза на компьютере с ОС Windows рекомендуется использовать VLC media player
    Скачать .torrent

    Скачать торрент-файл бесплатно и на максимальной скорости!

    Как скачивать? · Что такое торрент? · Рейтинг и ограничения

    !ВНИМАНИЕ!
    Сайт не распространяет и не хранит электронные версии произведений, а занимается лишь лишь предоставлением доступа к создаваемому пользователями каталогу ссылок на торрент-файлы, которые содержат только списки хеш-сумм, убедительная просьба с жалобами обращаться напрямую к пользователю. Файлы для обмена на трекере предоставлены пользователями сайта, и администрация не несёт ответственности за их содержание. Просьба не заливать файлы, защищенные авторскими правами, а также файлы нелегального содержания!


  • _________________
    [Профиль] [ЛС]
    Показать сообщения:    
    Ответить на тему

    Текущее время: Сегодня, в 20:42

    Часовой пояс: GMT + 2



    Вы не можете начинать темы
    Вы не можете отвечать на сообщения
    Вы не можете редактировать свои сообщения
    Вы не можете удалять свои сообщения
    Вы не можете голосовать в опросах
    Вы не можете прикреплять файлы к сообщениям
    Вы не можете скачивать файлы