BitTorrentTracker PerecTracker.org
BitTorrentTracker PerecTracker.org
    
Регистрация  ·  Вход
 
 · 
Забыли пароль?

  • [ATV3] Каникулы / Vacation (Джонатан М. Голдштейн / Jonathan M. Goldstein ) [2015, США, Комедия, приключения, WEB-DL, HD (1080p)] DUB + Original + sub (eng)

    Ответить на тему
     
    Автор Сообщение

    Flirldrerve

    Создавать темы 27-Окт-2015 05:18

           

    [Цитировать]

    Каникулы / Vacation
    «И что могло пойти не так»
    6.972 / 10 6.20 / 10
    -Год выпуска: 2015
    Страна: США
    Жанр: Комедия, приключения
    Продолжительность: 01:39:00
    Перевод: Дублированный (iTunes)
    Оригинальная аудиодорожка: Есть
    Cубтитры: Английские
    Режиссёр: Джонатан М. Голдштейн
    Сценарий: Джонатан М. Голдштейн, Джон Фрэнсис Дейли, Джон Хьюз
    Продюсер: Крис Бендер, Дэвид Добкин, Ричард Бренер
    Оператор: Бэрри Петерсон
    Композитор: Марк Мазерсбо
    Художник: Бэрри Робисан, Джереми Вулси, Дебра МакГуайр
    Монтаж: Джэми Гросс
    В ролях: Эд Хелмс, Кристина Эпплгейт, Скайлер Джизондо, Стил Стеббинс, Крис Хемсворт, Лесли Манн, Чеви Чейз, Беверли Д’Анджело, Чарли Дэй, Катрин Миссал
    Бюджет: $31 000 000
    Сборы в США: $58 810 853
    Сборы в России: $4 881 854
    Мировая премьера: 29 июля 2015
    Премьера (РФ): 27 августа 2015, «Каро-Премьер»
    Описание: Расти Гризвольд — молодой отец и примерный семьянин, который очень хочет сплотить семью и воссоздать каникулы из своего детства. Вместе с супругой и двумя сыновьями он решает совершить незабываемое путешествие через всю страну, конечной целью которого станет самый лучший тематический парк Америки. Все тщательно спланировав, они отправляются в дорогу, надеясь, что их ждет очень веселое и увлекательное путешествие.
    В начале пути все происходит как нельзя лучше, но чем дальше они отдаляются от дома, тем больше проблем их ждет впереди. Все пошло совсем не так, как планировал Расти, но он не собирается останавливаться и готов сделать все возможное для того, чтобы добраться до пункта назначения и подарить своей семье лучшие каникулы…-Качество исходника: WEB-DL 1080p (NNMClub)
    Качество: WEB-DL
    Тип: HD (1080p)
    Контейнер: M4V
    Видео: H.264, 1912x792, 2.40:1, 4 526 Kbps, 23.976 fps
    Аудио 1: Русский/Дублированный (iTunes), AAC / 2.0 / 154 Kbps / 48.0 KHz
    Аудио 2: Английский/Оригинальная дорожка , AAC / 2.0 / 152 Kbps / 48.0 KHz
    Аудио 3: Украинский/Дублированный (iTunes), AAC / 2.0 / 154 Kbps / 44.1 KHz
    Аудио 4: Русский/Дублированный (iTunes), AC-3 / 5.1 / 384 Kbps / 48.0 KHz
    Аудио 5: Английский/Оригинальная дорожка , AC-3 / 5.1 / 384 Kbps / 48.0 KHz
    Субтитры: Английские полные
    -

    iTunes Meta Tags

    Sort Name: Vacation
    XID: Apple:vendor_id:2015-484426
    contentID: 1020517477
    Copyright: © 2015 Warner Bros. Entertainment Inc. and RatPac-Dune Entertainment LLC. All Rights Reserved.
    Screenwriters: Джонатан М. Голдштейн, Джон Фрэнсис Дейли, Джон Хьюз
    Producers: Крис Бендер, Дэвид Добкин, Ричард Бренер
    Director: Джон Фрэнсис Дейли, Джонатан М. Голдштейн
    Cast: Эд Хелмс, Кристина Эпплгейт, Скайлер Джизондо, Стил Стеббинс, Крис Хемсворт, Лесли Манн, Чеви Чейз, Беверли Д’Анджело, Чарли Дэй, Катрин Миссал, Борис Шувалов, Людмила Шувалова, Михаил Данилюк, Данил Щебланов, Александр Хошабаев
    Studio: New Line
    Rating: 5
    Long Description: Расти Гризвольд - молодой отец и примерный семьянин, который очень хочет сплотить семью и воссоздать каникулы из своего детства. Вместе с супругой и двумя сыновьями он решает совершить незабываемое путешествие через всю страну, конечной целью которого станет самый лучший тематический парк Америки. Все тщательно спланировав, они отправляются в дорогу, надеясь, что их ждет очень веселое и увлекательное путешествие.
    В начале пути все происходит как нельзя лучше, но чем дальше они отдаляются от дома, тем больше проблем их ждет впереди. Все пошло совсем не так, как планировал Расти, но он не собирается останавливаться и готов сделать все возможное для того, чтобы добраться до пункта назначения и подарить своей семье лучшие каникулы...
    Description: Расти Гризвольд - молодой отец и примерный семьянин, который очень хочет сплотить семью и воссоздать каникулы из своего детства. Вместе с супругой и двумя сыновьями он решает совершить незабываемое путешествие через всю страну, конечной целью которого станет самый лучший тематический парк Америки. Все тщательно спланировав, они отправляются в дорогу, надеясь, что их ждет очень веселое и увлекательное путешествие.
    В начале пути все происходит как нельзя лучше, но чем дальше они отдаляются от дома, тем больше проблем их ждет впереди. Все пошло совсем не так, как планировал Расти, но он не собирается останавливаться и готов сделать все возможное для того, чтобы добраться до пункта назначения и подарить своей семье лучшие каникулы...
    Release Date: 2015-07-29T08:00:00Z
    Genre: Comedy
    Artist: Jonathan Goldstein & John Francis Daley
    Name: Vacation

    MediaInfo

    General
    Complete name : /Users/imac/HandBrake/Kanikuly.WEB-DL.1080p.m4v
    Format : MPEG-4
    Codec ID : M4V
    File size : 3.99 GiB
    Duration : 1h 39mn
    Overall bit rate mode : Variable
    Overall bit rate : 5 766 Kbps
    Movie name : Vacation
    Performer : Jonathan Goldstein & John Francis Daley
    Director : Джон Фрэнсис Дейли / Джонатан М. Голдштейн
    Actor : Эд Хелмс / Кристина Эпплгейт / Скайлер Джизондо / Стил Стеббинс / Крис Хемсворт / Лесли Манн / Чеви Чейз / Беверли Д’Анджело / Чарли Дэй / Катрин Миссал / Борис Шувалов / Людмила Шувалова / Михаил Данилюк / Данил Щебланов / Александр Хошабаев
    Screenplay by : Джонатан М. Голдштейн / Джон Фрэнсис Дейли / Джон Хьюз
    Producer : Крис Бендер / Дэвид Добкин / Ричард Бренер
    Production studio : New Line
    Genre : Comedy
    ContentType : Short Film
    Description : Расти Гризвольд - молодой отец и примерный семьянин, который очень хочет сплотить семью и воссоздать каникулы из своего детства. Вместе с супругой и двумя сыновьями он решает совершить незабываемое путешествие через всю страну, конечной целью которого станет самый лучший тематический парк Америки. Все тщательно спланировав, они отправляются в дорогу, надеясь, что их ждет очень веселое и увлекательное путешествие. / В начале пути все происходит как нельзя лучше, но чем дальше они отдаляются от дома, тем больше проблем их ждет впереди. Все пошло совсем не так, как планировал Расти, но он не собирается останавливаться и готов сделать все возможное для того, чтобы добраться до пункта назначения и подарить своей семье лучшие каникулы...
    Recorded date : UTC 2015-07-29 08:00:00
    Encoded date : UTC 2015-10-16 21:48:26
    Tagged date : UTC 2015-10-16 21:53:01
    Copyright : © 2015 Warner Bros. Entertainment Inc. and RatPac-Dune Entertainment LLC. All Rights Reserved.
    Cover : Yes
    Rating : None
    Title/Sort : Vacation
    LongDescription : Расти Гризвольд - молодой отец и примерный семьянин, который очень хочет сплотить семью и воссоздать каникулы из своего детства. Вместе с супругой и двумя сыновьями он решает совершить незабываемое путешествие через всю страну, конечной целью которого станет самый лучший тематический парк Америки. Все тщательно спланировав, они отправляются в дорогу, надеясь, что их ждет очень веселое и увлекательное путешествие. / В начале пути все происходит как нельзя лучше, но чем дальше они отдаляются от дома, тем больше проблем их ждет впереди. Все пошло совсем не так, как планировал Расти, но он не собирается останавливаться и готов сделать все возможное для того, чтобы добраться до пункта назначения и подарить своей семье лучшие каникулы...
    AppleStoreCatalogID : 1020517477
    Vendor : Apple:vendor_id:2015-484426
    ContentRating : mpaa|R|400|
    Video #1
    ID : 1
    Format : AVC
    Format/Info : Advanced Video Codec
    Format profile : High@L4
    Format settings, CABAC : Yes
    Format settings, ReFrames : 5 frames
    Codec ID : avc1
    Codec ID/Info : Advanced Video Coding
    Duration : 1h 38mn
    Bit rate : 4 526 Kbps
    Width : 1 912 pixels
    Height : 792 pixels
    Display aspect ratio : 2.40:1
    Frame rate mode : Constant
    Frame rate : 23.976 fps
    Color space : YUV
    Chroma subsampling : 4:2:0
    Bit depth : 8 bits
    Scan type : Progressive
    Bits/(Pixel*Frame) : 0.125
    Stream size : 3.13 GiB (78%)
    Title : Main Program
    Language : English
    Encoded date : UTC 2015-10-16 21:48:26
    Tagged date : UTC 2015-10-16 21:48:34
    Color range : Limited
    Color primaries : BT.709
    Transfer characteristics : BT.709
    Matrix coefficients : BT.709
    Video #2
    ID : 9
    Format : JPEG
    Codec ID : jpeg
    Duration : 1h 38mn
    Bit rate mode : Variable
    Bit rate : 832 bps
    Width : 640 pixels
    Height : 265 pixels
    Display aspect ratio : 2.40:1
    Frame rate mode : Variable
    Frame rate : 0.002 fps
    Minimum frame rate : 0.001 fps
    Maximum frame rate : 0.004 fps
    Color space : YUV
    Chroma subsampling : 4:2:0
    Bit depth : 8 bits
    Compression mode : Lossy
    Bits/(Pixel*Frame) : 2.453
    Stream size : 558 KiB (0%)
    Title : Chapter Images
    Language : English
    Encoded date : UTC 2015-10-16 21:48:41
    Tagged date : UTC 2015-10-16 21:48:41
    Audio #1
    ID : 2
    Format : AAC
    Format/Info : Advanced Audio Codec
    Format profile : LC
    Codec ID : 40
    Duration : 1h 38mn
    Bit rate mode : Variable
    Bit rate : 154 Kbps
    Maximum bit rate : 266 Kbps
    Channel(s) : 2 channels
    Channel positions : Front: L R
    Sampling rate : 48.0 KHz
    Compression mode : Lossy
    Stream size : 109 MiB (3%)
    Title : Russian Stereo
    Language : Russian
    Encoded date : UTC 2015-10-16 21:48:26
    Tagged date : UTC 2015-10-16 21:48:37
    Audio #2
    ID : 3
    Format : AAC
    Format/Info : Advanced Audio Codec
    Format profile : LC
    Codec ID : 40
    Duration : 1h 38mn
    Bit rate mode : Variable
    Bit rate : 152 Kbps
    Maximum bit rate : 247 Kbps
    Channel(s) : 2 channels
    Channel positions : Front: L R
    Sampling rate : 48.0 KHz
    Compression mode : Lossy
    Stream size : 108 MiB (3%)
    Title : English Stereo
    Language : English
    Encoded date : UTC 2015-10-16 21:48:26
    Tagged date : UTC 2015-10-16 21:48:37
    Audio #3
    ID : 4
    Format : AAC
    Format/Info : Advanced Audio Codec
    Format profile : LC
    Codec ID : 40
    Duration : 1h 39mn
    Bit rate mode : Variable
    Bit rate : 154 Kbps
    Maximum bit rate : 273 Kbps
    Channel(s) : 2 channels
    Channel positions : Front: L R
    Sampling rate : 44.1 KHz
    Compression mode : Lossy
    Stream size : 109 MiB (3%)
    Title : Ukrainian Stereo
    Language : Ukrainian
    Encoded date : UTC 2015-10-16 21:48:26
    Tagged date : UTC 2015-10-16 21:48:37
    Audio #4
    ID : 5
    Format : AC-3
    Format/Info : Audio Coding 3
    Mode extension : CM (complete main)
    Format settings, Endianness : Big
    Codec ID : ac-3
    Duration : 1h 38mn
    Bit rate mode : Constant
    Bit rate : 384 Kbps
    Channel(s) : 6 channels
    Channel positions : Front: L C R, Side: L R, LFE
    Sampling rate : 48.0 KHz
    Bit depth : 16 bits
    Compression mode : Lossy
    Stream size : 272 MiB (7%)
    Title : Russian DD 5.1
    Language : Russian
    Encoded date : UTC 2015-10-16 21:48:26
    Tagged date : UTC 2015-10-16 21:48:35
    Audio #5
    ID : 6
    Format : AC-3
    Format/Info : Audio Coding 3
    Mode extension : CM (complete main)
    Format settings, Endianness : Big
    Codec ID : ac-3
    Duration : 1h 38mn
    Bit rate mode : Constant
    Bit rate : 384 Kbps
    Channel(s) : 6 channels
    Channel positions : Front: L C R, Side: L R, LFE
    Sampling rate : 48.0 KHz
    Bit depth : 16 bits
    Compression mode : Lossy
    Stream size : 272 MiB (7%)
    Title : English DD 5.1
    Language : English
    Encoded date : UTC 2015-10-16 21:48:26
    Tagged date : UTC 2015-10-16 21:48:35
    Text
    ID : 7
    Format : Timed Text
    Muxing mode : sbtl
    Codec ID : tx3g
    Duration : 1h 34mn
    Bit rate mode : Variable
    Bit rate : 126 bps
    Stream size : 87.5 KiB (0%)
    Title : English full
    Language : English
    Encoded date : UTC 2015-10-16 21:48:26
    Tagged date : UTC 2015-10-16 21:48:27
    Menu #1
    00:00:00.000 : 1
    00:12:57.000 : 2
    00:20:55.000 : 3
    00:29:27.000 : 4
    00:40:54.000 : 5
    00:47:55.000 : 6
    01:00:23.000 : 7
    01:09:41.000 : 8
    01:20:52.000 : 9
    01:28:00.000 : 10
    01:34:51.000 : 11
    Menu #2
    ID : 8
    Codec ID : text
    Duration : 1h 38mn
    Language : English
    Encoded date : UTC 2015-10-16 21:48:37
    Tagged date : UTC 2015-10-16 21:48:37
    00:00:00.000 : 1
    00:12:57.000 : 2
    00:20:55.000 : 3
    00:29:27.000 : 4
    00:40:54.000 : 5
    00:47:55.000 : 6
    01:00:23.000 : 7
    01:09:41.000 : 8
    01:20:52.000 : 9
    01:28:00.000 : 10
    01:34:51.000 : 11
    Bit rate mode : VBR

    Скриншоты

    -

    Релиз подготовлен для просмотра на Apple TV, iPad, iPhone, iPod Touch.
    Для просмотра данного релиза на компьютере с ОС Windows рекомендуется использовать VLC media player
    Скачать .torrent

    Скачать торрент-файл бесплатно и на максимальной скорости!

    Как скачивать? · Что такое торрент? · Рейтинг и ограничения

    !ВНИМАНИЕ!
    Сайт не распространяет и не хранит электронные версии произведений, а занимается лишь лишь предоставлением доступа к создаваемому пользователями каталогу ссылок на торрент-файлы, которые содержат только списки хеш-сумм, убедительная просьба с жалобами обращаться напрямую к пользователю. Файлы для обмена на трекере предоставлены пользователями сайта, и администрация не несёт ответственности за их содержание. Просьба не заливать файлы, защищенные авторскими правами, а также файлы нелегального содержания!


    _________________
    [Профиль] [ЛС]
    Показать сообщения:    
    Ответить на тему

    Текущее время: Сегодня, в 05:53

    Часовой пояс: GMT + 2



    Вы не можете начинать темы
    Вы не можете отвечать на сообщения
    Вы не можете редактировать свои сообщения
    Вы не можете удалять свои сообщения
    Вы не можете голосовать в опросах
    Вы не можете прикреплять файлы к сообщениям
    Вы не можете скачивать файлы