BitTorrentTracker PerecTracker.org
BitTorrentTracker PerecTracker.org
    
Регистрация  ·  Вход
 
 · 
Забыли пароль?

  • [ATV3] Орлеан (Андрей Прошкин) [2015, Россия, Комедия, триллер, WEB-DL, HD (1080p)] Original

    Ответить на тему
     
    Автор Сообщение

    Flirldrerve

    Создавать темы 27-Окт-2015 05:18

           

    [Цитировать]

    Орлеан
    -
    7.462 / 10 8.00 / 10
    -Год выпуска: 2015
    Страна: Россия
    Жанр: Комедия, триллер
    Продолжительность: 01:50:19
    Перевод: Не требуется
    Оригинальная аудиодорожка: Есть
    Режиссёр: Андрей Прошкин
    Сценарий: Юрий Арабов
    Продюсер: Игорь Мишин, Наталия Гостюшина, Елена Романова
    Оператор: Юрий Райский
    Композитор: The Tiger Lillies, Алексей Айги
    Художник: Юрий Карасик
    В ролях: Елена Лядова, Виктор Сухоруков, Виталий Хаев, Олег Ягодин, Тимофей Трибунцев, Павел Табаков, Евгений Сытый, Александр Бавтриков, Азамат Нигманов, Полина Шулика
    Бюджет: $2 500 000
    Сборы в России: $299 904
    Премьера (РФ): 17 сентября 2015
    Описание: На русский провинциальный город с необычным названием Орлеан надвигается буря. Пока что о ней не догадываются его жители: парикмахерша Лида спит с кем ни попадя; врач Рудик водит к себе девиц, пользуясь служебным положением; полицейский не гнушается убийством; а фокусник, кажется, и вправду перепиливает девушек на сцене.-Качество исходника: WEB-DL 1080p (BlueBird)
    Качество: WEB-DL
    Тип: HD (1080p)
    Контейнер: M4V
    Видео: H.264, 1920x804, 2.40:1, 4 553 Kbps, 24.000 fps
    Аудио 1: Русский/Оригинальная дорожка , AAC / 2.0 / 155 Kbps / 48.0 KHz
    Аудио 2: Русский/Оригинальная дорожка , AC-3 / 5.1 / 384 Kbps / 48.0 KHz
    -

    iTunes Meta Tags

    Sort Name: Орлеан
    XID: Apple:vendor_id:2015-838963
    contentID: 1042151096
    Copyright: © 2015 Central Partnership
    Screenwriters: Юрий Арабов
    Producers: Игорь Мишин, Наталия Гостюшина, Елена Романова
    Director: Андрей Прошкин
    Cast: Елена Лядова, Виктор Сухоруков, Виталий Хаев, Олег Ягодин, Тимофей Трибунцев, Павел Табаков, Евгений Сытый, Александр Бавтриков, Азамат Нигманов, Полина Шулика
    Studio: Киностудия СНТ Фильм
    Rating: 135
    Long Description: На русский провинциальный город с необычным названием Орлеан надвигается буря. Пока что о ней не догадываются его жители: парикмахерша Лида спит с кем ни попадя; врач Рудик водит к себе девиц, пользуясь служебным положением; полицейский не гнушается убийством; а фокусник, кажется, и вправду перепиливает девушек на сцене.
    Description: На русский провинциальный город с необычным названием Орлеан надвигается буря. Пока что о ней не догадываются его жители: парикмахерша Лида спит с кем ни попадя; врач Рудик водит к себе девиц, пользуясь служебным положением; полицейский не гнушается убийством; а фокусник, кажется, и вправду перепиливает девушек на сцене.
    Release Date: 2015-01-01T08:00:00Z
    Genre: Русское кино
    Artist: Андрей Прошкин
    Name: Орлеан

    MediaInfo

    General
    Complete name : /Users/imac/HandBrake/Oplean.WEB-DL.1080p.m4v
    Format : MPEG-4
    Codec ID : M4V
    File size : 3.93 GiB
    Duration : 1h 50mn
    Overall bit rate mode : Variable
    Overall bit rate : 5 099 Kbps
    Movie name : Орлеан
    Performer : Андрей Прошкин
    Director : Андрей Прошкин
    Actor : Елена Лядова / Виктор Сухоруков / Виталий Хаев / Олег Ягодин / Тимофей Трибунцев / Павел Табаков / Евгений Сытый / Александр Бавтриков / Азамат Нигманов / Полина Шулика
    Screenplay by : Юрий Арабов
    Producer : Игорь Мишин / Наталия Гостюшина / Елена Романова
    Production studio : Киностудия СНТ Фильм
    Genre : Русское кино
    ContentType : Short Film
    Description : На русский провинциальный город с необычным названием Орлеан надвигается буря. Пока что о ней не догадываются его жители: парикмахерша Лида спит с кем ни попадя; врач Рудик водит к себе девиц, пользуясь служебным положением; полицейский не гнушается убийством; а фокусник, кажется, и вправду перепиливает девушек на сцене.
    Recorded date : UTC 2015-01-01 08:00:00
    Encoded date : UTC 2015-10-18 18:44:40
    Tagged date : UTC 2015-10-18 18:46:25
    Copyright : © 2015 Central Partnership
    Cover : Yes
    Rating : None
    Title/Sort : Орлеан
    LongDescription : На русский провинциальный город с необычным названием Орлеан надвигается буря. Пока что о ней не догадываются его жители: парикмахерша Лида спит с кем ни попадя; врач Рудик водит к себе девиц, пользуясь служебным положением; полицейский не гнушается убийством; а фокусник, кажется, и вправду перепиливает девушек на сцене.
    AppleStoreCatalogID : 1042151096
    Vendor : Apple:vendor_id:2015-838963
    ContentRating : ru-movie|16+|375|
    Video #1
    ID : 1
    Format : AVC
    Format/Info : Advanced Video Codec
    Format profile : High@L4
    Format settings, CABAC : Yes
    Format settings, ReFrames : 5 frames
    Codec ID : avc1
    Codec ID/Info : Advanced Video Coding
    Duration : 1h 50mn
    Bit rate : 4 553 Kbps
    Width : 1 920 pixels
    Height : 804 pixels
    Display aspect ratio : 2.40:1
    Frame rate mode : Constant
    Frame rate : 24.000 fps
    Color space : YUV
    Chroma subsampling : 4:2:0
    Bit depth : 8 bits
    Scan type : Progressive
    Bits/(Pixel*Frame) : 0.123
    Stream size : 3.51 GiB (89%)
    Title : Main Program
    Language : Russian
    Encoded date : UTC 2015-10-18 18:44:40
    Tagged date : UTC 2015-10-18 18:44:46
    Color range : Limited
    Color primaries : BT.709
    Transfer characteristics : BT.709
    Matrix coefficients : BT.709
    Video #2
    ID : 5
    Format : JPEG
    Codec ID : jpeg
    Duration : 1h 50mn
    Bit rate mode : Variable
    Bit rate : 973 bps
    Width : 640 pixels
    Height : 268 pixels
    Display aspect ratio : 2.40:1
    Frame rate mode : Variable
    Frame rate : 0.003 fps
    Minimum frame rate : 0.002 fps
    Maximum frame rate : 0.003 fps
    Color space : YUV
    Chroma subsampling : 4:2:0
    Bit depth : 8 bits
    Compression mode : Lossy
    Bits/(Pixel*Frame) : 1.891
    Stream size : 752 KiB (0%)
    Title : Chapter Images
    Language : Russian
    Encoded date : UTC 2015-10-18 18:44:54
    Tagged date : UTC 2015-10-18 18:44:54
    Audio #1
    ID : 2
    Format : AAC
    Format/Info : Advanced Audio Codec
    Format profile : LC
    Codec ID : 40
    Duration : 1h 50mn
    Bit rate mode : Variable
    Bit rate : 155 Kbps
    Maximum bit rate : 263 Kbps
    Channel(s) : 2 channels
    Channel positions : Front: L R
    Sampling rate : 48.0 KHz
    Compression mode : Lossy
    Stream size : 122 MiB (3%)
    Title : Russian Stereo
    Language : Russian
    Encoded date : UTC 2015-10-18 18:44:40
    Tagged date : UTC 2015-10-18 18:44:48
    Audio #2
    ID : 3
    Format : AC-3
    Format/Info : Audio Coding 3
    Mode extension : CM (complete main)
    Format settings, Endianness : Big
    Codec ID : ac-3
    Duration : 1h 50mn
    Bit rate mode : Constant
    Bit rate : 384 Kbps
    Channel(s) : 6 channels
    Channel positions : Front: L C R, Side: L R, LFE
    Sampling rate : 48.0 KHz
    Bit depth : 16 bits
    Compression mode : Lossy
    Stream size : 303 MiB (8%)
    Title : Russian DD 5.1
    Language : Russian
    Encoded date : UTC 2015-10-18 18:44:40
    Tagged date : UTC 2015-10-18 18:44:47
    Menu #1
    00:00:00.000 : Глава 1
    00:06:38.000 : Глава 2
    00:12:21.999 : Глава 3
    00:18:38.999 : Глава 4
    00:24:03.000 : Глава 5
    00:29:15.000 : Глава 6
    00:34:38.000 : Глава 7
    00:39:45.000 : Глава 8
    00:44:38.000 : Глава 9
    00:50:52.000 : Глава 10
    00:57:24.000 : Глава 11
    01:02:38.000 : Глава 12
    01:08:00.000 : Глава 13
    01:14:18.000 : Глава 14
    01:19:31.000 : Глава 15
    01:24:22.000 : Глава 16
    01:29:24.000 : Глава 17
    01:35:16.000 : Глава 18
    01:41:11.000 : Глава 19
    Menu #2
    ID : 4
    Codec ID : text
    Duration : 1h 50mn
    Language : English
    Encoded date : UTC 2015-10-18 18:44:48
    Tagged date : UTC 2015-10-18 18:44:48
    00:00:00.000 : Глава 1
    00:06:38.000 : Глава 2
    00:12:21.999 : Глава 3
    00:18:38.999 : Глава 4
    00:24:03.000 : Глава 5
    00:29:15.000 : Глава 6
    00:34:38.000 : Глава 7
    00:39:45.000 : Глава 8
    00:44:38.000 : Глава 9
    00:50:52.000 : Глава 10
    00:57:24.000 : Глава 11
    01:02:38.000 : Глава 12
    01:08:00.000 : Глава 13
    01:14:18.000 : Глава 14
    01:19:31.000 : Глава 15
    01:24:22.000 : Глава 16
    01:29:24.000 : Глава 17
    01:35:16.000 : Глава 18
    01:41:11.000 : Глава 19
    Bit rate mode : VBR

    Скриншоты

    -

    Релиз подготовлен для просмотра на Apple TV, iPad, iPhone, iPod Touch.
    Для просмотра данного релиза на компьютере с ОС Windows рекомендуется использовать VLC media player
    Скачать .torrent

    Скачать торрент-файл бесплатно и на максимальной скорости!

    Как скачивать? · Что такое торрент? · Рейтинг и ограничения

    !ВНИМАНИЕ!
    Сайт не распространяет и не хранит электронные версии произведений, а занимается лишь лишь предоставлением доступа к создаваемому пользователями каталогу ссылок на торрент-файлы, которые содержат только списки хеш-сумм, убедительная просьба с жалобами обращаться напрямую к пользователю. Файлы для обмена на трекере предоставлены пользователями сайта, и администрация не несёт ответственности за их содержание. Просьба не заливать файлы, защищенные авторскими правами, а также файлы нелегального содержания!


    _________________
    [Профиль] [ЛС]
    Показать сообщения:    
    Ответить на тему

    Текущее время: Сегодня, в 11:07

    Часовой пояс: GMT + 2



    Вы не можете начинать темы
    Вы не можете отвечать на сообщения
    Вы не можете редактировать свои сообщения
    Вы не можете удалять свои сообщения
    Вы не можете голосовать в опросах
    Вы не можете прикреплять файлы к сообщениям
    Вы не можете скачивать файлы