BitTorrentTracker PerecTracker.org
BitTorrentTracker PerecTracker.org
    
Регистрация  ·  Вход
 
 · 
Забыли пароль?

  • [ATV3] Терминатор: Генезис / Terminator Genisys (Алан Тейлор / Alan Taylor ) [2015, США, Фантастика, боевик, триллер, BDRip, HD (1080p)] DUB + Original + sub (rus, eng)

    Ответить на тему
     
    Автор Сообщение

    Flirldrerve

    Создавать темы 27-Окт-2015 05:18

           

    [Цитировать]

    Терминатор: Генезис / Terminator Genisys
    «Судьба переписана»
    7.005 / 10 6.70 / 10
    -Год выпуска: 2015
    Страна: США
    Жанр: Фантастика, боевик, триллер
    Продолжительность: 02:05:42
    Перевод: Дублированный (iTunes)
    Оригинальная аудиодорожка: Есть
    Cубтитры: Русские форсированные, Русские, Английские, Английские SDH
    Режиссёр: Алан Тейлор
    Сценарий: Лаэта Калогридис, Патрик Люссье, Джеймс Кэмерон
    Продюсер: Дэвид Эллисон, Дэна Голдберг, Билл Карраро
    Оператор: Крамер Моргенто
    Композитор: Лорн Бэлф
    Художник: Нил Спайсэк, Андрес Кубиллан, Аарон Хэй
    Монтаж: Роджер Бартон
    В ролях: Арнольд Шварценеггер, Джейсон Кларк, Эмилия Кларк, Джай Кортни, Дж.К. Симмонс, Дайо Окенийи, Мэтт Смит, Кортни Б. Вэнс, Ли Бён Хон, Майкл Глэдис
    Бюджет: $155 000 000
    Сборы в США: $89 760 956
    Сборы в мире: + $350 400 000 = $440 160 956
    Сборы в России: $20 577 915
    Мировая премьера: 21 июня 2015
    Премьера (РФ): 2 июля 2015, «Централ Партнершип»
    Релиз на DVD: 22 ноября 2015, «Новый Диск»
    Релиз на Blu-Ray: 22 ноября 2015, «Новый Диск»
    Описание: Когда Джон Коннор, лидер сопротивления, посылает сержанта Кайла Риза назад в 1984 год, чтобы защитить Сару Коннор и спасти будущее, неожиданный поворот событий создает разлом во времени. Сержант Риз оказывается в новой, незнакомой версии прошлого, где он встречает неожиданных союзников, в том числе Терминатора, новых опасных врагов, и новую миссию: изменить будущее…-Качество исходника: BDRemux (HDClub)
    Качество: BDRip
    Тип: HD (1080p)
    Контейнер: M4V
    Видео: H.264, 1920x800, 2.40:1, 8 000 Kbps, 23.976 fps
    Аудио 1: Русский/Дублированный (iTunes), AAC / 2.0 / 157 Kbps / 48.0 KHz
    Аудио 2: Английский/Оригинальная дорожка , AAC / 2.0 / 157 Kbps / 48.0 KHz
    Аудио 3: Украинский/Дублированный (iTunes), AAC / 2.0 / 157 Kbps / 48.0 KHz
    Аудио 4: Русский/Дублированный (iTunes), AC-3 / 5.1 / 384 Kbps / 48.0 KHz
    Аудио 5: Английский/Оригинальная дорожка , AC-3 / 5.1 / 640 Kbps / 48.0 KHz
    Субтитры 1: Русские форсированные
    Субтитры 2: Русские полные, версия 1
    Субтитры 3: Русские полные, версия 2
    Субтитры 4: Английские полные
    Субтитры 5: Английские SDH
    -

    iTunes Meta Tags

    Sort Name: Terminator Genisys
    XID: Apple:vendor_id:2015-436225
    contentID: 1001326852
    Copyright: © 2015 Skydance Productions and Paramount Pictures Corporation. All rights Reserved.
    Screenwriters: Лаэта Калогридис, Патрик Люссье, Джеймс Кэмерон
    Producers: Дэвид Эллисон, Дэна Голдберг, Билл Карраро
    Director: Алан Тейлор
    Cast: Арнольд Шварценеггер, Джейсон Кларк, Эмилия Кларк, Джай Кортни, Дж.К. Симмонс, Дайо Окенийи, Мэтт Смит, Кортни Б. Вэнс, Ли Бён Хон, Майкл Глэдис
    Studio: Paramount
    Rating Annotation: Rated PG-13 for intense sequences of sci-fi violence and gunplay throughout, partial nudity and brief strong language.
    Rating: 4
    Long Description: Когда Джон Коннор, лидер сопротивления, посылает сержанта Кайла Риза назад в 1984 год, чтобы защитить Сару Коннор и спасти будущее, неожиданный поворот событий создает разлом во времени. Сержант Риз оказывается в новой, незнакомой версии прошлого, где он встречает неожиданных союзников, в том числе Терминатора, новых опасных врагов, и новую миссию: изменить будущее...
    Description: Когда Джон Коннор, лидер сопротивления, посылает сержанта Кайла Риза назад в 1984 год, чтобы защитить Сару Коннор и спасти будущее, неожиданный поворот событий создает разлом во времени. Сержант Риз оказывается в новой, незнакомой версии прошлого, где он встречает неожиданных союзников, в том числе Терминатора, новых опасных врагов, и новую миссию: изменить будущее...
    Release Date: 2015-06-21T08:00:00Z
    Genre: Action & Adventure
    Artist: Alan Taylor
    Name: Terminator Genisys

    MediaInfo

    General
    Complete name : /Users/imac/HandBrake/Terminator Genisys (1080p HD).m4v
    Format : MPEG-4
    Codec ID : M4V
    File size : 8.34 GiB
    Duration : 2h 5mn
    Overall bit rate mode : Variable
    Overall bit rate : 9 496 Kbps
    Movie name : Terminator Genisys
    Performer : Alan Taylor
    Director : Алан Тейлор
    Actor : Арнольд Шварценеггер / Джейсон Кларк / Эмилия Кларк / Джай Кортни / Дж.К. Симмонс / Дайо Окенийи / Мэтт Смит / Кортни Б. Вэнс / Ли Бён Хон / Майкл Глэдис
    Screenplay by : Лаэта Калогридис / Патрик Люссье / Джеймс Кэмерон
    Producer : Дэвид Эллисон / Дэна Голдберг / Билл Карраро
    Production studio : Paramount
    Genre : Action & Adventure
    ContentType : Short Film
    Description : Когда Джон Коннор, лидер сопротивления, посылает сержанта Кайла Риза назад в 1984 год, чтобы защитить Сару Коннор и спасти будущее, неожиданный поворот событий создает разлом во времени. Сержант Риз оказывается в новой, незнакомой версии прошлого, где он встречает неожиданных союзников, в том числе Терминатора, новых опасных врагов, и новую миссию: изменить будущее...
    Recorded date : UTC 2015-06-21 08:00:00
    Encoded date : UTC 2015-10-19 07:43:37
    Tagged date : UTC 2015-10-19 07:56:09
    Copyright : © 2015 Skydance Productions and Paramount Pictures Corporation. All rights Reserved.
    Cover : Yes
    Rating : None
    Title/Sort : Terminator Genisys
    LongDescription : Когда Джон Коннор, лидер сопротивления, посылает сержанта Кайла Риза назад в 1984 год, чтобы защитить Сару Коннор и спасти будущее, неожиданный поворот событий создает разлом во времени. Сержант Риз оказывается в новой, незнакомой версии прошлого, где он встречает неожиданных союзников, в том числе Терминатора, новых опасных врагов, и новую миссию: изменить будущее...
    AppleStoreCatalogID : 1001326852
    Vendor : Apple:vendor_id:2015-436225
    ContentRating : mpaa|PG-13|300|Rated PG-13 for intense sequences of sci-fi violence and gunplay throughout, partial nudity and brief strong language.
    Video #1
    ID : 1
    Format : AVC
    Format/Info : Advanced Video Codec
    Format profile : High@L4
    Format settings, CABAC : Yes
    Format settings, ReFrames : 4 frames
    Codec ID : avc1
    Codec ID/Info : Advanced Video Coding
    Duration : 2h 5mn
    Source duration : 2h 5mn
    Bit rate : 8 000 Kbps
    Width : 1 920 pixels
    Height : 800 pixels
    Display aspect ratio : 2.40:1
    Frame rate mode : Variable
    Frame rate : 23.976 fps
    Minimum frame rate : 23.810 fps
    Maximum frame rate : 24.272 fps
    Color space : YUV
    Chroma subsampling : 4:2:0
    Bit depth : 8 bits
    Scan type : Progressive
    Bits/(Pixel*Frame) : 0.217
    Stream size : 7.01 GiB (84%)
    Source stream size : 7.01 GiB (84%)
    Title : Main Program
    Writing library : x264 core 142 r2479 dd79a61
    Encoding settings : cabac=1 / ref=4 / deblock=1:-2:-2 / analyse=0x3:0x133 / me=umh / subme=10 / psy=1 / psy_rd=1.00:0.15 / mixed_ref=1 / me_range=32 / chroma_me=1 / trellis=2 / 8x8dct=1 / cqm=0 / deadzone=21,11 / fast_pskip=0 / chroma_qp_offset=-3 / threads=36 / lookahead_threads=6 / sliced_threads=0 / nr=0 / decimate=0 / interlaced=0 / bluray_compat=0 / constrained_intra=0 / bframes=16 / b_pyramid=2 / b_adapt=2 / b_bias=0 / direct=3 / weightb=1 / open_gop=0 / weightp=2 / keyint=240 / keyint_min=24 / scenecut=40 / intra_refresh=0 / rc_lookahead=60 / rc=2pass / mbtree=1 / bitrate=8000 / ratetol=1.0 / qcomp=0.70 / qpmin=0 / qpmax=69 / qpstep=4 / cplxblur=20.0 / qblur=0.5 / vbv_maxrate=25000 / vbv_bufsize=25000 / nal_hrd=none / filler=0 / ip_ratio=1.40 / aq=1:1.00
    Language : English
    Encoded date : UTC 2015-10-19 07:43:37
    Tagged date : UTC 2015-10-19 07:44:02
    Color range : Limited
    Color primaries : BT.709
    Transfer characteristics : BT.709
    Matrix coefficients : BT.709
    Video #2
    ID : 13
    Format : JPEG
    Codec ID : jpeg
    Duration : 2h 5mn
    Bit rate mode : Variable
    Bit rate : 420 bps
    Width : 640 pixels
    Height : 266 pixels
    Display aspect ratio : 2.40:1
    Frame rate mode : Variable
    Frame rate : 0.002 fps
    Minimum frame rate : 0.002 fps
    Maximum frame rate : 0.003 fps
    Color space : YUV
    Chroma subsampling : 4:2:0
    Bit depth : 8 bits
    Compression mode : Lossy
    Bits/(Pixel*Frame) : 1.234
    Stream size : 461 KiB (0%)
    Title : Chapter Images
    Language : English
    Encoded date : UTC 2015-10-19 07:44:12
    Tagged date : UTC 2015-10-19 07:44:12
    Audio #1
    ID : 2
    Format : AAC
    Format/Info : Advanced Audio Codec
    Format profile : LC
    Codec ID : 40
    Duration : 2h 5mn
    Bit rate mode : Variable
    Bit rate : 157 Kbps
    Maximum bit rate : 251 Kbps
    Channel(s) : 2 channels
    Channel positions : Front: L R
    Sampling rate : 48.0 KHz
    Compression mode : Lossy
    Stream size : 141 MiB (2%)
    Title : Russian Stereo
    Language : Russian
    Encoded date : UTC 2015-10-19 07:43:37
    Tagged date : UTC 2015-10-19 07:44:04
    Audio #2
    ID : 3
    Format : AAC
    Format/Info : Advanced Audio Codec
    Format profile : LC
    Codec ID : 40
    Duration : 2h 5mn
    Bit rate mode : Variable
    Bit rate : 157 Kbps
    Maximum bit rate : 245 Kbps
    Channel(s) : 2 channels
    Channel positions : Front: L R
    Sampling rate : 48.0 KHz
    Compression mode : Lossy
    Stream size : 141 MiB (2%)
    Title : English Stereo
    Language : English
    Encoded date : UTC 2015-10-19 07:43:37
    Tagged date : UTC 2015-10-19 07:44:04
    Audio #3
    ID : 4
    Format : AAC
    Format/Info : Advanced Audio Codec
    Format profile : LC
    Codec ID : 40
    Duration : 2h 5mn
    Bit rate mode : Variable
    Bit rate : 157 Kbps
    Maximum bit rate : 238 Kbps
    Channel(s) : 2 channels
    Channel positions : Front: L R
    Sampling rate : 48.0 KHz
    Compression mode : Lossy
    Stream size : 141 MiB (2%)
    Title : Ukrainian Stereo
    Language : Ukrainian
    Encoded date : UTC 2015-10-19 07:43:37
    Tagged date : UTC 2015-10-19 07:44:04
    Audio #4
    ID : 5
    Format : AC-3
    Format/Info : Audio Coding 3
    Mode extension : CM (complete main)
    Format settings, Endianness : Big
    Codec ID : ac-3
    Duration : 2h 5mn
    Bit rate mode : Constant
    Bit rate : 384 Kbps
    Channel(s) : 6 channels
    Channel positions : Front: L C R, Side: L R, LFE
    Sampling rate : 48.0 KHz
    Bit depth : 16 bits
    Compression mode : Lossy
    Stream size : 345 MiB (4%)
    Title : Russian DD 5.1
    Language : Russian
    Encoded date : UTC 2015-10-19 07:43:37
    Tagged date : UTC 2015-10-19 07:43:43
    Audio #5
    ID : 6
    Format : AC-3
    Format/Info : Audio Coding 3
    Mode extension : CM (complete main)
    Format settings, Endianness : Big
    Codec ID : ac-3
    Duration : 2h 5mn
    Bit rate mode : Constant
    Bit rate : 640 Kbps
    Channel(s) : 6 channels
    Channel positions : Front: L C R, Side: L R, LFE
    Sampling rate : 48.0 KHz
    Bit depth : 16 bits
    Compression mode : Lossy
    Stream size : 575 MiB (7%)
    Title : English DD 5.1
    Language : English
    Encoded date : UTC 2015-10-19 07:43:37
    Tagged date : UTC 2015-10-19 07:43:43
    Text #1
    ID : 7
    Format : Timed Text
    Muxing mode : sbtl
    Codec ID : tx3g
    Duration : 1h 43mn
    Bit rate mode : Variable
    Bit rate : 1 bps
    Stream size : 657 Bytes (0%)
    Title : Russian forced
    Language : Russian
    Encoded date : UTC 2015-10-19 07:43:37
    Tagged date : UTC 2015-10-19 07:43:37
    Text #2
    ID : 8
    Format : Timed Text
    Muxing mode : sbtl
    Codec ID : tx3g
    Duration : 1h 57mn
    Bit rate mode : Variable
    Bit rate : 84 bps
    Stream size : 72.4 KiB (0%)
    Title : Russian full v.1
    Language : Russian
    Encoded date : UTC 2015-10-19 07:43:37
    Tagged date : UTC 2015-10-19 07:43:37
    Text #3
    ID : 9
    Format : Timed Text
    Muxing mode : sbtl
    Codec ID : tx3g
    Duration : 1h 58mn
    Bit rate mode : Variable
    Bit rate : 86 bps
    Stream size : 74.1 KiB (0%)
    Title : Russian fullv.2
    Language : Russian
    Encoded date : UTC 2015-10-19 07:43:37
    Tagged date : UTC 2015-10-19 07:43:37
    Text #4
    ID : 10
    Format : Timed Text
    Muxing mode : sbtl
    Codec ID : tx3g
    Duration : 1h 57mn
    Bit rate mode : Variable
    Bit rate : 52 bps
    Stream size : 45.2 KiB (0%)
    Title : English full
    Language : English
    Encoded date : UTC 2015-10-19 07:43:37
    Tagged date : UTC 2015-10-19 07:43:37
    Text #5
    ID : 11
    Format : Timed Text
    Muxing mode : sbtl
    Codec ID : tx3g
    Duration : 2h 0mn
    Bit rate mode : Variable
    Bit rate : 57 bps
    Stream size : 50.4 KiB (0%)
    Title : English SDH
    Language : English
    Encoded date : UTC 2015-10-19 07:43:37
    Tagged date : UTC 2015-10-19 07:43:37
    Menu #1
    00:00:00.000 : Chapter 1
    00:07:40.418 : Chapter 2
    00:14:20.818 : Chapter 3
    00:20:31.647 : Chapter 4
    00:27:48.500 : Chapter 5
    00:34:54.968 : Chapter 6
    00:41:02.710 : Chapter 7
    00:46:28.869 : Chapter 8
    00:53:05.599 : Chapter 9
    01:01:00.323 : Chapter 10
    01:08:22.640 : Chapter 11
    01:14:43.896 : Chapter 12
    01:21:31.428 : Chapter 13
    01:31:01.915 : Chapter 14
    01:38:42.917 : Chapter 15
    01:45:41.168 : Chapter 16
    01:52:49.054 : Chapter 17
    01:58:00.198 : Chapter 18
    Menu #2
    ID : 12
    Codec ID : text
    Duration : 2h 5mn
    Language : English
    Encoded date : UTC 2015-10-19 07:44:04
    Tagged date : UTC 2015-10-19 07:44:04
    00:00:00.000 : Chapter 1
    00:07:40.418 : Chapter 2
    00:14:20.818 : Chapter 3
    00:20:31.647 : Chapter 4
    00:27:48.500 : Chapter 5
    00:34:54.968 : Chapter 6
    00:41:02.710 : Chapter 7
    00:46:28.869 : Chapter 8
    00:53:05.599 : Chapter 9
    01:01:00.323 : Chapter 10
    01:08:22.640 : Chapter 11
    01:14:43.896 : Chapter 12
    01:21:31.428 : Chapter 13
    01:31:01.915 : Chapter 14
    01:38:42.917 : Chapter 15
    01:45:41.168 : Chapter 16
    01:52:49.054 : Chapter 17
    01:58:00.198 : Chapter 18
    Bit rate mode : VBR

    x264 лог

    x264 [info]: frame I:1178  Avg QP:12.68  size:167429
    x264 [info]: frame P:52110 Avg QP:15.60  size: 67758
    x264 [info]: frame B:127563 Avg QP:15.94  size: 29822
    x264 [info]: consecutive B-frames:  7.1%  6.8% 18.0% 16.0% 15.5% 31.2%  3.7%  0.5%  0.5%  0.2%  0.1%  0.1%  0.0%  0.0%  0.0%  0.1%  0.2%
    x264 [info]: mb I  I16..4: 11.4% 75.0% 13.6%
    x264 [info]: mb P  I16..4:  4.5% 30.7%  2.0%  P16..4: 32.6% 16.1%  7.9%  0.3%  0.1%    skip: 5.7%
    x264 [info]: mb B  I16..4:  0.7%  4.5%  0.2%  B16..8: 35.8% 14.2%  3.3%  direct: 9.6%  skip:31.7%  L0:43.9% L1:44.3% BI:11.8%
    x264 [info]: 8x8 transform intra:82.1% inter:52.2%
    x264 [info]: direct mvs  spatial:97.7% temporal:2.3%
    x264 [info]: coded y,uvDC,uvAC intra: 82.1% 91.6% 79.2% inter: 24.2% 40.4% 23.1%
    x264 [info]: i16 v,h,dc,p: 21% 12% 14% 53%
    x264 [info]: i8 v,h,dc,ddl,ddr,vr,hd,vl,hu: 12% 11% 19%  8%  9%  9% 10% 10% 12%
    x264 [info]: i4 v,h,dc,ddl,ddr,vr,hd,vl,hu: 14% 12%  7%  9% 13% 12% 12%  9% 11%
    x264 [info]: i8c dc,h,v,p: 53% 19% 16% 11%
    x264 [info]: Weighted P-Frames: Y:5.2% UV:3.3%
    x264 [info]: ref P L0: 51.8%  6.5% 27.0% 11.3%  3.1%  0.2%
    x264 [info]: ref B L0: 79.9% 16.5%  3.5%
    x264 [info]: ref B L1: 90.1%  9.9%
    x264 [info]: kb/s:7988.69

    Скриншоты

    -

    Релиз подготовлен для просмотра на Apple TV, iPad, iPhone, iPod Touch.
    Для просмотра данного релиза на компьютере с ОС Windows рекомендуется использовать VLC media player
    Скачать .torrent

    Скачать торрент-файл бесплатно и на максимальной скорости!

    Как скачивать? · Что такое торрент? · Рейтинг и ограничения

    !ВНИМАНИЕ!
    Сайт не распространяет и не хранит электронные версии произведений, а занимается лишь лишь предоставлением доступа к создаваемому пользователями каталогу ссылок на торрент-файлы, которые содержат только списки хеш-сумм, убедительная просьба с жалобами обращаться напрямую к пользователю. Файлы для обмена на трекере предоставлены пользователями сайта, и администрация не несёт ответственности за их содержание. Просьба не заливать файлы, защищенные авторскими правами, а также файлы нелегального содержания!


    _________________
    [Профиль] [ЛС]
    Показать сообщения:    
    Ответить на тему

    Текущее время: Сегодня, в 02:33

    Часовой пояс: GMT + 2



    Вы не можете начинать темы
    Вы не можете отвечать на сообщения
    Вы не можете редактировать свои сообщения
    Вы не можете удалять свои сообщения
    Вы не можете голосовать в опросах
    Вы не можете прикреплять файлы к сообщениям
    Вы не можете скачивать файлы