BitTorrentTracker PerecTracker.org
BitTorrentTracker PerecTracker.org
    
Регистрация  ·  Вход
 
 · 
Забыли пароль?

  • Двадцать дней без войны (Алексей Герман) [1977, драма, военный, DVDRip, 480p] Original

    Ответить на тему
     
    Автор Сообщение

    rechyn

    Создавать темы 26-Окт-2015 20:54

           

    [Цитировать]

    Двадцать дней без войны

    Год выпуска: 1977
    Страна: СССР
    Жанр: драма, военный
    Продолжительность: 01:37:17
    Режиссёр: Алексей Герман
    Сценарий: Константин Симонов
    В ролях: Юрий Никулин, Людмила Гурченко, Алексей Петренко, Ангелина Степанова, Екатерина Васильева, Николай Гринько, Люсьена Овчинникова, Михаил Кононов, Лия Ахеджакова, Рашид Садыков, Иннокентий Смоктуновский, Наталья Гундарева, Елена Ставрогина, Игорь Ефимов
    Описание:
    Конец 1942 года. Фронтовой журналист Лопатин приезжает в Ташкент в 20-дневный отпуск за Сталинград. Ему, оглушенному и ослепленному огнем, мирная жизнь кажется странной и непривычной: размокшие саманные домики, снег пополам с грязью, хлебные карточки, судорожно зажатые в кулаке, сводки от Советского Информбюро, убогий быт, похоронки и ... театры, которые продолжали работу в тылу.
    За 20 дней отпуска без войны Лопатин успевает побывать на Ташкентской киностудии, где снимается фильм по его военным очеркам, встретить новый 1943 год в мирной компании и пережить яркую любовь...
    Исходник: DVD5
    Контейнер: m4v
    Видео: H.264, 640@728x400, 1800 kbps, 25 fps
    Аудио: AAC, 2ch, 160 kbps, 48 kHz
    Главы: прописаны

    iTunes Meta Tags

    Name: Двадцать дней без войны
    Artist: Алексей Герман
    Release Date: 1977-04-25T08:00:00Z
    Description: Конец 1942 года. Фронтовой журналист Лопатин приезжает в Ташкент в 20-дневный отпуск за Сталинград. Ему, оглушенному и ослепленному огнем, мирная жизнь кажется странной и непривычной
    Long Description: Конец 1942 года. Фронтовой журналист Лопатин приезжает в Ташкент в 20-дневный отпуск за Сталинград. Ему, оглушенному и ослепленному огнем, мирная жизнь кажется странной и непривычной: размокшие саманные домики, снег пополам с грязью, хлебные карточки, судорожно зажатые в кулаке, сводки от Советского Информбюро, убогий быт, похоронки и ... театры, которые продолжали работу в тылу.За 20 дней отпуска без войны Лопатин успевает побывать на Ташкентской киностудии, где снимается фильм по его военным очеркам, встретить новый 1943 год в мирной компании и пережить яркую любовь...
    Cast: Юрий Никулин, Людмила Гурченко, Алексей Петренко, Ангелина Степанова, Екатерина Васильева, Николай Гринько, Люсьена Овчинникова, Михаил Кононов, Лия Ахеджакова, Рашид Садыков, Иннокентий Смоктуновский, Наталья Гундарева, Елена Ставрогина, Игорь Ефимов
    Director: Алексей Герман
    Screenwriters: Константин Симонов
    contentID: 44339
    XID: Apple:vendor_id:1976-44339

    x264 log

    x264 [info]: frame I:6082 Avg QP:17.82 size: 13234
    x264 [info]: frame P:139845 Avg QP:20.02 size: 8816
    x264 [info]: mb I I16..4: 44.3% 0.0% 55.7%
    x264 [info]: mb P I16..4: 2.3% 0.0% 2.7% P16..4: 54.0% 26.9% 11.4% 0.0% 0.0% skip: 2.8%
    x264 [info]: coded y,uvDC,uvAC intra: 81.8% 45.4% 7.6% inter: 42.6% 38.5% 0.0%
    x264 [info]: i16 v,h,dc,p: 20% 24% 18% 38%
    x264 [info]: i4 v,h,dc,ddl,ddr,vr,hd,vl,hu: 5% 6% 5% 16% 19% 14% 15% 9% 10%
    x264 [info]: i8c dc,h,v,p: 64% 16% 18% 3%
    x264 [info]: ref P L0: 58.6% 26.1% 15.3%
    x264 [info]: kb/s:1799.99

    MediaInfo

    General
    Format : MPEG-4
    Format profile : Base Media / Version 2
    Codec ID : mp42
    File size : 1.34 GiB
    Duration : 1h 37mn
    Overall bit rate mode : Variable
    Overall bit rate : 1 970 Kbps
    Movie name : Двадцать дней без войны
    Performer : Алексей Герман
    Director : Алексей Герман
    Actor : Юрий Никулин / Людмила Гурченко / Алексей Петренко / Ангелина Степанова / Екатерина Васильева / Николай Гринько / Люсьена Овчинникова / Михаил Кононов / Лия Ахеджакова / Рашид Садыков / Иннокентий Смоктуновский / Наталья Гундарева / Елена Ставрогина / Игорь Ефимов
    Screenplay by : Константин Симонов
    Production studio : Леньфильм
    Genre : военный, драма
    ContentType : Short Film
    Description : Конец 1942 года. Фронтовой журналист Лопатин приезжает в Ташкент в 20-дневный отпуск за Сталинград. Ему, оглушенному и ослепленному огнем, мирная жизнь кажется странной и непривычной
    Recorded date : 1977-05-01
    Encoded date : UTC 2015-10-26 13:06:31
    Tagged date : UTC 2015-10-26 16:22:12
    Cover : Yes
    Rating : None
    LongDescription : Конец 1942 года. Фронтовой журналист Лопатин приезжает в Ташкент в 20-дневный отпуск за Сталинград. Ему, оглушенному и ослепленному огнем, мирная жизнь кажется странной и непривычной: размокшие саманные домики, снег пополам с грязью, хлебные карточки, судорожно зажатые в кулаке, сводки от Советского Информбюро, убогий быт, похоронки и … театры, которые продолжали работу в тылу. За 20 дней отпуска без войны Лопатин успевает побывать на Ташкентской киностудии, где снимается фильм по его военным очеркам, встретить новый 1943 год в мирной компании и пережить яркую любовь…
    AppleStoreCatalogID : 44339
    Vendor : Apple:vendor_id:1976-44339
    Video #1
    ID : 1
    Format : AVC
    Format/Info : Advanced Video Codec
    Format profile : Baseline@L3
    Format settings, CABAC : No
    Format settings, ReFrames : 3 frames
    Codec ID : avc1
    Codec ID/Info : Advanced Video Coding
    Duration : 1h 37mn
    Bit rate : 1 800 Kbps
    Width : 640 pixels
    Height : 400 pixels
    Display aspect ratio : 1.85:1
    Frame rate mode : Constant
    Frame rate : 25.000 fps
    Color space : YUV
    Chroma subsampling : 4:2:0
    Bit depth : 8 bits
    Scan type : Progressive
    Bits/(Pixel*Frame) : 0.281
    Stream size : 1.22 GiB (91%)
    Writing library : x264 core 142 r2479 dd79a61
    Encoding settings : cabac=0 / ref=3 / deblock=1:-1:-1 / analyse=0x1:0x111 / me=umh / subme=9 / psy=1 / psy_rd=1.00:0.00 / mixed_ref=1 / me_range=32 / chroma_me=1 / trellis=2 / 8x8dct=0 / cqm=0 / deadzone=21,11 / fast_pskip=1 / chroma_qp_offset=-2 / threads=6 / lookahead_threads=1 / sliced_threads=0 / nr=0 / decimate=1 / interlaced=0 / bluray_compat=0 / constrained_intra=0 / bframes=0 / weightp=0 / keyint=250 / keyint_min=25 / scenecut=40 / intra_refresh=0 / rc_lookahead=40 / rc=2pass / mbtree=1 / bitrate=1800 / ratetol=1.0 / qcomp=0.60 / qpmin=0 / qpmax=69 / qpstep=4 / cplxblur=20.0 / qblur=0.5 / vbv_maxrate=5000 / vbv_bufsize=5000 / nal_hrd=none / filler=0 / ip_ratio=1.40 / aq=1:1.00
    Language : Russian
    Encoded date : UTC 2015-10-26 13:06:31
    Tagged date : UTC 2015-10-26 13:06:31
    Color range : Limited
    Color primaries : BT.601 PAL
    Transfer characteristics : BT.709
    Matrix coefficients : BT.601
    Video #2
    ID : 4
    Format : JPEG
    Codec ID : jpeg
    Duration : 1h 37mn
    Bit rate mode : Variable
    Bit rate : 478 bps
    Width : 640 pixels
    Height : 351 pixels
    Display aspect ratio : 1.85:1
    Frame rate mode : Variable
    Frame rate : 0.002 fps
    Minimum frame rate : 0.001 fps
    Maximum frame rate : 0.056 fps
    Color space : YUV
    Chroma subsampling : 4:2:0
    Bit depth : 8 bits
    Compression mode : Lossy
    Bits/(Pixel*Frame) : 1.064
    Stream size : 379 KiB (0%)
    Language : Russian
    Encoded date : UTC 2015-10-26 14:42:52
    Tagged date : UTC 2015-10-26 14:42:53
    Audio
    ID : 2
    Format : AAC
    Format/Info : Advanced Audio Codec
    Format profile : LC
    Codec ID : 40
    Duration : 1h 37mn
    Bit rate mode : Variable
    Bit rate : 164 Kbps
    Maximum bit rate : 222 Kbps
    Channel(s) : 2 channels
    Channel positions : Front: L R
    Sampling rate : 48.0 KHz
    Compression mode : Lossy
    Stream size : 114 MiB (8%)
    Title : Stereo
    Language : Russian
    Encoded date : UTC 2015-10-26 13:06:31
    Tagged date : UTC 2015-10-26 13:06:31
    Menu
    ID : 3
    Codec ID : text
    Duration : 1h 37mn
    Language : Russian
    Encoded date : UTC 2015-10-26 13:06:31
    Tagged date : UTC 2015-10-26 13:06:31
    00:00:00.000 : Chapter 1
    00:00:17.880 : Chapter 2
    00:06:52.440 : Chapter 3
    00:09:55.800 : Chapter 4
    00:20:47.160 : Chapter 5
    00:27:12.600 : Chapter 6
    00:30:31.320 : Chapter 7
    00:40:39.480 : Chapter 8
    00:54:37.560 : Chapter 9
    01:03:23.160 : Chapter 10
    01:09:14.520 : Chapter 11
    01:17:20.280 : Chapter 12
    01:29:23.160 : Chapter 13
    Bit rate mode : VBR

    Скриншоты

    Скачать .torrent

    Скачать торрент-файл бесплатно и на максимальной скорости!

    Как скачивать? · Что такое торрент? · Рейтинг и ограничения

    !ВНИМАНИЕ!
    Сайт не распространяет и не хранит электронные версии произведений, а занимается лишь лишь предоставлением доступа к создаваемому пользователями каталогу ссылок на торрент-файлы, которые содержат только списки хеш-сумм, убедительная просьба с жалобами обращаться напрямую к пользователю. Файлы для обмена на трекере предоставлены пользователями сайта, и администрация не несёт ответственности за их содержание. Просьба не заливать файлы, защищенные авторскими правами, а также файлы нелегального содержания!


    _________________
    [Профиль] [ЛС]
    Показать сообщения:    
    Ответить на тему

    Текущее время: Сегодня, в 06:03

    Часовой пояс: GMT + 2



    Вы не можете начинать темы
    Вы не можете отвечать на сообщения
    Вы не можете редактировать свои сообщения
    Вы не можете удалять свои сообщения
    Вы не можете голосовать в опросах
    Вы не можете прикреплять файлы к сообщениям
    Вы не можете скачивать файлы