BitTorrentTracker PerecTracker.org
BitTorrentTracker PerecTracker.org
    
Регистрация  ·  Вход
 
 · 
Забыли пароль?

  • Факап, или Хуже не бывает / Nicht mein Tag (Петер Торварт / Peter Thorwarth) [2014, Германия, боевик, комедия, криминал, приключения, HDRip] Dub

    Ответить на тему
     
    Автор Сообщение

    Light

    Создавать темы 26-Окт-2015 20:54

           

    [Цитировать]

    Факап, или Хуже не бывает / Nicht mein Tag
    Страна: Германия
    Жанр: боевик, комедия, криминал, приключения
    Год выпуска: 2014
    Продолжительность: 01:50:17
    Перевод: Профессиональный (дублированный)
    Cубтитры: нет
    Оригинальная аудиодорожка: нет
    Режиссер: Петер Торварт / Peter Thorwarth-В ролях: Мориц Бляйбтрой, Аксель Штайн, Жасмин Герат, Анна Мария Мюэ, Неля Кипер, Бен Рюдингер, Касэм Ходжа, Беким Гури, Тобиас Нид, Тиль Швайгер-Описание: Тиль Райнер — банковский клерк 30-ти лет. Каждый новый день его жизни похож на предыдущий. Отношения с супругой больше напоминают привычку. Но неожиданно происходит то, что позволяет выбраться ему из повседневной рутины. Тиля захватывает в заложники грабитель банка, в котором наш герой узнает заявителя по кредиту — Наппо.
    Полиция разрабатывает план перехват, устанавливает блокпосты, поэтому Наппо решает спрятать заложника в багажник и исчезнуть с награбленным! Но все идет не по плану и Наппо скрывается вместе с Тиллем! После того как шок от случившегося немного проходит, Тиль забывает про какое-либо благоразумие и погружается с головой в приключения вместе со своим похитителем…-Качество видео: HDRip
    Формат видео: AVI
    Видео: 688x288 (2.39:1), 25 fps, XviD build 73 ~808 kbps avg, 0.16 bit/pixel
    Аудио: 48 kHz, MPEG Layer 3, 2 ch, ~128.00 kbps avg-Скачать сэмпл-

    MediaInfo

    Format                                   : AVI
    Format/Info                              : Audio Video Interleave
    File size                                : 746 MiB
    Duration                                 : 1h 50mn
    Overall bit rate                         : 946 Kbps
    Writing application                      : VirtualDubMod 1.5.10.3 | www.virtualdub-fr.org || (build 2550/release)
    Writing library                          : VirtualDubMod build 2550/release
    Video
    ID                                       : 0
    Format                                   : MPEG-4 Visual
    Format profile                           : Advanced Simple@L5
    Format settings, BVOP                    : 1
    Format settings, QPel                    : No
    Format settings, GMC                     : No warppoints
    Format settings, Matrix                  : Custom
    Codec ID                                 : XVID
    Codec ID/Hint                            : XviD
    Duration                                 : 1h 50mn
    Bit rate                                 : 809 Kbps
    Width                                    : 688 pixels
    Height                                   : 288 pixels
    Display aspect ratio                     : 2.40:1
    Frame rate                               : 25.000 fps
    Color space                              : YUV
    Chroma subsampling                       : 4:2:0
    Bit depth                                : 8 bits
    Scan type                                : Progressive
    Compression mode                         : Lossy
    Bits/(Pixel*Frame)                       : 0.163
    Stream size                              : 638 MiB (85%)
    Writing library                          : XviD 73
    Audio
    ID                                       : 1
    Format                                   : MPEG Audio
    Format version                           : Version 1
    Format profile                           : Layer 3
    Codec ID                                 : 55
    Codec ID/Hint                            : MP3
    Duration                                 : 1h 50mn
    Bit rate mode                            : Constant
    Bit rate                                 : 128 Kbps
    Channel(s)                               : 2 channels
    Sampling rate                            : 48.0 KHz
    Compression mode                         : Lossy
    Stream size                              : 101 MiB (14%)
    Alignment                                : Aligned on interleaves
    Interleave, duration                     : 40 ms (1.00 video frame)
    Interleave, preload duration             : 504 ms
    Writing library                          : LAME3.99r
    Encoding settings                        : -m s -V 4 -q 2 -lowpass 17 -b 128

    Скриншоты

    Скачать .torrent

    Скачать торрент-файл бесплатно и на максимальной скорости!

    Как скачивать? · Что такое торрент? · Рейтинг и ограничения

    !ВНИМАНИЕ!
    Сайт не распространяет и не хранит электронные версии произведений, а занимается лишь лишь предоставлением доступа к создаваемому пользователями каталогу ссылок на торрент-файлы, которые содержат только списки хеш-сумм, убедительная просьба с жалобами обращаться напрямую к пользователю. Файлы для обмена на трекере предоставлены пользователями сайта, и администрация не несёт ответственности за их содержание. Просьба не заливать файлы, защищенные авторскими правами, а также файлы нелегального содержания!


    _________________
    [Профиль] [ЛС]
    Показать сообщения:    
    Ответить на тему

    Текущее время: Сегодня, в 10:45

    Часовой пояс: GMT + 2



    Вы не можете начинать темы
    Вы не можете отвечать на сообщения
    Вы не можете редактировать свои сообщения
    Вы не можете удалять свои сообщения
    Вы не можете голосовать в опросах
    Вы не можете прикреплять файлы к сообщениям
    Вы не можете скачивать файлы