BitTorrentTracker PerecTracker.org
BitTorrentTracker PerecTracker.org
    
Регистрация  ·  Вход
 
 · 
Забыли пароль?

  • Посол Советского Союза (Георгий Натансон) [1969, биографический, экранизация, DVB]

    Ответить на тему
     
    Автор Сообщение

    Light

    Создавать темы 26-Окт-2015 16:42

           

    [Цитировать]

    Посол Советского Союза
    Жанр: биографический, экранизация
    Год выпуска: 1969
    Продолжительность: 01:26:22
    Режиссёр: Георгий Натансон
    В ролях: Юлия Борисова, Анатолий Кторов, Гунарс Цилинский (Цилинскис), Вольдемар Пансо, Хельмут Вааг, Антс Эскола, Евгения Козырева, Юрий Пузырев, Николай Тимофеев, Ада Лундвер, Артур Димитерс, Антс Лаутер, Николай Афанасьев
    Описание: По пьесе Ариадны Тур и Петра Тура "Чрезвычайный посол"
    Историко-биографический фильм, в центре сюжета которого - Елена Кольцова, прообразом которой явилась Александра Коллонтай, первая советская женщина-дипломат. Работая в нейтральной стране, она сумела разоблачить немецкую провокацию и не позволила втянуть эту страну в военный конфликт.
    Доп. информация: Запись потока *.ts со спутника ЯМАЛ 401, 90° в.д.., ремукс в *.mkv программой VideoReDo.
    Качество видео: DVB
    Формат видео: MKV
    Видео: MPEG Video, 704(768)x576 (4:3), 25,000 кадров/сек, 4383 Кбит/сек
    Аудио: MPEG Audio, 48,0 КГц, 192 Кбит/сек, 1 канал

    MediaInfo

    General
    Unique ID : 130517885571557870514567466480788021838 (0x6230D495C08F363FE49373ECA8D7A24E)
    Complete name : D:\MPG\ПОСОЛ СОВЕТСКОГО СОЮЗА (YAMAL).mkv
    Format : Matroska
    Format version : Version 2
    File size : 2.82 GiB
    Duration : 1h 26mn
    Overall bit rate : 4 668 Kbps
    Writing application : Lavf52.64.2
    Writing library : Lavf52.64.2
    Video
    ID : 1
    Format : MPEG Video
    Format version : Version 2
    Format profile : Main@Main
    Format settings, BVOP : No
    Format settings, Matrix : Custom
    Codec ID : V_MPEG2
    Codec ID/Info : MPEG 1 or 2 Video
    Duration : 1h 26mn
    Bit rate : 4 383 Kbps
    Maximum bit rate : 4 478 Kbps
    Width : 704 pixels
    Height : 576 pixels
    Display aspect ratio : 4:3
    Original display aspect ratio : 4:3
    Frame rate mode : Constant
    Frame rate : 25.000 fps
    Standard : PAL
    Color space : YUV
    Chroma subsampling : 4:2:0
    Bit depth : 8 bits
    Scan type : Interlaced
    Scan order : Top Field First
    Compression mode : Lossy
    Bits/(Pixel*Frame) : 0.432
    Time code of first frame : 00:00:00:00
    Time code source : Group of pictures header
    Stream size : 2.64 GiB (94%)
    Default : Yes
    Forced : No
    Audio
    ID : 2
    Format : MPEG Audio
    Format version : Version 1
    Format profile : Layer 2
    Codec ID : A_MPEG/L2
    Codec ID/Hint : MP2
    Duration : 1h 26mn
    Bit rate mode : Constant
    Bit rate : 192 Kbps
    Channel count : 1 channel
    Sampling rate : 48.0 KHz
    Compression mode : Lossy
    Delay relative to video : -1mn 5s
    Stream size : 119 MiB (4%)
    Language : Russian
    Default : Yes
    Forced : No

    Скриншоты

    Скачать .torrent

    Скачать торрент-файл бесплатно и на максимальной скорости!

    Как скачивать? · Что такое торрент? · Рейтинг и ограничения

    !ВНИМАНИЕ!
    Сайт не распространяет и не хранит электронные версии произведений, а занимается лишь лишь предоставлением доступа к создаваемому пользователями каталогу ссылок на торрент-файлы, которые содержат только списки хеш-сумм, убедительная просьба с жалобами обращаться напрямую к пользователю. Файлы для обмена на трекере предоставлены пользователями сайта, и администрация не несёт ответственности за их содержание. Просьба не заливать файлы, защищенные авторскими правами, а также файлы нелегального содержания!


    _________________
    [Профиль] [ЛС]
    Показать сообщения:    
    Ответить на тему

    Текущее время: Сегодня, в 19:03

    Часовой пояс: GMT + 2



    Вы не можете начинать темы
    Вы не можете отвечать на сообщения
    Вы не можете редактировать свои сообщения
    Вы не можете удалять свои сообщения
    Вы не можете голосовать в опросах
    Вы не можете прикреплять файлы к сообщениям
    Вы не можете скачивать файлы