Register  ·  Log in
Forgot password?

  • Посол Советского Союза (Георгий Натансон) [1969, биографический, экранизация, DVB]

    Reply to topic
    Author Message


    Post 26-Oct-2015 17:42



    Посол Советского Союза
    Жанр: биографический, экранизация
    Год выпуска: 1969
    Продолжительность: 01:26:22
    Режиссёр: Георгий Натансон
    В ролях: Юлия Борисова, Анатолий Кторов, Гунарс Цилинский (Цилинскис), Вольдемар Пансо, Хельмут Вааг, Антс Эскола, Евгения Козырева, Юрий Пузырев, Николай Тимофеев, Ада Лундвер, Артур Димитерс, Антс Лаутер, Николай Афанасьев
    Описание: По пьесе Ариадны Тур и Петра Тура "Чрезвычайный посол"
    Историко-биографический фильм, в центре сюжета которого - Елена Кольцова, прообразом которой явилась Александра Коллонтай, первая советская женщина-дипломат. Работая в нейтральной стране, она сумела разоблачить немецкую провокацию и не позволила втянуть эту страну в военный конфликт.
    Доп. информация: Запись потока *.ts со спутника ЯМАЛ 401, 90° в.д.., ремукс в *.mkv программой VideoReDo.
    Качество видео: DVB
    Формат видео: MKV
    Видео: MPEG Video, 704(768)x576 (4:3), 25,000 кадров/сек, 4383 Кбит/сек
    Аудио: MPEG Audio, 48,0 КГц, 192 Кбит/сек, 1 канал


    Unique ID : 130517885571557870514567466480788021838 (0x6230D495C08F363FE49373ECA8D7A24E)
    Complete name : D:\MPG\ПОСОЛ СОВЕТСКОГО СОЮЗА (YAMAL).mkv
    Format : Matroska
    Format version : Version 2
    File size : 2.82 GiB
    Duration : 1h 26mn
    Overall bit rate : 4 668 Kbps
    Writing application : Lavf52.64.2
    Writing library : Lavf52.64.2
    ID : 1
    Format : MPEG Video
    Format version : Version 2
    Format profile : Main@Main
    Format settings, BVOP : No
    Format settings, Matrix : Custom
    Codec ID : V_MPEG2
    Codec ID/Info : MPEG 1 or 2 Video
    Duration : 1h 26mn
    Bit rate : 4 383 Kbps
    Maximum bit rate : 4 478 Kbps
    Width : 704 pixels
    Height : 576 pixels
    Display aspect ratio : 4:3
    Original display aspect ratio : 4:3
    Frame rate mode : Constant
    Frame rate : 25.000 fps
    Standard : PAL
    Color space : YUV
    Chroma subsampling : 4:2:0
    Bit depth : 8 bits
    Scan type : Interlaced
    Scan order : Top Field First
    Compression mode : Lossy
    Bits/(Pixel*Frame) : 0.432
    Time code of first frame : 00:00:00:00
    Time code source : Group of pictures header
    Stream size : 2.64 GiB (94%)
    Default : Yes
    Forced : No
    ID : 2
    Format : MPEG Audio
    Format version : Version 1
    Format profile : Layer 2
    Codec ID : A_MPEG/L2
    Codec ID/Hint : MP2
    Duration : 1h 26mn
    Bit rate mode : Constant
    Bit rate : 192 Kbps
    Channel count : 1 channel
    Sampling rate : 48.0 KHz
    Compression mode : Lossy
    Delay relative to video : -1mn 5s
    Stream size : 119 MiB (4%)
    Language : Russian
    Default : Yes
    Forced : No


    Download .torrent

    Download free and at maximum speed!

    How to Download? · What is a torrent? · Ratings and Limitations

    The site does not extend and does not store electronic(digital) versions of products, and only gives access to a reference catalogue created by users on torrent-files which contain only lists of the hash-sums, the earnest entreaty, with complaints(abuse) to access directly to the user. Files for an exchange on tracker are given by users of a site, and the administration does not bear the responsibility for their maintenance. The request to not fill in the files protected by copyrights, and also files of the illegal maintenance!

    [Profile] [PM]
    Display posts from previous:    
    Reply to topic

    The time now is: Today 06:15

    All times are GMT + 3 Hours

    You cannot post new topics in this forum
    You cannot reply to topics in this forum
    You cannot edit your posts in this forum
    You cannot delete your posts in this forum
    You cannot vote in polls in this forum
    You cannot attach files in this forum
    You cannot download files in this forum