BitTorrentTracker PerecTracker.org
BitTorrentTracker PerecTracker.org
    
Регистрация  ·  Вход
 
 · 
Забыли пароль?

  • (Classical/Baroque/Viola da gamba) J.S.Bach - Sonatas for Viola da Gamba and Harpsichord BWV 1027-1029, 1030a - Markku Luolajan-Mikkola, Miklos Spanyi - 2000, FLAC (image+.cue) lossless

    Ответить на тему
     
    Автор Сообщение

    Columb

    Создавать темы 26-Июл-2013 18:39

           

    [Цитировать]

    J.S.Bach - Sonatas for Viola da Gamba and Harpsichord BWV 1027-1029, 1030a - Markku Luolajan-Mikkola, Miklós Spányi
    Жанр: Classical/Baroque/Viola da gamba
    Страна-производитель диска: Австрия
    Год издания диска: 2000
    Издатель (лейбл): BIS
    Номер по каталогу: BIS-CD-1061
    Дата записи: 1999
    Аудиокодек: FLAC
    Тип рипа: image+.cue
    Битрейт аудио: lossless
    Продолжительность: 63'37
    Источник: собственный рип
    Наличие сканов в содержимом раздачи: да
    Треклист:
    Sonata in G minor, BWV 1030a 19'03
    [1] I. [without tempo marking] 9'13
    [2] II. Siciliano 3'36
    [3] III. Presto 1'40
    [4] IV. [without tempo marking] 4'22
    Sonata in G major, BWV 1027 13'13
    [5] I. Adagio 3'35
    [6] II. Allegro ma non tanto 3'56
    [7] III. Andante 2'13
    [8] IV. Allegro moderato 3'22
    Sonata in D major, BWV 1028 14'45
    [9] I. Adagio 1'52
    [10] II. Allegro 4'10
    [11] III. Andante 4'23
    [12] IV. Allegro 4'12
    Sonata in G minor, BWV 1029 15'17
    [13] I. Vivace 6'10
    [14] II. Adagio 4'55
    [15] III. Allegro 4'05
    Исполнители:
    Markku Luolajan-Mikkola, viola da gamba
    Miklós Spányi, tangent piano

    Лог создания рипа

    Exact Audio Copy V1.0 beta 3 from 29. August 2011
    Отчёт EAC об извлечении, выполненном 24. июля 2013, 20:31
    Markku Luolajan-Mikkola, Miklos Spanyi / J.S.Bach - Sonatas for Viola da Gamba and Harpsichord
    Дисковод: HL-DT-STDVDRAM GT33N Adapter: 1 ID: 0
    Режим чтения : Достоверность
    Использование точного потока : Да
    Отключение кэша аудио : Да
    Использование указателей C2 : Нет
    Коррекция смещения при чтении : 103
    Способность читать области Lead-in и Lead-out : Нет
    Заполнение пропущенных сэмплов тишиной : Да
    Удаление блоков с тишиной в начале и конце : Нет
    При вычислениях CRC использовались нулевые сэмплы : Да
    Интерфейс : Встроенный Win32-интерфейс для Win NT/2000
    Выходной формат : Пользовательский кодировщик
    Выбранный битрейт : 1024 kBit/s
    Качество : Высокий
    Добавление ID3-тега : Да
    Утилита сжатия : C:\Program Files (x86)\Exact Audio Copy\Flac\flac.exe
    Дополнительные параметры : -8 -V -T "TITLE=%title%" -T "ARTIST=%artist%" -T "ALBUMARTIST=%albumartist%" -T "ALBUM=%albumtitle%" -T "DATE=%year%" -T "TRACKTOTAL=%numtracks%" -T "GENRE=%genre%" -T "COMMENT=%comment%" -T "PERFORMER=%albuminterpret%" -T "COMPOSER=%composer%" %source% -o %dest%
    TOC извлечённого CD
    Трек | Старт | Длительность | Начальный сектор | Конечный сектор
    ---------------------------------------------------------------------
    1 | 0:00.00 | 9:25.30 | 0 | 42404
    2 | 9:25.30 | 3:37.52 | 42405 | 58731
    3 | 13:03.07 | 1:42.05 | 58732 | 66386
    4 | 14:45.12 | 4:36.03 | 66387 | 87089
    5 | 19:21.15 | 3:37.42 | 87090 | 103406
    6 | 22:58.57 | 3:57.48 | 103407 | 121229
    7 | 26:56.30 | 2:15.67 | 121230 | 131421
    8 | 29:12.22 | 3:37.05 | 131422 | 147701
    9 | 32:49.27 | 1:54.10 | 147702 | 156261
    10 | 34:43.37 | 4:13.38 | 156262 | 175274
    11 | 38:57.00 | 4:26.15 | 175275 | 195239
    12 | 43:23.15 | 4:26.45 | 195240 | 215234
    13 | 47:49.60 | 6:12.05 | 215235 | 243139
    14 | 54:01.65 | 4:58.17 | 243140 | 265506
    15 | 59:00.07 | 4:36.68 | 265507 | 286274
    Характеристики диапазона извлечения и сообщения об ошибках
    Выбранный диапазон
    Имя файла O:\!Rips\J.S.Bach - Sonatas for Viola da Gamba and Harpsichord.wav
    Пиковый уровень 100.0 %
    Скорость извлечения 2.2 X
    Качество диапазона 99.9 %
    CRC теста AA87859D
    CRC копии AA87859D
    Копирование... OK
    Ошибок не произошло
    AccurateRip: сводка
    Трек 1 : извлечено точно (доверие 1) [5EA1271F] (AR v1)
    Трек 2 точность не определена (достоверность 1) [B6BE60B4], AccurateRip вернул [B1D07CE1] (AR v2)
    Трек 3 точность не определена (достоверность 1) [616C3942], AccurateRip вернул [DB4A6752] (AR v2)
    Трек 4 точность не определена (достоверность 1) [B7684C25], AccurateRip вернул [2F4C4524] (AR v2)
    Трек 5 : извлечено точно (доверие 1) [92D1CC15] (AR v1)
    Трек 6 точность не определена (достоверность 1) [87456A96], AccurateRip вернул [572380DA] (AR v2)
    Трек 7 точность не определена (достоверность 1) [0E029819], AccurateRip вернул [6CFA4D35] (AR v2)
    Трек 8 точность не определена (достоверность 1) [E40B8101], AccurateRip вернул [4779ECDB] (AR v2)
    Трек 9 точность не определена (достоверность 1) [3D83E26E], AccurateRip вернул [5AFE4789] (AR v2)
    Трек 10 точность не определена (достоверность 1) [C1F4D28B], AccurateRip вернул [0CB7B2AC] (AR v2)
    Трек 11 : извлечено точно (доверие 1) [3CBEC79A] (AR v1)
    Трек 12 точность не определена (достоверность 1) [FBFC5284], AccurateRip вернул [20E3E782] (AR v2)
    Трек 13 : извлечено точно (доверие 1) [067183A8] (AR v1)
    Трек 14 точность не определена (достоверность 1) [DBD13B7A], AccurateRip вернул [E9944E9C] (AR v2)
    Трек 15 : извлечено точно (доверие 1) [20DE20DF] (AR v1)
    5 трек(и) скопированы точно
    10 трек(и) не удалось проверить на точность
    Некоторые треки не прошли проверку на точность
    Конец отчёта
    ==== Контрольная сумма отчёта 90F534AE25E79BE1B34E01796A80C8E60939A515D7B1F30E6A99A4AE89883716 ====

    Содержание индексной карты (.CUE)

    REM GENRE Classical
    REM DATE 2000
    REM DISCID E20EE90F
    REM COMMENT "ExactAudioCopy v1.0b3"
    PERFORMER "Markku Luolajan-Mikkola, Miklos Spanyi"
    TITLE "J.S.Bach - Sonatas for Viola da Gamba and Harpsichord"
    FILE "J.S.Bach - Sonatas for Viola da Gamba and Harpsichord.flac" WAVE
    TRACK 01 AUDIO
    TITLE "Sonata in G minor, BWV 1030a - I. no tempo"
    PERFORMER "Markku Luolajan-Mikkola, Miklos Spanyi"
    INDEX 01 00:00:00
    TRACK 02 AUDIO
    TITLE "Sonata in G minor, BWV 1030a - II. Siciliano"
    PERFORMER "Markku Luolajan-Mikkola, Miklos Spanyi"
    INDEX 01 09:25:30
    TRACK 03 AUDIO
    TITLE "Sonata in G minor, BWV 1030a - III. Presto"
    PERFORMER "Markku Luolajan-Mikkola, Miklos Spanyi"
    INDEX 01 13:03:07
    TRACK 04 AUDIO
    TITLE "Sonata in G minor, BWV 1030a - IV. no tempo"
    PERFORMER "Markku Luolajan-Mikkola, Miklos Spanyi"
    INDEX 01 14:45:12
    TRACK 05 AUDIO
    TITLE "Sonata in G major, BWV 1027 - I. Adagio"
    PERFORMER "Markku Luolajan-Mikkola, Miklos Spanyi"
    INDEX 01 19:21:15
    TRACK 06 AUDIO
    TITLE "Sonata in G major, BWV 1027 - II. Allegro"
    PERFORMER "Markku Luolajan-Mikkola, Miklos Spanyi"
    INDEX 01 22:58:57
    TRACK 07 AUDIO
    TITLE "Sonata in G major, BWV 1027 - III. Andante"
    PERFORMER "Markku Luolajan-Mikkola, Miklos Spanyi"
    INDEX 01 26:56:30
    TRACK 08 AUDIO
    TITLE "Sonata in G major, BWV 1027 - IV. Allegro moderato"
    PERFORMER "Markku Luolajan-Mikkola, Miklos Spanyi"
    INDEX 01 29:12:22
    TRACK 09 AUDIO
    TITLE "Sonata in D major, BWV 1028 - I. Adagio"
    PERFORMER "Markku Luolajan-Mikkola, Miklos Spanyi"
    INDEX 01 32:49:27
    TRACK 10 AUDIO
    TITLE "Sonata in D major, BWV 1028 - II. Allegro"
    PERFORMER "Markku Luolajan-Mikkola, Miklos Spanyi"
    INDEX 01 34:43:37
    TRACK 11 AUDIO
    TITLE "Sonata in D major, BWV 1028 - III. Andante"
    PERFORMER "Markku Luolajan-Mikkola, Miklos Spanyi"
    INDEX 01 38:57:00
    TRACK 12 AUDIO
    TITLE "Sonata in D major, BWV 1028 - IV. Allegro"
    PERFORMER "Markku Luolajan-Mikkola, Miklos Spanyi"
    INDEX 01 43:23:15
    TRACK 13 AUDIO
    TITLE "Sonata in G minor, BWV 1029 - I. Vivace"
    PERFORMER "Markku Luolajan-Mikkola, Miklos Spanyi"
    INDEX 01 47:49:60
    TRACK 14 AUDIO
    TITLE "Sonata in G minor, BWV 1029 - II. Adagio"
    PERFORMER "Markku Luolajan-Mikkola, Miklos Spanyi"
    INDEX 01 54:01:65
    TRACK 15 AUDIO
    TITLE "Sonata in G minor, BWV 1029 - III. Allegro"
    PERFORMER "Markku Luolajan-Mikkola, Miklos Spanyi"
    INDEX 01 59:00:07
    Скачать .torrent

    Скачать торрент-файл бесплатно и на максимальной скорости!

    Как скачивать? · Что такое торрент? · Рейтинг и ограничения

    !ВНИМАНИЕ!
    Сайт не распространяет и не хранит электронные версии произведений, а занимается лишь лишь предоставлением доступа к создаваемому пользователями каталогу ссылок на торрент-файлы, которые содержат только списки хеш-сумм, убедительная просьба с жалобами обращаться напрямую к пользователю. Файлы для обмена на трекере предоставлены пользователями сайта, и администрация не несёт ответственности за их содержание. Просьба не заливать файлы, защищенные авторскими правами, а также файлы нелегального содержания!

    [Профиль] [ЛС]
    Показать сообщения:    
    Ответить на тему

    Текущее время: Сегодня, в 20:17

    Часовой пояс: GMT + 2



    Вы не можете начинать темы
    Вы не можете отвечать на сообщения
    Вы не можете редактировать свои сообщения
    Вы не можете удалять свои сообщения
    Вы не можете голосовать в опросах
    Вы не можете прикреплять файлы к сообщениям
    Вы не можете скачивать файлы