BitTorrentTracker PerecTracker.org
BitTorrentTracker PerecTracker.org
    
Регистрация  ·  Вход
 
 · 
Забыли пароль?

  • Эрнест и Селестина: Приключения мышки и медведя / Ernest et Célestine (Стефани Обье / Stéphane Aubier, Венсан Патар / Vincent Patar) [2012, мультфильм, драма, комедия, семейный, HDRip] Dub

    Ответить на тему
     
    Автор Сообщение

    rechyn

    Создавать темы 26-Окт-2015 16:42

           

    [Цитировать]

    Эрнест и Селестина: Приключения мышки и медведя / Ernest et Célestine«Кажется, это начало прекрасной дружбы»-Год выпуска: 2012
    Страна: Франция, Бельгия, Люксембург
    Жанр: мультфильм, драма, комедия, семейный
    Продолжительность: 01:19:20
    Перевод: Профессиональный (дублированный)
    Русские субтитры: нет-Возраст: 0+ (для любой зрительской аудитории)
    Рейтинг MPAA: PG (рекомендуется присутствие родителей)- -Режиссер: Стефани Обье / Stéphane Aubier, Венсан Патар / Vincent Patar
    Роли озвучивали: Ламбер Вильсон, Полин Бруннер, Форест Уитакер, Маккензи Фой, Лорен Бэколл, Энн-Мари Луп, Пол Джаматти, Патрис Меленнек, Уильям Х. Мэйси, Брижитт Виртюд и др.
    Описание: Большая дружба начинается с малого… Она — маленькая мышка, он — огромный медведь. Она — ребенок, он — взрослый. Она мечтает быть художницей, хотя по правилам своего мира должна стать дантистом, он — музыкант и поэт, ведущий бездумную жизнь и никогда не имеющий куска хлеба на завтра. Они живут в разных мирах: для обитателей мышиного царства нет ничего более дикого, чем подружиться с «большим плохим медведем», да и его соседи вряд ли поймут, зачем водиться с мышкой. Но дружба и родство душ сродни настоящему волшебству. И какое этой парочке дело до условностей, разницы в размере, исторических предрассудков и культурных барьеров?-Сэмпл-Качество: HDRip
    Формат видео: AVI
    Видео: 720x400 (16:9), 23,976 fps, XviD, 2008 kbps, 0.291 bit/pixel
    Аудио 1: AC-3, 448 kb/s, 6 ch, 48 kHz, Rus, Dub
    Субтитры: Отсутствуют-

    Подробные технические данные

    ОбщееФормат : AVIФормат/Информация : Audio Video InterleaveРазмер файла : 1,37 ГбайтПродолжительность : 1 ч. 19 м.Общий поток : 2465 Кбит/секПрограмма кодирования : VirtualDubMod 1.5.10.2 (build 2540/release)
    ВидеоИдентификатор : 0Формат : MPEG-4 VisualПрофиль формата : Advanced Simple@L5Параметр BVOP формата : 1Параметр QPel формата : НетПараметр GMC формата : Без точки переходаПараметр матрицы формата : ВыборочнаяИдентификатор кодека : XVIDИдентификатор кодека/Подсказка : XviDПродолжительность : 1 ч. 19 м.Битрейт : 2008 Кбит/секШирина : 720 пикселейВысота : 400 пикселейСоотношение сторон : 16:9Частота кадров : 23,976 кадра/секЦветовое пространство : YUVСубдискретизация насыщенности : 4:2:0Битовая глубина : 8 битТип развёртки : ПрогрессивнаяМетод сжатия : С потерямиБит/(Пиксели*Кадры) : 0.291Размер потока : 1,11 Гбайт (81%)Библиотека кодирования : XviD 1.2.1 (UTC 2008-12-04)
    АудиоИдентификатор : 1Формат : AC-3Формат/Информация : Audio Coding 3Расширение режима : CM (complete main)Параметр Endianness формата : BigИдентификатор кодека : 2000Продолжительность : 1 ч. 19 м.Вид битрейта : ПостоянныйБитрейт : 448 Кбит/секКаналы : 6 каналовРасположение каналов : Front: L C R, Side: L R, LFEЧастота : 48,0 КГцМетод сжатия : С потерямиРазмер потока : 254 Мбайт (18%)Выравнивание : Разделение по промежуткамПродолжительность промежутка : 42 мс. (1,00 видеокадр)Время предзагрузки промежутка : 500 мс.

    Скриншоты

    Скачать .torrent

    Скачать торрент-файл бесплатно и на максимальной скорости!

    Как скачивать? · Что такое торрент? · Рейтинг и ограничения

    !ВНИМАНИЕ!
    Сайт не распространяет и не хранит электронные версии произведений, а занимается лишь лишь предоставлением доступа к создаваемому пользователями каталогу ссылок на торрент-файлы, которые содержат только списки хеш-сумм, убедительная просьба с жалобами обращаться напрямую к пользователю. Файлы для обмена на трекере предоставлены пользователями сайта, и администрация не несёт ответственности за их содержание. Просьба не заливать файлы, защищенные авторскими правами, а также файлы нелегального содержания!


    _________________
    [Профиль] [ЛС]
    Показать сообщения:    
    Ответить на тему

    Текущее время: Сегодня, в 22:07

    Часовой пояс: GMT + 2



    Вы не можете начинать темы
    Вы не можете отвечать на сообщения
    Вы не можете редактировать свои сообщения
    Вы не можете удалять свои сообщения
    Вы не можете голосовать в опросах
    Вы не можете прикреплять файлы к сообщениям
    Вы не можете скачивать файлы