BitTorrentTracker PerecTracker.org
BitTorrentTracker PerecTracker.org
    
Регистрация  ·  Вход
 
 · 
Забыли пароль?

  • Лига справедливости: Война / Justice League: War (Джей Олива / Jay Oliva) [2014, фантастика, фэнтези, боевик, BDRip-AVC] 3x MVO + Rus. Eng Sub + Original Eng

    Ответить на тему
     
    Автор Сообщение

    rechyn

    Создавать темы 26-Окт-2015 16:42

           

    [Цитировать]

    Лига справедливости: Война
    Justice League: War
    «A time when heroes became legends»
    -Страна: США
    Жанр: фантастика, фэнтези, боевик
    Продолжительность: 01:19:26
    Год выпуска: 2014
    Перевод: Профессиональный (многоголосый закадровый) SDI Media
    Перевод 2: Любительский (многоголосый закадровый) SkyeFilmTV
    Перевод 3: Любительский (многоголосый закадровый) BaibaKo
    Русские субтитры: есть
    Режиссёр: Джей Олива / Jay Oliva
    Роли озвучивали: Мишель Монахэн, Алан Тьюдик, Шон Эстин, Шемар Мур, Джастин Кирк, Кристофер Горам, Джейсон О’Мара, Джордж Ньюберн, Стивен Блум, Брюс Томас-ОписаниеЛучшие герои мира решают создать Лигу Справедливости, чтобы остановить инопланетное вторжение на Землю.-Профессиональный (многоголосый закадровый) SDI Media записал с TV1000 Megahit HD и синхронизировал xfiles-Релиз:

    Сэмпл

    IMDb: 7.20 (13 645)
    Качество: BDRip-AVC BDRemux 1080p
    Формат: MKV
    Видео: AVC 2464 Kbps 1152 x 648 (1.778) 23.976 fps
    Аудио: AC-3 192 Kbps 2 channels, 48.0 KHz MVO SDI Media
    Аудио 2: AC-3 448 Kbps 6 channels, 48.0 KHz MVO SkyeFilmTV
    Аудио 3: AC-3 384 Kbps 6 channels, 48.0 KHz MVO BaibaKo
    Аудио 4: AC-3 448 Kbps 6 channels, 48.0 KHz Eng
    Субтитры: Rus, Eng SRT
    MI | Log

    Log

    x264 [info]: frame I:1110 Avg QP:12.50 size: 80631
    x264 [info]: frame P:31627 Avg QP:14.23 size: 26508
    x264 [info]: frame B:81552 Avg QP:15.42 size: 7185
    x264 [info]: consecutive B-frames: 5.2% 8.0% 8.0% 49.3% 8.1% 6.9% 1.7% 7.7% 0.9% 1.3% 0.5% 1.9% 0.4%
    x264 [info]: mb I I16..4: 8.9% 61.0% 30.1%
    x264 [info]: mb P I16..4: 1.8% 12.7% 4.3% P16..4: 26.5% 28.7% 9.2% 2.0% 0.2% skip:14.5%
    x264 [info]: mb B I16..4: 0.3% 1.5% 0.4% B16..8: 29.2% 15.2% 2.4% direct: 3.0% skip:48.0% L0:47.6% L1:46.6% BI: 5.8%
    x264 [info]: 8x8 transform intra:66.5% inter:50.2%
    x264 [info]: direct mvs spatial:100.0% temporal:0.0%
    x264 [info]: coded y,uvDC,uvAC intra: 76.5% 72.4% 58.5% inter: 12.6% 10.5% 3.8%
    x264 [info]: i16 v,h,dc,p: 26% 16% 5% 53%
    x264 [info]: i8 v,h,dc,ddl,ddr,vr,hd,vl,hu: 11% 11% 12% 9% 10% 9% 12% 10% 15%
    x264 [info]: i4 v,h,dc,ddl,ddr,vr,hd,vl,hu: 13% 10% 9% 9% 13% 11% 12% 9% 12%
    x264 [info]: i8c dc,h,v,p: 33% 34% 18% 15%
    x264 [info]: Weighted P-Frames: Y:2.9% UV:2.0%
    x264 [info]: ref P L0: 49.7% 5.5% 16.0% 7.1% 5.4% 4.4% 3.7% 2.3% 2.0% 1.8% 1.7% 0.3% 0.0%
    x264 [info]: ref B L0: 63.6% 13.4% 7.7% 4.1% 3.2% 2.7% 2.3% 1.6% 1.0% 0.4%
    x264 [info]: ref B L1: 91.2% 8.8%
    x264 [info]: kb/s:2540.56
    x264 [total]: encoded 114289 frames, 9.08 fps, 2540.56 kb/s, duration 3:29:46.92
    Format : Matroska
    Format version : Version 4 / Version 2
    File size : 2.23 GiB
    Duration : 1h 19mn
    Overall bit rate : 4 015 Kbps
    Encoded date : UTC 2015-10-25 18:33:57
    Writing application : mkvmerge v6.7.0 ('Back to the Ground') 32bit built on Jan 8 2014 15:03:17
    Writing library : libebml v1.3.0 + libmatroska v1.4.1
    Video
    ID : 1
    Format : AVC
    Format/Info : Advanced Video Codec
    Format profile : High@L4.1
    Format settings, CABAC : Yes
    Format settings, ReFrames : 11 frames
    Codec ID : V_MPEG4/ISO/AVC
    Duration : 1h 19mn
    Bit rate : 2 464 Kbps
    Width : 1 152 pixels
    Height : 648 pixels
    Display aspect ratio : 16:9
    Frame rate mode : Constant
    Frame rate : 23.976 fps
    Color space : YUV
    Chroma subsampling : 4:2:0
    Bit depth : 8 bits
    Scan type : Progressive
    Bits/(Pixel*Frame) : 0.138
    Stream size : 1.37 GiB (61%)
    Title : Justice League: War (2014) [perectracker.org]
    Writing library : x264 core 148 r2579kMod 73ae2d1
    Encoding settings : cabac=1 / ref=11 / deblock=1:-2:-1 / analyse=0x3:0x133 / me=umh / subme=11 / psy=1 / fade_compensate=0.00 / psy_rd=1.00:0.05 / mixed_ref=1 / me_range=32 / chroma_me=1 / trellis=2 / 8x8dct=1 / cqm=0 / deadzone=21,11 / fast_pskip=0 / chroma_qp_offset=-3 / threads=12 / lookahead_threads=3 / sliced_threads=0 / nr=0 / decimate=1 / interlaced=0 / bluray_compat=0 / constrained_intra=0 / fgo=0 / bframes=12 / b_pyramid=2 / b_adapt=2 / b_bias=0 / direct=3 / weightb=1 / open_gop=0 / weightp=2 / keyint=250 / keyint_min=23 / scenecut=40 / intra_refresh=0 / rc_lookahead=80 / rc=crf / mbtree=0 / crf=17.2000 / qcomp=0.60 / qpmin=0 / qpmax=69 / qpstep=4 / vbv_maxrate=50000 / vbv_bufsize=62500 / crf_max=0.0 / nal_hrd=none / filler=0 / ip_ratio=1.40 / pb_ratio=1.30 / aq=3:0.90
    Language : English
    Default : Yes
    Forced : No
    Audio #1
    ID : 2
    Format : AC-3
    Format/Info : Audio Coding 3
    Mode extension : CM (complete main)
    Format settings, Endianness : Big
    Codec ID : A_AC3
    Duration : 1h 19mn
    Bit rate mode : Constant
    Bit rate : 192 Kbps
    Channel(s) : 2 channels
    Channel positions : Front: L R
    Sampling rate : 48.0 KHz
    Compression mode : Lossy
    Stream size : 109 MiB (5%)
    Title : MVO (SDI Media)
    Language : Russian
    Default : Yes
    Forced : No
    Audio #2
    ID : 3
    Format : AC-3
    Format/Info : Audio Coding 3
    Mode extension : CM (complete main)
    Format settings, Endianness : Big
    Codec ID : A_AC3
    Duration : 1h 19mn
    Bit rate mode : Constant
    Bit rate : 448 Kbps
    Channel(s) : 6 channels
    Channel positions : Front: L C R, Side: L R, LFE
    Sampling rate : 48.0 KHz
    Compression mode : Lossy
    Stream size : 255 MiB (11%)
    Title : MVO (SkyeFilmTV)
    Language : Russian
    Default : No
    Forced : No
    Audio #3
    ID : 4
    Format : AC-3
    Format/Info : Audio Coding 3
    Mode extension : CM (complete main)
    Format settings, Endianness : Big
    Codec ID : A_AC3
    Duration : 1h 19mn
    Bit rate mode : Constant
    Bit rate : 384 Kbps
    Channel(s) : 6 channels
    Channel positions : Front: L C R, Side: L R, LFE
    Sampling rate : 48.0 KHz
    Compression mode : Lossy
    Stream size : 218 MiB (10%)
    Title : MVO (BaibaKo)
    Language : Russian
    Default : No
    Forced : No
    Audio #4
    ID : 5
    Format : AC-3
    Format/Info : Audio Coding 3
    Mode extension : CM (complete main)
    Format settings, Endianness : Big
    Codec ID : A_AC3
    Duration : 1h 19mn
    Bit rate mode : Constant
    Bit rate : 448 Kbps
    Channel(s) : 6 channels
    Channel positions : Front: L C R, Side: L R, LFE
    Sampling rate : 48.0 KHz
    Compression mode : Lossy
    Stream size : 255 MiB (11%)
    Title : Original
    Language : English
    Default : No
    Forced : No
    Text #1
    ID : 6
    Format : UTF-8
    Codec ID : S_TEXT/UTF8
    Codec ID/Info : UTF-8 Plain Text
    Title : Full
    Language : Russian
    Default : No
    Forced : No
    Text #2
    ID : 7
    Format : UTF-8
    Codec ID : S_TEXT/UTF8
    Codec ID/Info : UTF-8 Plain Text
    Title : Full
    Language : English
    Default : No
    Forced : No
    Text #3
    ID : 8
    Format : UTF-8
    Codec ID : S_TEXT/UTF8
    Codec ID/Info : UTF-8 Plain Text
    Title : SDH
    Language : English
    Default : No
    Forced : No
    Menu
    00:00:00.000 : en:1.
    00:10:19.000 : en:2.
    00:20:15.000 : en:3.
    00:30:59.000 : en:4.
    00:39:38.000 : en:5.
    00:50:33.000 : en:6.
    00:59:21.000 : en:7.
    01:11:14.000 : en:8.
    01:15:49.000 : en:9.[/pre]

    Скриншоты



    Скачать .torrent

    Скачать торрент-файл бесплатно и на максимальной скорости!

    Как скачивать? · Что такое торрент? · Рейтинг и ограничения

    !ВНИМАНИЕ!
    Сайт не распространяет и не хранит электронные версии произведений, а занимается лишь лишь предоставлением доступа к создаваемому пользователями каталогу ссылок на торрент-файлы, которые содержат только списки хеш-сумм, убедительная просьба с жалобами обращаться напрямую к пользователю. Файлы для обмена на трекере предоставлены пользователями сайта, и администрация не несёт ответственности за их содержание. Просьба не заливать файлы, защищенные авторскими правами, а также файлы нелегального содержания!


    _________________
    [Профиль] [ЛС]
    Показать сообщения:    
    Ответить на тему

    Текущее время: Сегодня, в 11:09

    Часовой пояс: GMT + 2



    Вы не можете начинать темы
    Вы не можете отвечать на сообщения
    Вы не можете редактировать свои сообщения
    Вы не можете удалять свои сообщения
    Вы не можете голосовать в опросах
    Вы не можете прикреплять файлы к сообщениям
    Вы не можете скачивать файлы